#VERSION:0.83;
#TITLE:Peng-Ging Sky High!!;
#SUBTITLE:;
#ARTIST:moimoi + BEMANI Sound Team "S-C-U";
#TITLETRANSLIT:;
#SUBTITLETRANSLIT:;
#ARTISTTRANSLIT:moimoi + S-C-U;
#GENRE:HARD ELECTRIC POP;
#CREDIT:;
#MUSIC:Peng-Ging Sky High!!.ogg;
#BANNER:Peng-Ging Sky High!!.png;
#BACKGROUND:Peng-Ging Sky High!!-bg.png;
#CDTITLE:./CDTitles/bm IIDX 30 RESIDENT.png;
#SAMPLESTART:50.226;
#SAMPLELENGTH:15.000;
#SELECTABLE:YES;
#OFFSET:0.012;
#BPMS:0.000=194.000;
#STOPS:255.500=0.619
,287.000=0.619
;
#TIMESIGNATURES:0.000=4=4,
252.000=6=4,
258.000=4=4,
286.000=6=4,
292.000=4=4
;
#BGCHANGES:0.000=Peng-Ging Sky High!!.mp4=1.000=0=0=0=StretchNoLoop====,
99999.000=-nosongbg-=1.000=0=0=0=StretchNoLoop====
;
#FGCHANGES:;

//--------------- dance-single - forcednature ----------------
#NOTEDATA:;
#STEPSTYPE:dance-single;
#DESCRIPTION:forcednature;
#CREDIT:forcednature;
#DIFFICULTY:Beginner;
#METER:3;
#RADARVALUES:0,0,0,0,0;
#NOTES:
0000
0000
0000
0000
,
0000
0000
0000
0000
,
0000
0000
0000
0000
,
0000
0000
0000
0000
,
0000
0000
0000
0000
,
1000
0000
0000
0000
,
0001
0000
0000
0000
,
0100
0000
0000
0000
,
0000
0000
0000
0000
,
1001
0000
0000
0000
,
0000
0000
0000
0000
,
0001
0000
0000
0000
,
0000
0000
0000
0000
,
0010
0000
0000
0000
,
0000
0000
0000
0000
,
0001
0000
0000
0000
,
0100
0000
0000
0000
,
0001
0000
0000
0000
,
0000
0000
0000
0000
,
1000
0000
0000
0000
,
0000
0000
0000
0000
,
0010
0000
0000
0000
,
0000
0000
0000
0000
,
1000
0000
1000
0000
,
0001
0000
0000
0000
,
0010
0000
0000
0000
,
0000
0000
0000
0000
,
0100
0000
0000
0000
,
1000
0000
0000
0000
,
0001
0000
0000
0000
,
0000
0000
0000
0000
,
0100
0000
0000
0000
,
0010
0000
0010
0000
,
1000
0000
0000
0000
,
0000
0000
0000
0000
,
0001
0000
0000
0000
,
0010
0000
0000
0000
,
0001
0000
0000
0000
,
0100
0000
0000
0000
,
0001
0000
0001
0000
,
1000
0000
0000
0000
,
1001
0000
0000
0000
,
0001
0000
0000
0000
,
0100
0000
0000
0000
,
0010
0000
0000
0000
,
1000
0000
0000
0000
,
0100
0000
0000
0000
,
0010
0000
0000
0000
,
0001
0000
0001
0000
,
1000
0000
0000
0000
,
0010
0000
0000
0000
,
0100
0000
0100
0000
,
0001
0000
0001
0000
,
1000
0000
0000
0000
,
0010
0000
0000
0000
,
1000
0000
1000
0000
,
0100
0000
0000
0000
,
1001
0000
0000
0000
,
0001
0000
0000
0000
,
0010
0000
0010
0000
,
0000
0000
0100
0000
,
1000
0000
0000
0000
,
0001
0000
0000
0000
,
0100
0000
0100
0000
,
0000
0000
0001
0000
,
0000
0000
0001
0000
,
0000
0000
0001
0000
,
0000
0000
0000
0000
,
0000
0000
1000
0000
,
1000
0000
1000
0000
,
1000
0000
0010
0000
,
0010
0000
0100
0000
,
0000
0001
0000
0001
,
0000
0010
0000
0000
,
0001
0000
0100
0000
,
0010
0000
0000
0000
,
1001
0000
0000
0000
,
1000
0000
0100
0000
,
0010
0000
0010
0000
,
0001
0000
0000
0000
,
0110
0000
0000
0000
,
1000
0000
0100
0000
,
1000
0000
0000
0000
,
0010
0000
0010
0000
,
0010
0000
0000
0000
,
0100
0000
0001
0000
,
1000
0000
1000
0000
,
0010
0000
0000
0000
,
2002
0000
0000
0000
,
0000
0000
0000
0000
,
0000
0000
0000
0000
,
0000
0000
0000
0000
,
3003
0000
0000
0000
;

//--------------- dance-single - forcednature ----------------
#NOTEDATA:;
#STEPSTYPE:dance-single;
#DESCRIPTION:forcednature;
#CREDIT:forcednature;
#DIFFICULTY:Easy;
#METER:8;
#RADARVALUES:0,0,0,0,0;
#NOTES:
0000
0000
0000
0000
,
0000
0000
0000
0000
,
0000
0000
0000
0000
,
0000
0000
0000
0000
,
0000
0000
0000
0000
0000
0000
0000
1001
,
0000
0000
0100
0000
0010
0000
0000
1001
,
0000
0000
0010
0000
0100
0000
0000
1001
,
0000
1000
1000
0001
,
0000
0000
0000
0000
,
0110
0000
0001
0000
,
0010
0100
0010
0000
,
0100
1000
0001
0000
,
0100
0001
0100
0000
,
0010
0000
1000
0000
,
0001
0010
0100
0000
,
0010
0000
0001
0000
1000
0000
0000
0010
,
0000
0010
0000
0000
0100
0000
0000
0000
,
0110
0000
0001
0000
,
1000
0100
0010
0000
,
0100
1000
0001
0000
,
0010
0001
0100
0000
,
0010
1000
0001
1000
,
0010
0000
0100
0000
,
0001
0000
0000
1000
0000
0000
0001
0000
,
0100
0000
0010
0000
0100
0010
0000
0110
,
0000
0000
1000
0000
1000
0000
0000
0100
,
0000
1000
1000
0000
,
0010
0100
0001
0010
,
0100
0010
0001
0000
,
0100
0000
0001
0010
,
0100
1000
0001
0000
,
0100
0010
1000
0000
,
0100
0000
0010
0000
0001
0000
0000
1001
,
0000
0000
1000
0000
0010
0000
0000
1000
,
0000
0001
0010
0000
,
0001
0100
0010
0100
,
0001
0000
1000
0010
,
1001
0000
0110
0000
,
0001
0010
0100
1000
,
0010
0000
0010
0000
0100
0000
0000
0110
,
0000
0001
1000
0000
0000
0000
0000
0000
,
1001
0000
1000
0100
,
0010
0100
1000
0001
,
0010
0000
0001
1000
,
0010
0100
0001
1000
,
0010
0000
0100
0001
,
1000
0100
1000
0001
,
0010
0010
0001
0100
,
0001
1000
0001
0000
0100
0000
0010
0000
,
1001
0000
1000
0100
,
0010
0001
0100
0010
,
0110
0000
1001
0000
,
0110
0000
1000
0001
,
1001
0000
1000
0100
,
0010
0001
0100
0010
,
2000
0001
0001
3001
,
0200
0000
0000
0300
,
1001
0000
0001
0010
,
0100
0000
1000
0010
,
0100
0000
0000
0001
0000
0000
2002
0000
,
0000
0000
3003
0000
0100
0000
0000
0110
,
0000
0000
1000
0000
0001
0000
0000
0110
,
0000
0000
0001
0000
1000
0000
0000
1001
,
0000
0100
0010
0100
,
0000
0000
0000
0110
0000
0000
0000
0000
,
0001
0000
0100
0000
,
0001
0000
1000
0000
,
0010
0000
1000
0000
,
0010
0000
1000
0100
,
1000
0000
0001
0001
,
0001
0001
0010
0001
,
0100
0000
0000
0001
0000
1000
0001
0000
,
0000
1001
0000
1000
,
0010
0100
0010
1000
,
0001
0000
0100
0001
,
0010
0100
1000
0010
,
0100
0000
0001
1000
,
0010
1000
0001
0010
,
0100
0100
1000
0010
,
1000
0001
1000
0000
0010
0000
0000
0000
,
0110
0000
0100
0001
,
0010
0100
1000
0010
,
0110
1000
1001
0100
,
0110
0000
0000
0000
0000
0000
0000
0000
0001
0000
0000
0001
0000
0000
1000
0000
,
0001
0000
0100
0010
,
1000
0001
0010
0000
,
0100
1000
0100
0000
1000
0000
0001
0000
,
0020
0000
0030
0000
,
2002
0000
0000
0000
,
0000
0000
0000
0000
,
0000
0000
0000
0000
,
0000
0000
0000
0000
,
3003
0000
0000
0000
;

//--------------- dance-single - forcednature ----------------
#NOTEDATA:;
#STEPSTYPE:dance-single;
#DESCRIPTION:forcednature;
#CREDIT:forcednature;
#DIFFICULTY:Medium;
#METER:11;
#RADARVALUES:0,0,0,0,0;
#NOTES:
0000
0000
0000
0000
,
0000
0000
0000
0000
,
0000
0000
0000
0000
,
0000
0000
0000
0000
,
0000
0000
0000
0000
0000
0000
0000
1001
,
0000
1000
0100
0000
1000
0010
0000
1001
,
0000
0001
0100
0000
0001
0010
0000
1001
,
0000
1000
0001
0010
0001
1000
0001
0010
,
0000
0000
0000
0000
,
0110
1000
1100
0001
,
0010
0000
0100
0010
0000
0001
0010
0000
,
0001
0000
1000
0010
1000
0000
0001
0000
,
0100
0000
0001
1000
0001
0000
0010
0000
,
0110
0000
1000
0100
1000
0000
0001
0000
,
0110
0000
0001
0100
0000
0001
0010
0000
,
0001
1000
0001
0000
0100
0000
0010
1000
,
0000
0100
0100
1000
0100
0000
0000
0000
,
0110
1000
0110
0001
,
1000
0010
1000
0010
0000
0000
0100
0000
,
0001
0000
0001
0010
0000
0100
0010
0000
,
0001
0000
1000
0001
0000
0100
0001
0000
,
1000
0000
0100
1000
0100
0000
0010
0000
,
0001
0000
0101
0000
1010
0000
1000
1000
,
0001
0000
0010
0001
0000
0100
0001
0000
,
1000
0000
1001
0000
0010
0100
0000
0110
,
0000
0001
1000
0000
0001
0100
0000
0001
,
0000
0010
0001
0000
1000
0100
0010
0000
,
0100
0000
1000
0010
0000
1000
0001
0000
,
0100
0000
0001
1000
0001
0000
0010
0000
,
0100
0000
1000
0100
1000
0000
0010
0000
,
0100
0000
0001
0100
0000
0001
0010
0000
,
0200
1000
1000
1300
,
0100
0010
0100
0000
0010
0001
0000
1001
,
0000
0000
1000
0000
0010
1000
0000
0001
,
0000
0100
0001
0000
0010
0000
0001
0000
,
1000
0000
0010
0200
0000
0000
0001
0000
,
0001
0301
1000
0010
,
0110
0001
0011
0000
,
0110
1000
1010
0000
,
0001
0100
0001
0000
1000
0010
1000
0010
,
0000
0100
0100
0000
0000
0000
0000
0000
,
1001
0010
1001
0100
,
0001
0010
0001
0000
1000
0000
0100
0000
,
1000
0010
1000
0000
0001
0000
0100
0000
,
0001
0010
0100
0000
1000
0010
0100
0000
,
0001
1100
1000
0101
,
0001
0000
0010
0100
0000
1000
0100
0000
,
0010
0000
0001
1000
0001
0000
0100
0000
,
0010
1000
0010
0000
1000
0100
1000
0000
,
0010
1001
0100
1001
,
0010
0000
0001
0100
0001
0000
1000
0010
,
1000
0001
0011
1000
,
1100
0000
0000
0000
0000
0000
0000
0000
0001
0000
0000
0001
0000
0000
0100
0000
,
0010
0000
1000
0100
0000
0010
0100
0000
,
1000
0000
0010
1000
0010
0000
0100
0000
,
0002
0023
0230
2300
,
3020
0000
0030
0200
0000
0300
0001
1000
,
0002
0010
0010
0013
,
2000
0010
0010
3010
,
0200
0000
0000
0310
0000
0000
2002
0000
,
0000
0000
3003
0000
0100
0010
0000
0110
,
0000
0001
0100
0000
0001
0010
0000
0110
,
0000
1000
0100
0000
1000
0010
0000
0110
,
0000
0001
1000
0001
1000
0001
1000
0001
,
0000
0000
0000
2000
0000
0000
0100
0000
,
0100
0000
0000
0010
0000
0000
0010
0000
,
3010
1000
0002
0100
,
0100
0000
0010
0010
,
0013
0000
0001
0000
1001
0000
1000
0100
,
0010
0001
0101
0101
,
1010
1010
0001
1000
,
0010
0100
0000
0001
0000
0001
0001
0000
,
0000
0000
1001
0000
1000
0100
0010
0000
,
0100
1100
0001
0011
,
1000
0000
0010
1000
0000
0001
0100
0000
,
0001
0010
0001
0000
0010
0000
0100
0000
,
0110
0000
1000
0010
0000
1000
0001
0000
,
0010
0000
0001
1000
0001
0000
0100
0000
,
0110
1000
0001
0010
,
0001
0100
0001
0000
0100
0010
0100
0000
,
1001
1000
0100
0010
,
0100
0000
1000
0010
1000
0000
0001
0000
,
0101
1000
1010
0001
,
0011
0000
0000
0000
1000
0000
0000
0000
0100
0000
0000
0100
0000
0000
0010
0000
,
0100
0000
1000
0001
0000
0010
0001
0000
,
0110
0000
1000
0000
0001
1000
0001
0000
,
0100
0010
0100
0010
1000
0001
1000
0000
,
0020
0000
0000
0030
,
2002
0000
0003
0000
,
3200
0320
0032
2003
,
3020
0230
0302
2003
,
3200
0320
0032
2003
,
3000
0000
0000
0000
;

//--------------- dance-single - forcednature ----------------
#NOTEDATA:;
#STEPSTYPE:dance-single;
#DESCRIPTION:forcednature;
#CREDIT:forcednature;
#DIFFICULTY:Hard;
#METER:16;
#RADARVALUES:0,0,0,0,0;
#NOTES:
0000
0000
0000
0000
,
0000
0000
0000
0000
,
0000
0000
0000
0000
,
0000
0000
0000
0000
,
0000
0000
0000
0000
0000
0000
0000
0110
,
0000
1000
0001
0100
0001
0010
0000
0110
,
0000
0001
1000
0100
1000
0010
0000
0110
,
0000
0100
0001
0010
0100
1000
0010
0100
,
0000
0000
0000
0000
,
1002
0000
1003
0100
0020
0000
0130
1000
,
0001
0010
0001
1000
0000
0010
0100
0000
,
0002
0000
0013
0200
0000
1000
1000
0000
,
0310
0000
0100
1000
0001
0100
0001
2000
,
0010
3001
1000
0101
,
0002
0000
0013
0020
0000
0130
0100
0000
,
1001
0000
1000
0010
0100
0001
0010
0011
,
0000
0001
0001
0100
0220
0000
0330
0000
,
2001
0000
3001
0100
0020
0000
0130
0001
,
0010
0100
1000
0100
0000
0010
0001
0000
,
2100
0000
3010
0020
0000
1000
1030
0000
,
0001
0100
0001
0010
0000
0100
1000
0002
,
0100
1000
0013
0011
,
0110
0000
1100
0000
1000
0001
0010
0010
,
0002
0000
0103
0120
0000
1030
1100
0000
,
0011
0000
0101
0000
0110
0110
0000
1001
,
0000
1000
0100
0010
0100
1000
0100
0001
,
0100
0000
1000
0000
0001
0000
0000
0001
0010
0000
0000
0000
0110
0000
0000
0000
,
0001
0100
0010
0100
0001
0100
1000
0100
,
0001
0000
0000
0001
1000
0000
0010
0000
0100
0000
0001
0000
0001
0000
0020
0000
,
0000
0130
0001
0100
1000
0000
0011
0000
,
0010
0001
1000
0010
1000
0100
0001
0000
,
0100
0000
1000
0100
1000
0000
0001
0000
0010
0000
0001
0000
1000
0000
0010
0000
,
0100
0000
0010
0100
0010
0000
0000
0000
0101
0000
0101
0000
0000
0000
0012
0000
,
0000
0013
0100
1000
0100
0001
0100
1000
,
0001
0010
0001
1000
0010
0000
0110
0000
,
0100
0001
0010
0001
1000
0010
0100
0000
,
0001
0000
0000
0001
0010
0000
0000
0000
0100
0000
1000
0000
0010
0000
0000
0000
,
0210
0000
0000
0301
0002
0000
0013
0000
,
2100
0000
0000
3010
0010
1000
0001
0000
,
0010
0000
0001
0010
0001
0000
0010
0100
0010
0000
0100
1000
0100
0000
1000
0000
,
0000
1001
1001
0000
0000
0010
0100
0000
,
1001
0000
0001
0100
1000
0100
0001
1000
,
0010
1010
1100
0101
,
0001
0010
0100
1000
0010
0100
0001
0010
,
0100
0000
1000
0100
1000
0000
0010
1000
0010
0000
0100
0010
0100
0000
0001
0000
,
0011
0000
0010
0100
1000
0001
0100
1000
,
0100
0001
1000
0010
0100
0000
0110
0000
,
2001
0000
0100
0000
3001
0010
0100
1000
,
0010
0000
1000
0010
1000
0000
0010
0100
0010
0000
0100
0000
0100
0000
0001
0000
,
0011
0000
0010
0100
1000
0001
0010
1000
,
0010
0011
0101
1100
,
1010
0000
0000
0000
0010
0000
0100
0001
0100
0000
0000
0000
0001
0000
0010
0100
,
0010
0000
0000
0100
1000
0000
0001
0000
0011
0000
0000
0011
0000
0000
1000
0000
,
1100
0000
0000
0000
0001
0000
0100
0001
0100
0000
0010
0000
1000
0000
0001
0000
,
0010
0000
0100
0010
0100
0000
1000
0000
0001
0000
0100
0000
0010
0000
0010
0000
,
1000
0000
0100
0000
0001
0000
0100
0000
1000
0000
0100
1000
0100
0000
1000
0001
,
0010
0000
0020
0000
0000
0000
0230
0000
0000
0000
0300
0000
1000
0001
1000
0000
,
0001
0100
1000
0100
0001
1000
0020
0000
,
1030
0100
0001
0100
1000
0001
0020
0000
,
0031
0000
0100
0001
1000
0000
0010
0000
1000
0100
0010
0000
0002
0000
0000
0000
,
0000
0000
0103
0000
0100
0000
0001
0000
1000
0010
1000
0010
0100
0000
0001
0000
,
0000
1000
0100
0001
1000
0010
0000
0011
,
0000
0001
0100
1000
0001
0010
0000
1010
,
0000
0000
1000
0100
1000
0000
0001
0100
0001
0000
0010
0100
0010
0000
0200
0300
,
0000
0000
0000
1001
0000
1000
0100
0010
,
0100
0000
1000
0000
0000
0000
0001
0000
0010
0000
0000
0010
0001
0000
0100
0000
,
0010
0000
0110
0000
1001
0000
0001
0200
,
0010
0000
0000
0000
1000
0000
0000
0000
0301
0000
0000
0001
0000
0000
0010
0000
,
0110
0000
0000
0000
0100
0000
1000
0100
2000
0000
0000
0000
3010
0000
0100
0000
,
0002
0013
1100
1100
,
0001
0000
0010
0001
0010
0000
0100
1000
0001
0000
0100
0000
0010
0000
0100
0000
,
0001
1000
0001
1000
0001
1000
0010
0000
0000
0000
0100
0000
1001
0000
0000
0000
,
0000
0000
0000
0000
0110
0000
0001
0000
0010
0000
0100
0010
0100
0000
1000
0000
,
0010
1100
0101
0011
,
0001
0010
1000
0010
0001
1000
0100
0001
,
0100
0000
1000
0100
1000
0000
0010
1000
0010
0000
0100
0001
1000
0000
1000
0000
,
1100
0000
0000
0100
0010
0000
0001
0000
0100
0000
1000
0000
0100
0000
0001
0000
,
1000
0000
0010
0000
0100
0010
0100
0000
0001
0000
0010
0000
0110
0000
0000
0000
,
1002
0000
0000
0000
0100
0000
0000
0000
1003
0000
0010
1000
0010
0000
0100
0000
,
0001
0000
0010
0001
0010
0000
0001
1000
0100
0000
0010
0100
0010
0000
0001
1000
,
0020
0000
0130
1000
0100
0001
1000
0010
,
1000
0101
0011
1010
,
1001
0000
0000
0001
0010
0000
0100
0010
0001
0000
0000
1000
0010
0000
0100
0010
,
1000
0000
0100
1000
0100
0000
0010
0000
0011
0000
0000
0011
0000
0000
0110
0000
,
1001
0000
0000
0000
0001
0000
0100
0001
0100
0000
0010
0000
1000
0000
0100
0000
,
0001
0000
0100
0010
0100
0000
1000
0000
0001
0000
0010
0001
0010
0000
0100
0000
,
1000
0010
1000
0010
1000
0010
1000
0010
0100
0001
0100
0001
0100
0001
0100
0001
,
2000
0000
0000
3200
0000
0000
0310
0000
,
2002
0000
0003
0000
,
3200
0320
0032
2003
3002
0023
0230
2300
,
3020
0230
0302
2003
3002
0203
0320
2030
,
3200
0320
0032
2003
3002
0023
0230
2300
,
3000
0000
0000
0000
;

//--------------- dance-double - forcednature ----------------
#NOTEDATA:;
#STEPSTYPE:dance-double;
#DESCRIPTION:forcednature;
#CREDIT:forcednature;
#DIFFICULTY:Easy;
#METER:9;
#RADARVALUES:0,0,0,0,0;
#NOTES:
00000000
00000000
00000000
00000000
,
00000000
00000000
00000000
00000000
,
00000000
00000000
00000000
00000000
,
00000000
00000000
00000000
00000000
,
00000000
00000000
00000000
00000000
00000000
00000000
00000000
00011000
,
00000000
00000000
01000000
00000000
00010000
00000000
00000000
10010000
,
00000000
00000000
10000000
00000000
00100000
00000000
00000000
01100000
,
00000000
00010000
00010000
00100000
,
00000000
00000000
00000000
00000000
,
00011000
00000000
00000100
00000000
,
00001000
00001000
00000010
00000000
,
00010000
00000000
00001000
00000000
,
00100000
00100000
00010000
00000000
,
01000000
00000000
00100000
00000000
,
10000000
00010000
10000000
00000000
,
01000000
00000000
00000000
00000000
00100000
00000000
00000000
00010000
,
00000000
00010000
00000000
00000000
01000000
00000000
00000000
00000000
,
00011000
00000000
00000100
00000000
,
00001000
00001000
00000010
00000000
,
00000100
00000001
00000100
00000000
,
00000001
00000001
00000010
00000000
,
00000100
00000000
00001000
00000100
,
00010000
00000000
00001000
00000000
,
00011000
00000000
00000000
01000000
00000000
00000000
00010000
00000000
,
00100000
00000000
00100000
00000000
01000000
00100000
00000000
01100000
,
00000000
00000000
10000000
00000000
10000000
00000000
00000000
00100000
,
00000000
10000000
10000000
00000000
,
01000000
00100000
00010000
00100000
,
00001000
00010000
00000100
00000000
,
00001000
00000000
00000010
00001000
,
00000010
00000100
00000001
00000000
,
00000010
00000100
00001000
00000000
,
00000010
00000000
00010000
00000000
00001000
00000000
00000000
00011000
,
00000000
00000000
01000000
00000000
00010000
00000000
00000000
10000000
,
00000000
00010000
00100000
00000000
,
00001000
00001000
00010000
00000100
,
00001000
00000000
00000010
00000000
,
00001001
00000000
00000110
00000000
,
00001000
00000100
00010000
00001000
,
00100000
00000000
00100000
00000000
00010000
00000000
00000000
01100000
,
00000000
10000000
01000000
00000000
00000000
00000000
00000000
00000000
,
10010000
00010000
00100000
00001000
,
00010000
00000100
00001000
00000010
,
00010000
00001000
00000010
00000100
,
00001000
00000001
00000010
00000000
,
00000001
00000100
00000010
00001000
,
00000100
00010000
00001000
00100000
,
00001000
00001000
00010000
00001000
,
01000000
00010000
01000000
00000000
00100000
00000000
10000000
00000000
,
10010000
00010000
00100000
00001000
,
00010000
00000100
00001000
00000010
,
00000110
00000000
00001001
00000000
,
00011000
00000000
01000000
01000000
,
10010000
00000000
10000000
01000000
,
00100000
00010000
01000000
00010000
,
00200000
00010000
00010000
00310000
,
00022000
00000000
00000000
00033000
,
00011000
00000000
00000100
00001000
,
00000010
00000000
00000100
00000001
,
00000010
00000000
00000000
00000100
00000000
00000000
00000220
00000000
,
00000000
00000000
00000330
00000000
00000100
00000000
00000000
00001001
,
00000000
00000000
00001000
00000000
00000100
00000000
00000000
00011000
,
00000000
00000000
00100000
00000000
00010000
00000000
00000000
10010000
,
00000000
01000000
01000000
01000000
,
00000000
00000000
00000000
01100000
00000000
00000000
00000000
00000000
,
00010000
00000000
00100000
00100000
,
00010000
00000000
01000000
00000000
,
00001000
00000000
00010000
00010000
,
00000010
00000000
00001000
00000100
,
00010000
00000100
00000010
00000010
,
00000010
00000010
00000001
00000100
,
00001000
00000000
00000000
00010000
00000000
00001000
00010000
00000000
,
00000000
00011000
01000000
00010000
,
00100000
01000000
00100000
00010000
,
10000000
00100000
10000000
01000000
,
00010000
00001000
00100000
00001000
,
00010000
00000100
00001000
00000010
,
00001000
00000001
00000010
00000100
,
00001000
00001000
00000010
00001000
,
00000100
00001000
00000100
00000000
00010000
00000000
00001000
00000000
,
00011000
01000000
00010000
00100000
,
01000000
00100000
00010000
10000000
,
01100000
00010000
10010000
00001000
,
00011000
00000000
00000000
00000000
00000000
00000000
00000000
00000000
00000100
00000000
00000000
00000100
00000000
00000000
00000100
00000000
,
00001000
00000000
00000001
00000010
,
00000001
00000001
00000100
00000100
,
00000001
00001000
00000001
00000000
00001000
00000001
00001000
00000000
,
00000020
00000000
00000030
00000000
,
00022000
00000000
00000000
00000000
,
00000000
00000000
00000000
00000000
,
00000000
00000000
00000000
00000000
,
00000000
00000000
00000000
00000000
,
00033000
00000000
00000000
00000000
;

//--------------- dance-double - forcednature ----------------
#NOTEDATA:;
#STEPSTYPE:dance-double;
#DESCRIPTION:forcednature;
#CREDIT:forcednature;
#DIFFICULTY:Medium;
#METER:12;
#RADARVALUES:0,0,0,0,0;
#NOTES:
00000000
00000000
00000000
00000000
,
00000000
00000000
00000000
00000000
,
00000000
00000000
00000000
00000000
,
00000000
00000000
00000000
00000000
,
00000000
00000000
00000000
00000000
00000000
00000000
00000000
00011000
,
00000000
00000100
00001000
00000000
00000010
00010000
00000000
00011000
,
00000000
01000000
00010000
00000000
00100000
00001000
00000000
00011000
,
00000000
00000010
00001000
00000010
00000100
00000010
00001000
00000010
,
00000000
00000000
00000000
00000000
,
00001001
00010000
00011000
00100000
,
00010000
00000000
01000000
00100000
00000000
10000000
00100000
00000000
,
01000000
00000000
00010000
00100000
00010000
00000000
01000000
00000000
,
00001000
00000000
00010000
00000100
00010000
00000000
00001000
00000000
,
00011000
00000000
00000010
00001000
00000010
00000000
00000100
00000000
,
00001001
00000000
00010000
00001000
00000000
00100000
00010000
00000000
,
01000000
00010000
01000000
00000000
00100000
00000000
10000000
01000000
,
00000000
00100000
00100000
01000000
00100000
00000000
00000000
00000000
,
01100000
00010000
01100000
10000000
,
00010000
01000000
00010000
01000000
00000000
00000000
00001000
00000000
,
00010000
00000000
00010000
00000100
00000000
00000100
00001000
00000000
,
00000010
00000000
00000100
00000001
00000000
00000010
00000001
00000000
,
00001000
00000000
00000010
00001000
00000010
00000000
00010000
00000000
,
00001000
00000000
00011000
00000000
00101000
00000000
00100000
00100000
,
00010000
00000000
01000000
00100000
00000000
10000000
01000000
00000000
,
01100000
00000000
00010000
00000000
01000000
01000000
00000000
10010000
,
00000000
00010000
01000000
00000000
00001000
00010000
00000000
00000100
,
00000000
00001000
00000100
00000000
00000010
00000001
00000010
00000000
,
00000110
00000000
00000100
00001000
00000000
00000100
00010000
00000000
,
00001000
00000000
00100000
00010000
00100000
00000000
00010000
00000000
,
01000000
00000000
00100000
10000000
00100000
00000000
01000000
00000000
,
00010000
00000000
00100000
00010000
00000000
00100000
00001000
00000000
,
00020000
00000100
00000100
00030100
,
00010000
00001000
00010000
00000000
00000010
00001000
00000000
00001001
,
00000000
00000000
00010000
00000000
00001000
00100000
00000000
00001000
,
00000000
00010000
00001000
00000000
01000000
00000000
00010000
00000000
,
10100000
00000000
10000000
02000000
00000000
00000000
00100000
00000000
,
00100000
03100000
01000000
10000000
,
00110000
00100000
00011000
00000000
,
00001100
00000010
00001001
00000000
,
00001000
00000010
00001000
00000000
00000100
00001000
00000100
00010000
,
00000000
00001000
00001000
00000000
00000000
00000000
00000000
00000000
,
00011000
00100000
00011000
01000000
,
00100000
10000000
00100000
00000000
01000000
00000000
00010000
00000000
,
00100000
00010000
00100000
00000000
00001000
00000000
00010000
00000000
,
00000100
00001000
00000010
00000000
00000100
00000001
00000010
00000000
,
00000110
00001000
00001100
00010000
,
00001000
00000000
00100000
00010000
00000000
01000000
00100000
00000000
,
10000000
00000000
01000000
00100000
00010000
00000000
01000000
00000000
,
00001000
00010000
00001000
00000000
00010000
00000100
00001000
00000000
,
00001001
00000010
00000110
00001000
,
00000001
00000000
00000100
00000010
00000100
00000000
00000001
00001000
,
00000010
00000100
00001001
00000010
,
00011000
00000000
00000000
00000000
00000000
00000000
00000000
00000000
00100000
00000000
00000000
00100000
00000000
00000000
00010000
00000000
,
01000000
00000000
00100000
10000000
00000000
01000000
10000000
00000000
,
00010000
00100000
00000000
00001000
00000000
01000000
00010000
00000000
,
00200000
02300000
03020000
00032000
,
00003020
00000000
00000030
00000200
00000000
00000300
00001000
00000001
,
00002000
00000010
00000010
00003010
,
00020000
00001000
00001000
00031000
,
00011000
00000000
00000000
01000000
00000000
00000000
20020000
00000000
,
00000000
00000000
30030000
00000000
00010000
00100000
00000000
01100000
,
00000000
01000000
10000000
00000000
01000000
00010000
00000000
00011000
,
00000000
00000100
00001000
00000000
00000010
00000100
00000000
00001001
,
00000000
00010000
00000010
00010000
00001000
00010000
00000100
00010000
,
00000000
00000000
00000000
00011000
00000000
00000000
01000000
00000000
,
00010000
00000000
00000000
00100000
00000000
01000000
00100000
00000000
,
01000000
00000000
10000000
00000000
10010000
00000000
00010000
00100000
,
00010000
00000000
00000000
00000000
01000000
00000000
00000000
00000000
00001000
00000000
00000000
00001000
00000000
00000000
00010000
00000000
,
00001000
00000000
00100000
00000000
00011000
00000000
00000100
00001000
,
00000010
00000100
00000110
00000110
,
00001001
00000000
00001001
00000000
00001000
00000100
00001000
00000100
,
00010000
00001000
00100000
00010000
00000000
01000000
01000000
00000000
,
00000000
00000000
10010000
00000000
10000000
01000000
00100000
00000000
,
00001000
00011000
00000100
00001010
,
00000001
00000000
00000010
00000100
00000000
00001000
00000010
00000000
,
00010000
00001000
00010000
00000000
00100000
00000000
01000000
00000000
,
01100000
00000000
00010000
10000000
00000000
00100000
10000000
00000000
,
01000000
00000000
00010000
00001000
00010000
00000000
00000010
00000000
,
00001010
00000000
00000001
00000000
00000100
00000010
00000100
00000000
,
00000001
00000010
00000100
00000000
00001000
00000010
00010000
00000000
,
00011000
00000000
00100000
00010000
00100000
00000000
01000000
00000000
,
10000000
00000000
00100000
01000000
00010000
00000000
00100000
00000000
,
00011000
00000100
00011000
00100000
,
00011000
00000000
00000000
00000000
00000010
00000000
00000000
00000000
00001000
00000000
00000000
00001000
00000000
00000000
00000001
00000000
,
00000100
00000000
00001000
00010000
00000000
00100000
00010000
00100000
,
00000000
10000000
00010000
10000000
00000000
01000000
00010000
00000000
,
00001000
00010000
00001000
00010000
00000100
00001000
00000010
00000000
,
00000220
00000000
00000000
00000330
,
00002002
00000000
00003000
00000000
,
00000203
00002300
00023000
00230000
,
02300000
03020000
20030000
30200000
,
20300000
32000000
03020000
00032000
,
00003000
00000000
00000000
00000000
;

//--------------- dance-double - forcednature ----------------
#NOTEDATA:;
#STEPSTYPE:dance-double;
#DESCRIPTION:forcednature;
#CREDIT:forcednature;
#DIFFICULTY:Hard;
#METER:16;
#RADARVALUES:0,0,0,0,0;
#NOTES:
00000000
00000000
00000000
00000000
,
00000000
00000000
00000000
00000000
,
00000000
00000000
00000000
00000000
,
00000000
00000000
00000000
00000000
,
00000000
00000000
00000000
00000000
00000000
00000000
00000000
00011000
,
00000000
01000000
00010000
10000000
01000000
00100000
00000000
00011000
,
00000000
00000100
00001000
00000001
00000100
00000010
00000000
00011000
,
00000000
01000000
00010000
01000000
10000000
01000000
00010000
01000000
,
00000000
00000000
00000000
00000000
,
10020000
00000000
10030000
01000000
00020000
00000000
00031000
00100000
,
00010000
00100000
00001000
00000010
00000000
00000100
00001000
00000000
,
00000002
00000000
00000103
00002000
00000000
00010000
00010000
00000000
,
00103000
00000000
00001000
00010000
00000010
00001000
00000010
00000200
,
00000001
00000310
00001000
00010100
,
00020000
00000000
00031000
00002000
00000000
00103000
00100000
00000000
,
10010000
00000000
10000000
01000000
00100000
00010000
00100000
00101000
,
00000000
00000100
00000100
00001000
00002020
00000000
00003030
00000000
,
00002001
00000000
00003001
00000100
00002000
00000000
00013000
00100000
,
01000000
00010000
10000000
00100000
00000000
10000000
01000000
00000000
,
01200000
00000000
00301000
00002000
00000000
00010000
00013000
00000000
,
00000100
00001000
00000010
00001000
00000000
00001000
00000100
00000020
,
00000001
00000100
00001030
00000110
,
00000011
00000000
00000101
00000000
00000100
00000010
00001000
00001000
,
00000200
00000000
00010300
00020000
00000000
00031000
00001000
00000000
,
00110000
00000000
00101000
00000000
00011000
00011000
00000000
00010100
,
00000000
00000100
00001000
00000010
00001000
00000100
00000010
00001000
,
00010000
00000000
00001000
00000000
00100000
00000000
00000000
00100000
00010000
00000000
00000000
00000000
01100000
00000000
00000000
00000000
,
10000000
00100000
01000000
00100000
10000000
00010000
01000000
10000000
,
01000000
00000000
00000000
01000000
00010000
00000000
00000000
00000000
00100000
00000000
00001000
00000000
00001000
00000000
00020000
00000000
,
00000000
00030100
00001000
00000010
00001000
00000000
00000101
00000000
,
00001010
00010000
00001000
00100000
00001000
00010000
01000000
00000000
,
00100000
00100000
00010000
10000000
00100000
10000000
01000000
00010000
,
00001000
00000000
00010000
00001000
00010000
00000000
00000000
00000000
00011000
00000000
00011000
00000000
00000000
00000000
00010100
00000000
,
00000000
00001100
00010000
00001000
00000010
00001000
00010000
00000100
,
00001000
00000010
00001000
00000001
00000100
00000000
00000110
00000000
,
00001100
00010000
00001000
00100000
00001000
00010000
01000000
00000000
,
10000000
00000000
00000000
10000000
00100000
00000000
00000000
00000000
10000000
00000000
01000000
00000000
00010000
00000000
00000000
00000000
,
00012000
00000000
00000000
00000010
00003020
00000000
00000130
00000000
,
00002001
00000000
00000000
00000000
00000000
00000000
00003010
00000000
00000010
00000000
00000100
00000000
00001000
00000000
00000000
00001000
,
00010000
00000000
00001000
00010000
00001000
00000000
00100000
00010000
00100000
00000000
01000000
00100000
01000000
00000000
10000000
00000000
,
00000000
11000000
11000000
00000000
00000000
00010000
00100000
00000000
,
00011000
00000100
00010000
00001000
00000010
00000100
00001000
00000010
,
00000100
00000110
00000101
00000011
,
00000010
00000100
00010000
00001000
00000010
00000100
00001000
00000010
,
00000100
00000000
00001000
00000100
00001000
00000000
00010000
00001000
00010000
00000000
00100000
00010000
00100000
00000000
01000000
00000000
,
01100000
00000000
00010000
10000000
00100000
10000000
01000000
00010000
,
00001000
00100000
00010000
00100000
00001000
00000000
00000110
00000000
,
00002001
00000000
00000100
00000000
00003010
00001000
00010000
01000000
,
00100000
00000000
10000000
01000000
10000000
00000000
01000000
00100000
01000000
00000000
00100000
00000000
00001000
00000000
00010000
00000000
,
00011000
00000100
00001000
00000010
00010000
00001000
00000010
00000001
,
00000100
00000110
00010010
01001000
,
01100000
00000000
00000000
00000000
00100000
00000000
01000000
00010000
00100000
00000000
00000000
00000000
00001000
00000000
00010000
00000100
,
00001000
00000000
00000000
00001000
00000010
00000000
00000100
00000000
00000110
00000000
00000000
00000110
00000000
00000000
00001010
00000000
,
00001010
00000000
00000000
00000000
00010000
00000000
00001000
00010000
00001000
00000000
00100000
00000000
00010000
00000000
01000000
00000000
,
00010000
00000000
00100000
00010000
00100000
00000000
00001000
00000000
00010000
00000000
00000010
00000000
00001000
00000000
00000000
00000000
,
00000001
00000000
00000100
00000000
00001000
00000000
00000100
00000000
00001000
00000000
00010000
00001000
00010000
00000000
00001000
00100000
,
00010000
00000000
00200000
00000000
00000000
00000000
02300000
00000000
00000000
00000000
03000000
00000000
10000000
00010000
10000000
00000000
,
00010000
00100000
01000000
00010000
00001000
00000010
00000200
00000000
,
00001300
00000010
00000100
00001000
00010000
00100000
02000000
00000000
,
03010000
00000000
00100000
00010000
00100000
00000000
00001000
00000000
00010000
00000100
00001000
00000000
00000020
00000000
00000000
00000000
,
00000000
00000000
00000130
00000000
00000100
00000000
00000001
00000000
00001000
00000010
00001000
00000010
00000100
00000000
00001001
00000000
,
00000000
00000001
00000100
00001000
00010000
00100000
00000000
10010000
,
00000000
10000000
01000000
00010000
00001000
00000010
00000000
00001001
,
00000000
00000000
00001000
00000100
00010000
00000000
00001000
00010000
00001000
00000000
00100000
00010000
00100000
00000000
02000000
03000000
,
00000000
00000000
00000000
10010000
00000000
10000000
10000000
01000000
,
10000000
00000000
00010000
00000000
00000000
00000000
00100000
00000000
00010000
00000000
00000000
00010000
01000000
00000000
00001000
00000000
,
00010000
00000000
00011000
00000000
00010100
00000000
00000100
00002000
,
00000001
00000000
00000000
00000000
00003010
00000000
00001000
00000000
00001000
00000000
00000000
00000100
00000000
00000000
00010000
00000000
,
00011000
00000000
00000000
00000000
00100000
00000000
00010000
00100000
00020000
00000000
00000000
00000000
01030000
00000000
00100000
00000000
,
20000000
31000000
01100000
00101000
,
00001000
00000000
00010000
00001000
00010000
00000000
00001000
00010000
00000010
00000000
00001000
00000000
00000010
00000000
00000100
00000000
,
00000001
00001000
00000001
00001000
00000001
00001000
00000100
00000000
00000000
00000000
00000010
00000000
00001001
00000000
00000000
00000000
,
00000000
00000000
00000000
00000000
00000110
00000000
00001000
00000000
00000010
00000000
00000100
00000001
00000100
00000000
00000010
00000000
,
00001000
00001100
00010100
00101000
,
00110000
00001000
00010000
00100000
01000000
00010000
10000000
00100000
,
10000000
00000000
01000000
00100000
01000000
00000000
00100000
00010000
00100000
00000000
00001000
00010000
00000100
00000000
00000100
00000000
,
00001100
00000000
00000000
00010000
00001000
00000000
00000010
00000000
00000100
00000000
00010000
00000000
00000010
00000000
00000100
00000000
,
00000001
00000000
00000010
00000001
00000010
00000000
00000100
00000000
00001000
00000000
00000100
00010000
00001000
00000000
00000000
00000000
,
00210000
00000000
00000000
00000000
01000000
00000000
00000000
00000000
00310000
00000000
00100000
01000000
00100000
00000000
01000000
00000000
,
10000000
00000000
00100000
10000000
00100000
00000000
10000000
00010000
01000000
00000000
00010000
00100000
00010000
00000000
00100000
00001000
,
00020000
00000000
00030010
00000100
00001000
00010000
00000010
00001000
,
00000001
00000011
00001100
00010100
,
00101000
00000000
00000000
00100000
00010000
00000000
00100000
01000000
10000000
00000000
00000000
00100000
10000000
00000000
00100000
01000000
,
00010000
00000000
00100000
00010000
00100000
00000000
00001000
00000000
00011000
00000000
00000000
00011000
00000000
00000000
00001010
00000000
,
00001010
00000000
00000000
00000000
00000001
00000000
00000100
00000001
00000100
00000000
00000010
00000000
00001000
00000000
00000100
00000000
,
00000001
00000000
00000100
00000010
00000100
00000000
00001000
00000000
00000010
00000000
00010000
00001000
00010000
00000000
00001000
00000000
,
01000000
00010000
01000000
00010000
01000000
00010000
01000000
00010000
10000000
00100000
10000000
00100000
10000000
00100000
10000000
00100000
,
20000000
00000000
00000000
32000000
00000000
00000000
03010000
00000000
,
00022000
00000000
00000000
00033000
,
00020000
00000010
00001000
00000100
,
00032000
00100000
00010000
01000000
,
00023000
00000010
00001000
00000100
,
00030000
00000000
00000000
00000000
;
