#VERSION:0.83;
#TITLE:Outbreak;
#SUBTITLE:;
#ARTIST:USAO;
#TITLETRANSLIT:;
#SUBTITLETRANSLIT:;
#ARTISTTRANSLIT:;
#GENRE:FRENCHCORE;
#CREDIT:;
#MUSIC:Outbreak.ogg;
#BANNER:Outbreak.png;
#BACKGROUND:Outbreak-bg.png;
#CDTITLE:./CDTitles/bm IIDX 23 copula.png;
#SAMPLESTART:20.612;
#SAMPLELENGTH:16.000;
#SELECTABLE:YES;
#OFFSET:0.298;
#BPMS:0.000=195.000
,96.000=97.500
,97.500=195.000
,286.000=97.500
,287.500=195.000
;
#STOPS:97.500=0.154
,287.500=0.154
;
#TIMESIGNATURES:0.000=4=4,
96.000=2=4,
98.000=4=4,
286.000=2=4,
288.000=4=4
;
#DISPLAYBPM:195.000;
#BGCHANGES:;
#FGCHANGES:;

//--------------- dance-single - forcednature ----------------
#NOTEDATA:;
#STEPSTYPE:dance-single;
#DESCRIPTION:forcednature;
#CREDIT:forcednature;
#DIFFICULTY:Beginner;
#METER:4;
#RADARVALUES:0,0,0,0,0;
#NOTES:
0000
0000
0000
0000
,
0000
0000
0000
0000
,
0000
0000
0000
0000
,
0000
0000
0000
0000
,
0000
0000
0000
0000
,
0000
0000
0000
0000
,
0000
0000
0000
0000
,
0000
0000
0000
0000
,
0000
0000
0000
0000
,
0001
0000
0000
0000
,
0001
0000
0000
0000
,
0100
0000
0000
0000
,
0010
0000
0000
0000
,
1000
0000
0000
0000
,
1000
0000
0000
0000
,
0100
0000
0000
0000
,
0010
0000
0000
0000
,
1001
0000
0000
0000
,
1000
0000
0000
0000
,
0001
0000
0000
0000
,
1000
0000
0000
0000
,
0010
0000
0010
0000
,
0010
0000
0000
0000
,
0100
0000
0001
0000
,
0010
0000
1001
0000
,
0000
0000
1000
0000
,
1000
0000
1000
0000
,
0010
0000
0100
0000
,
0000
0000
1001
0000
,
0000
0000
0001
0000
,
0001
0000
0001
0000
,
0010
0000
0100
0000
,
0000
0000
0010
0000
,
0001
0000
0010
0000
,
0000
0000
0001
0000
,
0100
0000
0010
0000
,
0000
0000
1000
0000
,
0001
0000
1000
0000
,
0000
0000
0100
0000
,
0010
0000
0001
0000
,
0000
0000
1000
0000
,
0010
0000
1000
0000
,
0010
0000
0100
0000
,
0001
0000
1000
0000
,
0000
0000
0001
0000
,
0010
0000
0001
0000
,
0010
0000
0100
0000
,
1000
0000
0001
0000
,
0000
0000
0100
0000
,
0100
0000
0100
0000
,
0000
0000
0010
0000
,
0010
0000
0010
0000
,
0000
0000
1000
0000
,
0001
0000
1000
0000
,
0000
0000
0001
0000
,
1000
0000
0001
0000
,
0000
0000
2002
0000
,
0000
0000
0000
0000
,
0000
0000
0000
0000
,
0000
0000
3003
0000
,
0000
0000
1000
0000
,
0000
0000
0001
0000
,
0000
0000
1000
0000
,
0000
0000
1001
0000
,
0000
0000
0001
0000
,
0001
0000
0001
0000
,
0000
0000
1000
0000
,
1000
0000
1000
0000
,
0000
0000
0020
0000
,
0030
0000
0200
0000
,
0300
0000
0010
0000
,
0100
0000
0110
0000
,
0001
0000
0001
0000
,
0100
0000
0000
0000
,
0001
0000
0010
0000
,
0100
0000
0000
0000
,
1000
0000
1000
0000
,
0010
0000
0000
0000
,
1000
0000
0100
0000
,
0010
0000
0000
0000
,
1001
0000
0000
0000
,
0001
0000
0000
0000
,
0100
0000
0000
0000
,
0001
0000
0000
0000
,
0010
0000
0010
0000
,
0100
0000
0000
0000
,
1000
0000
0010
0000
,
1000
0000
0000
0000
,
1001
0000
0000
0000
,
0001
0000
0000
0000
,
0010
0000
0000
0000
,
0100
0000
0000
0000
,
1000
0000
1000
0000
,
0010
0000
1000
0000
,
0100
0000
0010
0000
,
0002
0000
0003
0000
,
2002
0000
0000
0000
,
3003
0000
0000
0000
;

//--------------- dance-single - forcednature ----------------
#NOTEDATA:;
#STEPSTYPE:dance-single;
#DESCRIPTION:forcednature;
#CREDIT:forcednature;
#DIFFICULTY:Easy;
#METER:8;
#RADARVALUES:0,0,0,0,0;
#NOTES:
0000
0000
0000
0000
,
0000
0000
0000
0000
,
0000
0000
0000
0000
,
0000
0000
0000
0000
,
0000
0000
0000
0000
,
0000
0000
0000
0000
,
0000
0000
0000
0000
,
0000
0000
0000
0000
,
0000
0000
0000
0000
,
1000
0000
0001
0000
,
0100
0000
0010
0000
,
1000
0000
0001
0000
,
0010
0000
0100
0000
,
1001
0000
0001
0001
,
0100
0100
0010
0010
,
1000
0001
1000
0000
,
0220
0000
0330
0000
,
1001
0000
0110
0000
,
0001
1000
0010
0000
,
1001
0000
0110
0000
,
1000
0001
0010
0000
,
0100
1000
0010
0010
,
0100
0001
0010
0010
,
0001
1000
0010
0100
,
0220
0000
0000
0330
0001
0000
1000
0000
,
0010
1000
0100
1000
,
0010
1000
0001
0100
,
0010
1000
0010
0100
,
0001
0000
1000
0001
,
0010
0001
0100
0001
,
0010
0001
1000
0100
,
0010
0001
0100
0010
,
1000
0000
0001
0010
,
0100
1000
0010
0100
,
0010
1000
0100
0010
,
0001
0100
0010
0100
,
0001
0000
0010
0100
,
1000
0001
0100
0010
,
1000
0001
0010
0001
,
0100
0000
2002
0000
,
3003
0000
1000
0100
,
0001
0100
1000
0001
,
0010
0001
1000
0010
,
1000
0001
0100
0010
,
1000
0000
0001
0100
,
1000
0100
0001
1000
,
0010
1000
0001
0010
,
0001
0100
0010
0000
,
2002
3003
1000
1000
,
0100
0100
1000
0010
,
0110
0000
0001
0001
,
0100
0100
0001
0010
,
0110
0000
0001
0001
,
1000
1000
0100
0010
,
0110
0000
1000
1000
,
0001
0001
0100
0010
,
0110
0000
2002
0000
,
0000
0000
0000
0000
,
0000
0000
0000
0000
,
0000
0000
0000
0000
,
0000
3003
0000
1000
,
0000
1000
0000
0001
,
0000
0001
0000
0100
,
0000
0010
0220
0000
,
0330
0000
0001
0001
,
0001
0000
0100
0010
,
1000
0000
0100
0100
,
0100
0000
1000
0001
,
0010
0000
0100
1000
,
0100
0000
1000
0010
,
1000
0000
0001
0100
,
0010
0000
1000
0000
2002
0000
0000
3003
,
0001
0010
0100
0010
,
0001
1000
0100
1000
,
0001
0100
0010
1000
,
0100
0010
0001
1000
,
0010
0100
0001
0010
,
0100
1000
0010
0100
,
0001
1001
0010
0100
,
1000
1001
0010
0100
,
0001
0010
0100
0010
,
0001
1000
0100
1000
,
0010
0100
0001
0010
,
0100
1000
0001
0100
,
0010
1000
0100
1000
,
0001
0100
0001
0010
,
0100
1001
1000
0010
,
0100
1001
0001
0000
,
0010
0100
1000
0010
,
0100
0001
0010
0001
,
1000
0010
0100
0001
,
0010
0100
1000
0010
,
0110
0100
0110
0010
,
1001
0100
1001
0010
,
1000
1000
0001
0001
,
0200
0000
0010
0310
,
2002
0000
0000
0000
,
3003
0000
0000
0000
;

//--------------- dance-single - forcednature ----------------
#NOTEDATA:;
#STEPSTYPE:dance-single;
#DESCRIPTION:forcednature;
#CREDIT:forcednature;
#DIFFICULTY:Medium;
#METER:12;
#RADARVALUES:0,0,0,0,0;
#NOTES:
0000
0000
0000
0000
,
0000
0000
0000
0000
,
0000
0000
0000
0000
,
0000
0000
0000
0000
,
0000
0000
0000
0000
,
0000
0000
0000
0000
,
0000
0000
0000
0000
,
0000
0000
0000
0000
,
0000
0000
0000
0000
,
0001
0000
0000
0001
0000
0000
0001
0000
,
0100
0010
1000
0001
,
1000
0000
0000
1000
0000
0000
1000
0000
,
0100
0010
0001
1000
,
0010
0000
0010
0100
0010
0000
0100
0000
,
0001
0000
0001
1000
0001
0000
0010
0000
,
0100
1000
0100
0000
1000
0010
1000
0000
,
2002
0000
0000
3003
,
0001
0000
0100
0010
0100
0000
0001
0000
,
0011
1000
1100
0001
,
1000
0000
0100
0010
0100
0000
1000
0000
,
0101
0001
1010
1000
,
0001
0010
0100
0000
1000
1000
0001
0000
,
1000
0010
0100
0000
0001
0001
1000
0000
,
0010
0100
0001
0000
0010
0100
1000
0000
,
2002
0000
0000
3003
1000
0100
0010
0000
,
0100
1000
0010
0000
1000
0100
0001
0000
,
0100
0000
1000
0000
0001
0100
0010
0000
,
0100
0001
0010
0000
0001
0100
1000
0000
,
0100
0000
1001
0000
0001
0010
0100
0000
,
0010
0001
0100
0000
0001
0010
1000
0000
,
0010
0000
0001
0000
1000
0010
0100
0000
,
0010
1000
0100
0000
1000
0010
0001
0000
,
0010
0000
1001
0000
0001
0100
0001
0100
,
0010
0000
1000
0001
0010
0000
0100
1000
,
0001
0000
0010
0000
0001
1000
0001
1000
,
0010
0000
0100
0001
0010
0000
0100
1000
,
0010
0000
0110
0000
1000
0100
1000
0100
,
0010
0000
0100
1000
0001
0000
0100
0001
,
0010
0000
0100
0000
0010
0001
0010
0001
,
1000
0100
2002
3000
,
0010
0000
0013
0000
0001
0100
0010
0000
,
0100
0001
0010
0000
0100
1000
0010
0000
,
0110
0000
1001
0000
1000
0100
0010
0000
,
0001
0100
0010
0000
1000
0001
0100
0001
,
1000
0000
0110
0000
0001
0010
0100
0000
,
0010
0001
0100
0000
0010
1000
0001
0100
,
0010
0000
1001
0000
1000
0100
0001
0000
,
0100
1000
0010
0000
1000
0001
0010
0000
,
0220
0330
1001
0101
,
1001
0000
0101
0000
1001
0000
0001
0010
,
0100
1000
0010
0000
1001
0000
1100
0000
,
1001
0000
1100
0000
1001
0000
1000
0001
,
0100
0010
1000
0000
1010
0000
1100
0000
,
1010
0000
1100
0000
1001
0000
0001
0010
,
0100
1000
0010
0000
1001
0000
0101
0000
,
0001
0010
0100
0000
1001
0000
1100
0000
,
1000
0010
0100
0000
2002
0000
0000
0000
,
0000
0000
0000
0000
,
0000
0000
0000
0000
,
0000
0000
0000
0000
,
0000
0000
3003
0000
1000
0000
0100
0001
,
0000
0100
1000
0000
0001
0000
0010
0000
,
0100
0000
1000
0000
0001
0000
0100
1000
,
0000
0100
0001
0000
2002
0000
0000
0000
,
0000
0000
3003
0000
1000
0000
1000
0010
,
0100
0000
0100
0001
0010
0000
0010
0100
,
1000
0000
1001
0000
0001
0000
0001
0100
,
0010
0000
0010
1000
0100
0000
0100
0010
,
0001
0000
1001
0000
1000
0010
1000
0000
,
0010
0000
0100
0000
0001
0010
0001
0000
,
0010
0000
0100
0000
1001
0000
0001
0100
,
0010
0000
1000
0000
2002
0000
0000
3003
,
0001
0010
0100
0010
0001
0000
1100
0000
,
1000
0001
0100
0000
0001
1000
0010
0000
,
1000
0100
0010
0100
1000
0000
0011
0000
,
0001
1000
0010
0000
0100
0001
0010
0000
,
0100
1000
0001
1000
0100
0000
0110
0000
,
0010
0001
0100
0000
0010
1000
0001
0000
,
0011
0000
1100
0000
1000
0001
0100
0000
,
2010
0000
0001
0000
0100
0100
3100
0000
,
1000
0001
0010
0001
1000
0100
0010
0000
,
0100
0000
1001
0000
0001
0010
0100
0000
,
1000
0001
0100
0001
1000
0010
0100
0000
,
0010
0000
1001
0000
0001
0010
0100
0000
,
0010
0001
1000
0100
1000
0001
0100
0000
,
0010
0000
1001
0000
1000
0010
0100
0000
,
0001
0000
0011
0000
1000
0100
0001
0000
,
0100
2100
3002
0010
,
0103
0001
0100
0001
1000
0010
1000
0000
,
0001
0010
0001
0010
0100
1000
0100
0000
,
0010
0001
0100
0001
0010
0100
1000
0000
,
0010
0100
0001
0100
0010
1000
0001
0000
,
1000
1000
0100
1000
1000
0010
0100
0000
,
0110
0001
0012
1000
,
0103
0100
0010
0010
1000
0001
0010
0000
,
0210
0000
1000
0310
,
2002
0000
0000
0000
,
3003
0000
0000
0000
;

//--------------- dance-single - forcednature ----------------
#NOTEDATA:;
#STEPSTYPE:dance-single;
#DESCRIPTION:forcednature;
#CREDIT:forcednature;
#DIFFICULTY:Hard;
#METER:15;
#RADARVALUES:0,0,0,0,0;
#NOTES:
0000
0000
0000
0000
,
0000
0000
0000
0000
,
0000
0000
0000
0000
,
0000
0000
0000
0000
,
0000
0000
0000
0000
,
0000
0000
0000
0000
,
0000
0000
0000
0000
,
0000
0000
0000
0000
,
0000
0000
0000
0000
,
1001
0000
1000
0100
0010
0000
0100
0000
,
1000
0000
0010
0100
0001
0000
0010
0000
,
0001
0000
0100
0010
1000
0000
0001
0000
,
0010
0000
0001
0100
0010
0000
1000
0000
,
1100
0000
0001
0010
0100
0010
0001
0000
,
1000
0010
0100
0010
1000
0000
0001
0000
,
0100
0100
0010
0010
1000
0001
0100
0000
,
0220
0000
0000
0330
,
1000
1000
0100
0100
1000
0001
0010
0000
,
0011
0000
0001
0100
1000
0000
0110
0000
,
0001
0001
0100
0100
0001
1000
0010
0000
,
1010
0000
1000
0100
0001
0000
0110
0000
,
1000
1000
0100
1000
0010
0010
0010
0000
,
0100
0000
0100
0000
0001
0000
0000
0010
0100
0000
0100
0000
0200
0000
0000
0000
,
1300
0000
0001
0000
0100
0000
0001
0000
1000
0000
0010
1000
0010
0000
0000
0000
,
0210
0000
0000
0000
0001
0001
0301
0000
1000
0000
0010
0000
1000
0000
0100
0000
,
1000
0010
1000
0100
0010
0001
0100
0010
,
1000
0001
0010
0010
0001
0100
0001
0010
,
0001
0100
0001
0010
0100
1000
0001
0100
,
0010
0000
1001
0000
1000
0100
1000
0010
,
0100
0001
0010
0001
1000
0010
0100
0001
,
0010
0100
1000
1000
0001
0100
0010
0100
,
0001
1000
0010
0000
0110
0000
0001
1000
,
0020
0000
0000
0000
0230
0000
0000
0000
0301
0000
1000
0000
0100
1000
0100
0000
,
0010
0001
1000
0010
0100
0001
0010
0100
,
1000
0000
0010
0000
0100
0000
0001
0000
0010
0000
0001
0000
0010
0100
0010
0000
,
0100
1000
0001
0100
0010
0100
0001
1000
,
0010
0000
0000
0000
0110
0000
0000
0000
1000
0000
0100
0000
0010
0100
0010
0000
,
0001
1000
0010
1000
0001
0010
0100
1000
,
0001
0000
0100
0000
0010
0000
1000
0000
0001
0000
0010
0000
0100
0010
0100
0000
,
1000
0001
0100
0000
0120
0000
1000
1000
,
1000
0000
0000
0000
0130
0000
0000
0000
0001
0000
0010
0000
0100
0010
0100
0000
,
1000
0001
0100
0000
1010
0000
1100
0000
,
1000
0000
0100
0000
0001
0000
0000
0000
0100
0000
1000
0000
0100
0010
0100
0000
,
0010
0001
1000
0010
0100
0000
0101
0000
,
0011
0000
0000
0000
1100
0000
0000
0000
0001
0000
0010
0000
0001
1000
0001
0000
,
0100
0000
0010
0000
1000
0001
1000
0000
0010
0000
0100
0000
0001
1000
0001
0000
,
0010
0000
0100
0000
1000
0001
1000
0000
0010
0000
0100
0000
0001
0000
0000
0000
,
0011
0000
1100
0000
1000
0010
0000
0110
,
0000
0100
0002
0000
1003
0100
0001
0100
,
1000
0000
0100
0000
0001
0000
0100
0000
1000
0000
0100
0000
0010
0100
0010
0000
,
0001
0000
0011
0000
0001
0100
1000
0100
,
0001
0000
0100
0000
1000
0000
0100
0000
0001
0000
0100
0000
0010
0100
0010
0000
,
1000
0000
1010
0000
1000
0100
0001
0100
,
1000
0000
0010
0000
0001
0000
0010
0000
1000
0000
0100
0000
0010
0100
0010
0000
,
0001
1000
0010
0000
0110
0000
0110
0000
,
1001
0000
0001
0010
0100
1000
0010
0100
,
0001
0010
1000
0000
0220
0000
0000
0000
,
0000
0000
0030
0000
,
0000
0000
2000
0000
,
0300
0000
0002
0000
,
3000
0000
0000
0000
0103
0000
0100
0100
,
0000
0100
0100
0000
0010
0000
1000
0001
,
0010
0000
1001
0000
0100
0000
0100
0100
,
0000
0100
0100
0000
2001
0000
0000
0000
,
0010
0000
3100
0000
1001
0000
0001
0100
,
1000
0000
1000
0100
0001
0000
0001
1000
,
0010
0000
0100
0000
0001
0000
1000
0100
,
0001
0000
0001
0100
1000
0000
1000
0001
,
0010
0000
0100
0000
1000
0010
0100
0010
,
1000
0001
0100
0000
0001
0010
0100
0010
,
0001
0000
1000
0000
0100
0000
0000
0000
1000
0100
1000
0000
0001
0000
0010
0000
,
0001
0100
0001
0000
1000
0000
0010
0000
0210
0000
0000
0000
0001
0001
0301
0000
,
1000
0010
1000
0000
0001
0000
0010
0000
0100
1000
0100
0000
0010
0000
0001
0000
,
1000
0010
0100
0000
0001
0000
1000
0000
0100
0000
0010
0000
0001
0000
1000
0000
,
0001
0010
0001
0000
1000
0000
0010
0000
0100
0001
0100
0000
0010
0000
1000
0000
,
0100
0010
0001
0000
0100
0000
0010
0000
1000
0000
0001
0000
0010
0000
0100
0000
,
1000
0010
1000
0000
0001
0000
0010
0000
0100
1000
0001
0000
0100
0000
0001
0000
,
1000
0010
0100
0000
0001
0000
0010
0000
0100
0000
1000
0000
0010
0000
0100
0000
,
0001
0010
0001
0000
0010
0000
0100
0000
1000
0000
0001
0000
1001
0000
0000
0000
,
1000
0010
1000
0000
0010
0000
0100
0000
0102
0000
0000
0000
0013
0000
0010
0000
,
0001
0100
0001
0000
1000
0000
0010
0000
1000
0100
0010
0000
0001
0000
1000
0000
,
0010
0100
0001
0000
0010
0000
0100
0000
1000
0000
0010
0000
0100
0000
0100
0000
,
0001
1000
0100
0000
1000
0000
0001
0000
0010
0100
0010
0000
0100
0000
1000
0000
,
0001
0100
0010
0000
1000
0000
0001
0000
0010
0000
0100
0000
1000
0000
0010
0000
,
0100
0001
0100
0000
0010
0000
1000
0000
0001
0010
0100
0000
0010
0000
0001
0000
,
1000
0010
0100
0000
0001
0000
1000
0000
0100
0000
0010
0000
0001
0000
1000
0000
,
0010
0100
0010
0000
1000
0000
0001
0000
0010
0000
0100
0000
1100
0000
0000
0000
,
0010
0100
0010
0000
0002
0000
0000
0000
0203
0000
0000
0000
0320
0000
0000
0000
,
1030
0100
1000
0100
0001
0100
0001
0100
,
1000
0010
0001
0010
1000
0100
0010
0010
,
0001
0100
0001
0100
1000
0100
1000
0100
,
0001
0000
0010
0000
1000
0000
0010
0000
0001
0000
1000
0001
1000
0000
0000
0000
,
0010
0100
0001
0000
0100
0000
0010
0100
0001
0000
0001
0000
1000
0010
1000
0000
,
0001
0000
0010
0001
0010
0000
0100
0010
0100
0000
1000
0100
2000
0000
0000
0000
,
3001
0000
0100
0000
0010
0000
0100
0000
0001
1000
0001
1000
0010
0000
0100
0000
,
0002
0023
0230
1300
,
0220
0000
0000
0000
,
0330
0000
0000
0000
;

//--------------- dance-double - forcednature ----------------
#NOTEDATA:;
#STEPSTYPE:dance-double;
#DESCRIPTION:forcednature;
#CREDIT:forcednature;
#DIFFICULTY:Easy;
#METER:8;
#RADARVALUES:0,0,0,0,0;
#NOTES:
00000000
00000000
00000000
00000000
,
00000000
00000000
00000000
00000000
,
00000000
00000000
00000000
00000000
,
00000000
00000000
00000000
00000000
,
00000000
00000000
00000000
00000000
,
00000000
00000000
00000000
00000000
,
00000000
00000000
00000000
00000000
,
00000000
00000000
00000000
00000000
,
00000000
00000000
00000000
00000000
,
00001000
00000000
00001000
00000000
,
01000000
00000000
00010000
00000000
,
10000000
00000000
10000000
00000000
,
00100000
00000000
01000000
00000000
,
10010000
00000000
00010000
00010000
,
00100000
00000000
00001000
00000000
,
00010000
00010000
00001000
00000000
,
00022000
00000000
00033000
00000000
,
00000100
00000000
00000100
00000000
,
00001000
00000001
00000010
00000000
,
00000001
00000000
00000001
00000000
,
00000100
00000010
00001000
00000000
,
00000100
00000000
00010000
00010000
,
00001000
00000000
00100000
00100000
,
00010000
00100000
01000000
10000000
,
00200000
00000000
00000000
00300000
00000000
00000000
10000000
00000000
,
01000000
10000000
00000000
01000000
,
00000000
00010000
00000000
00001000
,
00010000
00001000
00000000
00010000
,
00010000
00000000
00000000
00000100
,
00001000
00000100
00000000
00000010
,
00000001
00000010
00000000
00000001
,
00000100
00000001
00000000
00001000
,
00000010
00000000
00010000
00010000
,
00001000
00001000
00100000
00010000
,
01000000
00000000
00001000
00001000
,
00010000
00010000
00000010
00001000
,
00000100
00000000
00010000
00001000
,
00100000
00010000
01000000
00100000
,
10000000
00000000
00010000
01000000
,
00001000
00000000
00022000
00000000
,
00033000
00000000
00000100
00001000
,
00000010
00000100
00000001
00000010
,
00000100
00000000
00010000
00001000
,
00100000
00000000
00001000
00010000
,
00000100
00000000
00010000
00001000
,
01000000
00010000
00100000
01000000
,
10000000
00000000
00100000
01000000
,
00010000
00000000
00100000
00000000
,
20020000
30030000
10000000
10000000
,
01000000
01000000
00010000
00001000
,
00000010
00000000
00000001
00000001
,
00000100
00000100
00001000
00010000
,
00100000
00000000
10000000
10000000
,
01000000
01000000
00010000
00001000
,
00000010
00000000
00000001
00000001
,
00000100
00000100
00001000
00000000
,
00010000
00000000
00022000
00000000
,
00000000
00000000
00000000
00000000
,
00000000
00000000
00000000
00000000
,
00000000
00000000
00000000
00000000
,
00000000
00033000
00000000
01000000
,
00000000
01000000
00000000
00010000
,
00000000
00010000
00000000
00100000
,
00000000
00100000
02000000
00000000
,
03000000
00000000
10000000
10000000
,
10000000
00000000
01000000
00000000
,
00010000
00000000
00001000
00001000
,
00001000
00000000
00000010
00000000
,
00000001
00000000
00000100
00000001
,
00000100
00000000
00000001
00000010
,
00000001
00000000
00001000
00000010
,
00001000
00000000
00000000
00000000
00000220
00000000
00000000
00000330
,
00001000
00000001
00000100
00000000
,
00000010
00001000
00000001
00000000
,
00000010
00000100
00001000
00000100
,
00010000
00001000
00100000
00000000
,
00010000
01000000
00100000
00000000
,
10000000
01000000
00100000
00000000
,
00010000
01000000
00001000
00010000
,
00000010
00001000
00000001
00000000
,
00000010
00000100
00001000
00000000
,
00000010
00000100
00000001
00000000
,
00000010
00000100
00010000
00001000
,
00100000
00010000
01000000
00000000
,
00010000
10000000
00100000
00000000
,
10000000
00010000
00100000
00000000
,
01000000
00010000
00001000
00000010
,
00000100
00000000
00001001
00000000
,
00000001
00000001
00000100
00000100
,
00001000
00010000
00100000
00100000
,
10000000
10000000
01000000
01000000
,
00010000
00001000
00000010
00000010
,
00000110
00000000
00001001
00000000
,
00010000
00010000
00001000
00001000
,
01000000
00010000
01000000
00010000
,
00200000
00000000
01300000
00000000
,
20020000
00000000
00000000
00000000
,
30030000
00000000
00000000
00000000
;

//--------------- dance-double - forcednature ----------------
#NOTEDATA:;
#STEPSTYPE:dance-double;
#DESCRIPTION:forcednature;
#CREDIT:forcednature;
#DIFFICULTY:Medium;
#METER:12;
#RADARVALUES:0,0,0,0,0;
#NOTES:
00000000
00000000
00000000
00000000
,
00000000
00000000
00000000
00000000
,
00000000
00000000
00000000
00000000
,
00000000
00000000
00000000
00000000
,
00000000
00000000
00000000
00000000
,
00000000
00000000
00000000
00000000
,
00000000
00000000
00000000
00000000
,
00000000
00000000
00000000
00000000
,
00000000
00000000
00000000
00000000
,
00001000
00000000
00000000
00001000
00000000
00000000
00001000
00000000
,
00010000
00000000
00100000
00000000
,
00010000
00000000
00000000
00010000
00000000
00000000
00010000
00000000
,
00001000
00000000
00000010
00000000
,
00000001
00000001
00000100
00001000
,
00010000
00010000
01000000
10000000
,
00100000
01000000
00100000
00000000
10000000
00010000
10000000
00000000
,
02000000
00000000
00200000
03300000
,
00100000
00000000
00001000
00010000
00000000
00000100
00001000
00000000
,
00001100
00000001
00000011
00001000
,
00000010
00000000
00010000
00001000
00000000
01000000
00010000
00000000
,
01010000
10000000
10100000
00010000
,
00100000
00000000
01000000
10000000
00000000
01000000
00010000
00000000
,
00001000
00000000
00100000
00010000
00000000
00100000
00001000
00000000
,
00010000
00001000
00010000
00000000
00000010
00001000
00000010
00000000
,
00000220
00000000
00000000
00000330
00000001
00001000
00000010
00000000
,
00001000
00000001
00000100
00000000
00001000
00000000
00010000
00000000
,
00100000
00000000
01000000
00000000
00010000
10000000
00100000
00000000
,
10000000
00010000
00100000
00000000
01000000
00000000
00010000
00000000
,
00001000
00000000
00000010
00000000
00000100
00001000
00000010
00000000
,
00000100
00000001
00000010
00000000
00001000
00000000
00010000
00000000
,
01000000
00000000
00100000
00000000
00010000
10000000
00100000
00000000
,
10000000
00010000
00100000
00000000
00001000
00010000
00000100
00000000
,
00001000
00000000
00000110
00000000
00000001
00001000
00000001
00001000
,
00000010
00000000
00000100
00001000
00010000
00000000
00100000
00010000
,
00001000
00000000
01000000
00000000
00010000
10000000
00010000
10000000
,
00100000
00000000
10000000
01000000
00010000
00000000
00001000
00010000
,
01000000
00000000
01100000
00000000
00100000
00010000
00100000
00010000
,
01000000
00000000
00001000
00010000
00000010
00000000
00010000
00001000
,
00000010
00000000
00000001
00000000
00001000
00000010
00001000
00000010
,
00000100
00001000
00022000
00003000
,
00100000
00000000
00130000
00000000
00010000
00001000
01000000
00000000
,
00010000
01000000
00001000
00000000
00010000
00100000
10000000
00000000
,
01100000
00000000
10010000
00000000
10000000
01000000
00010000
00000000
,
00001000
00000000
00000010
00000000
00000001
00000100
00001000
00000000
,
00010000
00000000
00100000
00000000
01000000
00010000
00100000
00001000
,
00010000
00000000
00011000
00000000
00000100
00001000
00000010
00010000
,
00001000
00000000
00011000
00000000
00100000
00001000
00010000
00000000
,
00000010
00010000
00001000
00000000
00000010
00000001
00000100
00000000
,
00000220
00000330
00001001
00010100
,
00101000
00000000
10010000
00000000
01100000
00000000
00010000
10000000
,
00000000
10000000
00010000
00000000
10010000
00000000
01001000
00000000
,
00010010
00000000
00001001
00000000
00000110
00000000
00000001
00000100
,
00001000
00000100
00000001
00000000
00001001
00000000
00010100
00000000
,
00101000
00000000
10010000
00000000
01100000
00000000
00010000
10000000
,
00100000
10000000
00010000
00000000
10010000
00000000
01001000
00000000
,
00001000
00010000
00001000
00000000
00010100
00000000
00001001
00000000
,
00000010
00000100
00000010
00000000
00000220
00000000
00000000
00000000
,
00000000
00000000
00000000
00000000
,
00000000
00000000
00000000
00000000
,
00000000
00000000
00000000
00000000
,
00000000
00000000
00000330
00000000
00000001
00000000
00000000
00000001
,
00000000
00000001
00000100
00001000
,
00010000
00000000
00100000
00000000
10000000
00000000
00000000
10000000
,
00000000
10000000
02200000
00000000
,
00000000
00000000
03300000
00000000
10000000
00000000
10000000
01000000
,
00100000
00000000
00100000
00000000
00001000
00000000
00001000
00010000
,
00000100
00000000
00001100
00000000
00000001
00000000
00000001
00000100
,
00000010
00000000
00000010
00000000
00010000
00000000
00010000
00001000
,
01000000
00000000
01010000
00000000
10000000
00100000
10000000
00000000
,
00010000
00000000
01000000
00000000
00001000
00010000
00001000
00000000
,
00000010
00000000
00000100
00000000
00001001
00000000
00000001
00000100
,
00000010
00000000
00001000
00000000
00002200
00000000
00000000
00003300
,
00010000
00001000
00100000
00001000
00010000
00000000
01000000
00000000
,
10000000
00010000
00100000
00000000
00001000
00010000
00000100
00000000
,
00001000
00000010
00000001
00000010
00001000
00000000
00000001
00000000
,
00000100
00001000
00010000
00000000
01000000
00010000
00001000
00000000
,
00100000
00010000
01000000
00010000
10000000
00000000
01000000
00000000
,
00010000
00001000
00000010
00000000
00001000
00010000
00100000
00000000
,
01100000
00000000
10010000
00000000
10000000
01000000
00010000
00000000
,
00002000
00000000
00010000
00000000
00100000
00100000
00103000
00000000
,
00001000
00010000
00000010
00001000
00000100
00000000
00000010
00000000
,
00000001
00000000
00001100
00000000
00010000
00001000
00100000
00000000
,
00010000
01000000
00010000
10000000
00100000
00000000
10000000
00000000
,
01000000
00000000
00110000
00000000
00001000
00010000
00000100
00000000
,
00001000
00000010
00000100
00000001
00000010
00000000
00000100
00000000
,
00010000
00000000
00101000
00000000
00001000
01000000
00010000
00000000
,
10000000
00000000
01100000
00000000
00010000
00100000
00001000
00000000
,
00011000
00000020
00002030
00003200
,
00000310
00000001
00000010
00000001
00001000
00000100
00001000
00000000
,
00000010
00010000
00000010
00010000
00001000
01000000
00001000
00000000
,
00100000
00010000
00100000
01000000
10000000
01000000
00100000
00000000
,
00010000
01000000
00001000
00010000
00000010
00001000
00000001
00000000
,
00000100
00001000
00010000
00001000
01000000
00001000
00010000
00000000
,
00011000
00100000
00120000
01000000
,
10030000
10000000
00100000
00100000
10000000
01000000
00010000
00000000
,
00012000
00000000
00100000
01003000
,
00020020
00000000
00000000
00000000
,
00030030
00000000
00000000
00000000
;

//--------------- dance-double - forcednature ----------------
#NOTEDATA:;
#STEPSTYPE:dance-double;
#DESCRIPTION:forcednature;
#CREDIT:forcednature;
#DIFFICULTY:Hard;
#METER:15;
#RADARVALUES:0,0,0,0,0;
#NOTES:
00000000
00000000
00000000
00000000
,
00000000
00000000
00000000
00000000
,
00000000
00000000
00000000
00000000
,
00000000
00000000
00000000
00000000
,
00000000
00000000
00000000
00000000
,
00000000
00000000
00000000
00000000
,
00000000
00000000
00000000
00000000
,
00000000
00000000
00000000
00000000
,
00000000
00000000
00000000
00000000
,
00011000
00000000
00001000
00010000
00100000
00000000
01000000
00000000
,
00020000
20030000
32000000
03020000
,
00031000
00000000
00010000
00001000
00000010
00000000
00000100
00000000
,
00002000
00003002
00000203
00002300
,
00013000
00000000
00010000
00100000
00000000
00100000
10000000
00000000
,
01000000
00000000
01000000
00010000
00000000
00010000
00001000
00000000
,
00000010
00000100
00000010
00000100
00001000
00000001
00000100
00000000
,
00000220
00000000
00000000
00000330
,
00000001
00000100
00000001
00000100
00001000
00010000
00100000
00000000
,
01100000
00000000
01000000
00010000
10000000
00000000
00100000
00000000
,
10000000
01000000
10000000
01000000
00010000
00001000
00000010
00000000
,
00000110
00000000
00000100
00001000
00000001
00000000
00000010
00000000
,
00000001
00000100
00000010
00000100
00001000
00001000
00001000
00000000
,
00010000
00000000
00100000
00000000
01000000
00000000
00000000
00100000
10000000
00000000
10000000
00000000
20000000
00000000
00000000
00000000
,
30010000
00100000
01000000
00010000
00001000
00100000
00010000
00000000
,
00210000
00000000
00000000
00000000
00001000
00001000
00301000
00000000
10000000
00000000
01000000
00000000
10000000
00000000
00100000
00000000
,
10000000
01000000
10000000
00100000
10000000
01000000
00010000
00001000
,
00000100
00000001
00000010
00000000
00000001
00000100
00000001
00000010
,
00000001
00000100
00000001
00000010
00000001
00000100
00001000
00010000
,
01000000
10000000
00100000
00000000
10000000
00010000
00100000
01000000
,
00010000
00001000
00000010
00000100
00001000
00000001
00000100
00000010
,
00000100
00001000
00010000
00000000
00100000
01000000
00010000
10000000
,
01000000
00010000
00001000
00000000
00011000
00000000
00010000
00001000
,
00000020
00000000
00000230
00000000
00001300
00000001
00000100
00001000
,
00010000
00000010
00001000
00000010
00010000
00001000
00100000
00010000
,
01000000
00100000
10000000
01000000
00010000
00001000
00100000
00010000
,
00100000
00001000
00000010
00000100
00010000
00001000
00000010
00000001
,
00001000
00000000
00000110
00000000
00000001
00000100
00001000
00010000
,
00000010
00001000
00000010
00010000
00100000
01000000
00010000
10000000
,
00100000
01000000
00010000
00100000
01000000
00010000
00001000
00000010
,
00000100
00001000
00000001
00000000
00000201
00000000
00000010
00000010
,
00000010
00000000
00000000
00000000
00001300
00000000
00000000
00000000
00000100
00000000
00000001
00000000
00000010
00000001
00000010
00000000
,
00000100
00010000
00001000
00000000
00100000
00001000
00010000
00000000
,
00100000
00000000
10000000
00000000
00010000
00000000
00000000
00000000
00100000
00000000
01000000
00000000
10000000
01000000
10000000
00000000
,
00010000
00100000
01000000
00000000
00010000
00001000
00000010
00000000
,
00001000
00000000
00010000
00000000
00100000
00000000
00000000
00000000
01000000
00000000
00010000
00000000
01000000
00010000
01000000
00000000
,
00001000
00000000
00010000
00000000
00001000
00010000
00001000
00000000
00010000
00000000
00000100
00000000
00001000
00000100
00001000
00000000
,
00000001
00000000
00000010
00000000
00000100
00000010
00000100
00000000
00001000
00000000
00000001
00000000
00000100
00000000
00000000
00000000
,
00000110
00000000
00011000
00000000
01000000
00100000
00000000
01100000
,
00000000
10000000
00020000
00000000
10030000
01000000
00010000
01000000
,
10000000
01000000
00010000
01000000
10000000
01000000
00010000
00001000
,
00000010
00000100
00001001
00000000
00000001
00000100
00001000
00000100
,
00000001
00000100
00001000
00000100
00000001
00000100
00001000
00010000
,
00100000
01000000
10010000
00000000
10000000
00100000
00010000
00100000
,
10000000
01000000
00010000
01000000
10000000
00100000
00010000
00001000
,
00000010
00000100
00001001
00000000
00000110
00000000
00011000
00000000
,
00100000
00010000
01000000
00000000
01100000
00000000
00011000
00000000
,
00000010
00001000
00000100
00000000
00002002
00000000
00000000
00000000
,
00000000
00000000
00000000
00000000
,
00003000
00000000
00000200
00000000
,
00000003
00000000
00002000
00000000
,
00000300
00000000
00000000
00000000
00013000
00000000
00010000
00010000
,
00000000
00010000
00010000
00000000
00100000
00000000
10000000
00010000
,
01000000
00000000
01100000
00000000
10000000
00000000
10000000
10000000
,
00000000
10000000
10000000
00000000
02100000
00000000
00000000
00000000
,
00010000
00000000
03001000
00000000
00011000
00000000
00001000
00010000
,
00100000
00000000
00010000
00001000
00000010
00000000
00001000
00010000
,
00200000
00000000
02300000
00000000
03100000
00000000
00010000
00001000
,
00000010
00000000
00001000
00010000
00100000
00000000
00010000
00001000
,
00000020
00000000
00000230
00000000
00000310
00000001
00000100
00000010
,
00000100
00001000
00010000
00000000
00100000
01000000
00100000
10000000
,
01000000
00000000
00100000
00000000
00001000
00000000
00000000
00000000
00010000
00001000
00010000
00000000
00000100
00000000
00001000
00000000
,
00000010
00000100
00000010
00000000
00000100
00000000
00000001
00000000
00000020
00000000
00000000
00000000
00000100
00000100
00000130
00000000
,
00001000
00000001
00000100
00000010
00001000
00000001
00000100
00010000
,
01000000
00010000
00100000
01000000
00010000
00001000
00100000
00010000
,
00100000
00001000
00000010
00000100
00010000
00000010
00001000
00000001
,
00000010
00001000
00010000
00000000
00011000
00000000
00101000
00000000
,
00100000
00010000
01000000
10000000
01000000
00001000
00100000
00010000
,
10000000
00100000
00010000
00001000
01000000
00010000
00100000
01000000
,
00010000
00000100
00001000
00000010
00000100
00001000
00020000
00000000
,
00031000
01000000
00010000
00100000
01000000
00010000
00002000
00000000
,
00003010
00000100
00010000
00000010
00000100
00000001
00000010
00000100
,
00010000
00000010
00001000
00100000
00010000
00001000
01000000
00010000
,
10000000
00100000
10000000
01000000
00010000
00001000
00100000
00010000
,
00000010
00001000
00010000
00000100
00001000
00000000
00000110
00000000
,
00000001
00000010
00001000
00000010
00000100
00010000
00000010
00001000
,
00010000
00001000
00000010
00000100
00001000
00010000
00001000
00000000
,
00000010
00000100
00010000
00000010
00001000
00010000
01000000
00000000
,
00100000
01000000
00001000
00100000
00010000
00001000
00000100
00000000
,
00010000
00000010
00010000
00000010
00001000
00010000
00001000
00010000
,
01000000
00001000
01000000
00001000
00010000
00100000
00010000
00100000
,
10000000
01000000
10000000
01000000
00010000
00001000
00010000
00001000
,
00000010
00000100
00000010
00000100
00001000
00000001
00000010
00000000
,
00000001
00000100
00001000
00010000
00100000
01000000
01100000
00000000
,
10000000
01000000
00010000
00001000
00000010
00000100
00000120
00000000
,
00000031
00000000
00000100
00000000
00001000
00000000
00010000
00000000
00001000
00010000
00001000
00010000
00001000
00000000
00010000
00000000
,
00200000
20300000
32000000
03010000
,
00022000
00000000
00000000
00000000
,
00033000
00000000
00000000
00000000
;
