#VERSION:0.83;
#TITLE:おにぎりディスコ;
#SUBTITLE:;
#ARTIST:Blanc Bunny Bandit;
#TITLETRANSLIT:Onigiri disco;
#SUBTITLETRANSLIT:;
#ARTISTTRANSLIT:;
#GENRE:;
#CREDIT:;
#MUSIC:Onigiri disco.ogg;
#BANNER:Onigiri disco.png;
#BACKGROUND:Onigiri disco-bg.png;
#CDTITLE:./CDTitles/GITADORA EXCHAIN.png;
#SAMPLESTART:48.806;
#SAMPLELENGTH:15.000;
#SELECTABLE:YES;
#OFFSET:1.247;
#BPMS:0.000=118.000;
#STOPS:;
#TIMESIGNATURES:0.000=4=4;
#BGCHANGES:0.000=../BGAs/10di.mp4=1.000=0=0=0=StretchNoLoop====,
99999.000=-nosongbg-=1.000=0=0=0=StretchNoLoop====
;
#FGCHANGES:;

//--------------- dance-single - forcednature ----------------
#NOTEDATA:;
#STEPSTYPE:dance-single;
#DESCRIPTION:forcednature;
#CREDIT:forcednature;
#DIFFICULTY:Beginner;
#METER:1;
#RADARVALUES:0,0,0,0,0;
#NOTES:
0000
0000
0000
0000
,
0000
0000
0000
0000
,
0000
0000
0000
0000
,
0000
0000
0000
0000
,
0000
0000
0000
0000
,
0000
1000
0000
1000
,
0000
0001
0000
0001
,
0000
0010
0000
0010
,
0000
0100
0000
0100
,
0000
0000
0000
0000
,
1000
0000
0000
0000
,
0001
0000
0000
0000
,
0100
0000
0000
0000
,
0010
0000
0000
0000
,
1000
0000
0000
0000
,
0001
0000
0000
0000
,
0010
0000
0000
0000
,
0000
0100
0000
0100
,
0000
0010
0000
0000
,
0000
0001
0000
0001
,
0000
1000
0000
0000
,
0000
0010
0000
0010
,
0000
0010
0000
0010
,
0100
0000
0000
0000
,
0001
0000
1000
0000
,
0100
0000
0000
0000
,
0010
0000
0000
0000
,
0001
0000
0000
0000
,
1000
0000
0000
0000
,
0010
0000
0000
0000
,
1000
0000
0000
0000
,
0001
0000
0000
0000
,
0010
0000
0000
0000
,
0100
0000
0100
0000
,
1000
0000
1000
0000
,
0001
0000
0001
0000
,
0100
0000
0100
0000
,
0010
0000
0010
0000
,
1000
0000
1000
0000
,
0001
0000
0001
0000
,
0010
0000
0010
0000
,
0100
0000
0000
0000
,
1000
0000
0000
0000
,
0001
0000
0000
0000
,
0010
0000
0000
0000
,
0001
0000
0000
0000
,
0100
0000
0000
0000
,
0010
0000
0000
0000
,
1000
0000
0000
0000
;

//--------------- dance-single - forcednature ----------------
#NOTEDATA:;
#STEPSTYPE:dance-single;
#DESCRIPTION:forcednature;
#CREDIT:forcednature;
#DIFFICULTY:Easy;
#METER:5;
#RADARVALUES:0,0,0,0,0;
#NOTES:
0000
0000
0000
0000
,
0000
0000
0000
0000
,
0000
0000
0000
0000
,
0000
0000
0000
0000
,
0000
0000
0000
0000
,
1000
0001
0100
0000
,
0010
1000
0001
0000
,
0010
0100
1000
0000
,
0010
0100
0001
0000
,
1000
0100
1000
1000
,
0001
0100
0010
1000
,
0100
0100
0010
0001
,
1000
0010
0100
0000
,
0001
0001
0001
0000
1000
0000
0100
0000
,
1000
1000
1000
0000
0001
0000
0100
0000
,
0010
0010
1000
0001
,
0010
0100
0010
0000
,
0001
1000
0010
0100
,
0000
2002
0000
3003
,
1000
0010
0100
0001
,
0000
2002
0000
3003
,
1000
0100
0010
0001
,
0100
0010
1000
0001
,
0020
0000
0000
0030
,
0100
0100
1000
1000
,
1000
0000
0000
0000
0001
0000
0000
0001
0000
0000
0000
0000
0100
0000
0000
0000
,
0100
0000
0000
0000
0010
0000
0000
0010
0000
0000
0000
0000
1000
0000
0000
0000
,
1000
0000
0000
0000
0100
0000
0000
0100
0000
0000
0000
0000
0010
0000
0000
0000
,
0010
0000
0000
0000
0001
0000
0000
0001
0000
0000
0000
0000
1000
0000
0000
0000
,
0010
0000
0000
0000
1000
0000
0000
0010
0000
0000
0000
0000
0100
0000
0000
0000
,
0001
0000
0000
0000
0100
0000
0000
0001
0000
0000
0000
0000
1000
0000
0000
0000
,
0100
0000
0000
0000
1000
0000
0000
0100
0000
0000
0000
0000
0000
0000
0000
0000
,
0010
0000
0000
0000
0001
0000
0000
0010
0000
0000
0000
0000
0000
0000
0000
0000
,
0001
0100
0001
0100
,
0010
1000
0010
1000
,
0001
0010
0001
0010
,
0100
1000
0100
1000
,
1000
0010
0100
0001
,
1000
0100
0010
0001
,
1000
0010
0001
0100
,
1000
0001
0100
0100
,
0010
0000
0000
0000
0100
0000
0000
0010
0000
0000
0000
0000
1000
0000
0000
0000
,
0001
0000
0000
0000
1000
0000
0000
0001
0000
0000
0000
0000
0010
0000
0000
0000
,
0100
0000
0000
0000
0010
0000
0000
0100
0000
0000
0000
0000
1000
0000
0000
0000
,
0001
0000
0000
0000
1000
0000
0000
0001
0000
0000
0000
0000
1000
0000
0000
0000
,
0100
0000
0000
0000
0010
0000
0000
0001
0000
0000
0000
0000
0001
0000
0000
0000
,
0100
0000
0000
0000
0010
0000
0000
1000
0000
0000
0000
0000
0001
0000
0000
0000
,
1000
0000
0000
0000
0100
0000
0000
0010
0000
0000
0000
0000
0000
0000
0000
0000
,
0001
0000
0000
0000
1000
0000
0000
0010
0000
0000
0000
0000
0000
0000
0000
0000
;

//--------------- dance-single - forcednature ----------------
#NOTEDATA:;
#STEPSTYPE:dance-single;
#DESCRIPTION:forcednature;
#CREDIT:forcednature;
#DIFFICULTY:Medium;
#METER:7;
#RADARVALUES:0,0,0,0,0;
#NOTES:
0000
0000
0000
0000
,
0000
0000
0000
0000
,
0000
0000
0000
0000
,
0000
0000
0000
0000
,
0000
0000
0000
0000
,
1000
0100
1000
0000
0010
0000
0100
0000
,
0001
0010
0100
0000
1000
0000
0001
0000
,
0100
0010
1000
0000
0100
0000
0010
0000
,
0100
1000
0001
0000
0100
0000
0001
0000
,
0010
0001
0100
0000
0010
0010
0010
0000
,
1000
0000
0001
0000
0010
0100
0010
0001
,
1000
0000
0010
0000
1000
0001
1000
0000
,
0100
0010
0002
0000
,
0103
0100
0100
0000
0010
1000
0001
0000
,
1000
0001
1000
0000
0100
0010
0001
0000
,
0100
0000
0000
0010
0000
0000
0100
0000
0000
0010
0000
0000
0100
0000
0000
0000
,
0001
1000
0001
0000
0010
0100
0010
0000
,
0100
0000
0000
1000
0000
0000
0100
0000
1000
0000
0000
0001
0000
0000
1000
0000
,
0000
0020
0000
0030
,
0100
0000
0000
0001
0000
0000
0100
0000
0010
0000
0000
1000
0000
0000
0010
0000
,
0000
2000
0000
3100
,
0000
0010
0001
0100
,
0010
1000
0100
0010
,
0002
1000
1000
0003
,
1000
0001
1000
0000
0010
0100
0010
0100
,
0010
0000
0000
0000
1000
0000
0000
0001
0000
0000
0010
0000
0001
0000
0010
0000
,
0001
0000
0000
0000
1000
0000
0000
0010
0000
0000
1000
0000
0100
0000
1000
0000
,
0100
0000
0000
0000
1000
0000
0000
0001
0000
0000
0100
0000
0001
0000
0100
0000
,
0001
0000
0000
0000
0010
0000
0000
0100
0000
0000
0000
0000
1000
0000
0001
0000
,
1000
0000
0000
0000
0010
0000
0000
0100
0000
0000
0001
0000
0010
0000
0001
0000
,
0010
0000
0000
0000
0100
0000
0000
1000
0000
0000
0001
0000
0100
0000
0001
0000
,
0100
0000
0000
0000
0010
0000
0000
1000
0000
0000
0000
0000
0000
0000
0100
0000
,
0010
0000
0100
0000
0010
0000
0000
0001
0000
0000
0000
0000
1000
0000
0000
0000
,
0001
0100
0010
1000
,
0100
1000
0001
0100
,
0010
1000
0001
0010
,
0100
1000
0010
0100
,
0001
1000
0001
0000
1000
0100
1000
0000
,
0010
0100
0010
0000
1000
0001
1000
0000
,
0001
0010
1000
0100
,
0001
0000
0000
0000
1000
0000
0000
0010
0000
0000
0100
0000
0100
0000
0100
0000
,
0100
0000
0000
0000
0001
0000
0000
1000
0000
0000
0100
0000
0100
0000
0100
0000
,
0100
0000
0000
0000
0010
0000
0000
0001
0000
0000
1000
0000
1000
0000
1000
0000
,
1000
0000
0000
0000
0010
0000
0000
0100
0000
0000
0001
0000
0001
0000
0001
0000
,
0001
0000
0000
0000
0010
0000
0000
0100
0000
0000
0000
0000
1000
0000
1000
0000
,
1000
0000
0000
0000
0001
0000
0000
0100
0000
0000
0010
0000
0010
0000
0010
0000
,
0010
0000
0000
0000
1000
0000
0000
0100
0000
0000
0010
0000
0010
0000
0010
0000
,
0010
0000
0000
0000
0001
0000
0000
1000
0000
0000
0000
0000
0000
0000
0010
0000
,
1000
0000
0010
0000
0100
0000
0000
0001
0000
0000
0000
0000
0000
0000
0000
0000
;

//--------------- dance-single - forcednature ----------------
#NOTEDATA:;
#STEPSTYPE:dance-single;
#DESCRIPTION:forcednature;
#CREDIT:forcednature;
#DIFFICULTY:Hard;
#METER:11;
#RADARVALUES:0,0,0,0,0;
#NOTES:
0000
0000
0000
0000
,
0000
0000
0000
0000
,
0000
0000
0000
0000
,
0000
0000
0000
0000
,
0000
0000
0000
0000
,
1000
0010
0100
0001
0100
1000
0100
0000
,
0001
0010
0100
0001
0100
1000
0010
0000
,
1000
0001
1000
0010
0001
0010
0100
0000
,
0001
0010
1000
0010
0100
1000
0001
0000
,
1000
0000
0000
0000
0101
0000
0000
0000
0001
0010
0001
0000
0100
0000
0000
0000
,
0010
0010
1000
1000
0100
0010
0001
0000
,
0100
0000
0010
0000
0100
0000
0000
0000
0001
1000
0001
0000
0010
0000
0100
0000
,
1000
0000
0000
1000
0001
0000
0100
0000
0020
0000
0000
0000
1030
0000
0000
0000
,
1000
0001
1000
0001
1000
0001
0000
0000
0010
0000
0100
0000
1000
0000
0001
0000
,
1000
0100
1000
0100
0000
0000
1000
0000
0001
0000
0100
0000
0010
0000
0000
0000
,
1000
0100
0000
1000
0100
0000
0010
0001
0000
0010
0001
0000
0100
0000
0000
0000
,
0010
1000
0001
0100
0010
1000
0001
0000
,
1000
0000
0000
0100
0000
0000
0001
0000
0100
0000
0000
1000
0000
0000
0010
0000
,
0000
0000
2002
0000
3003
0001
0100
1000
,
0100
0000
0000
0010
0000
0000
1000
0000
0001
0000
0000
0010
0000
0000
0100
0000
,
0000
0000
0220
0000
0330
0001
1000
0010
,
0100
0020
2030
3002
,
0023
0230
2300
3002
,
0203
0010
0310
0100
,
0001
0000
1000
0000
0100
0000
0000
0010
0001
0000
0100
0000
0010
0000
0100
0000
,
0010
0000
0000
0000
1000
0001
0000
1000
0000
0000
0010
0000
1000
0000
0010
0000
,
1000
0000
0000
0000
0001
0010
0000
0001
0000
0000
0100
0000
0010
0000
0100
0000
,
0010
0000
0000
0000
1000
0100
0000
1000
0000
0000
0001
0000
0010
0000
0001
0000
,
0010
0000
0000
0000
0001
1000
0000
0001
0000
0000
0000
0000
0100
0000
0001
0000
,
0100
0000
0000
0000
0010
1000
0000
0001
0000
0000
1000
0000
0100
0000
1000
0000
,
0100
0000
0000
0000
0010
0001
0000
0100
0000
0000
0010
0000
1000
0000
0010
0000
,
1000
0000
0000
0000
0001
1000
0000
0100
0000
0000
0010
0000
0000
0000
0100
0000
,
1000
0000
0001
0000
0100
0010
0000
0100
0000
0000
0001
0000
0001
1000
0001
0000
,
0020
0230
2300
3002
,
0203
2300
3002
0023
,
2030
3002
2003
3200
,
0320
0032
0203
0320
,
1030
0100
1000
0010
0100
0001
0010
0001
,
0100
0010
1000
0001
0010
0100
1000
0000
,
0001
0100
1000
0100
0010
1000
0001
1000
,
0100
0000
0000
0000
0001
0000
0000
0100
0000
0000
0010
0000
0100
0000
0010
0000
,
0110
0000
0000
0000
0001
1000
0000
1000
0000
0000
0010
0000
1000
0000
0010
0000
,
1010
0000
0000
0000
0001
1000
0000
0001
0000
0000
0010
0000
0001
0000
0010
0000
,
0011
0000
0000
0000
0001
0100
0000
0001
0000
0000
1000
0000
0010
0000
1000
0000
,
1010
0000
0000
0000
0010
0100
0000
0001
0000
0000
0000
0000
1000
0000
1000
0000
,
1100
0000
0000
0000
0001
0100
0000
0010
0000
0000
1000
0000
1000
0000
1000
0000
,
1001
0000
0000
0000
1000
0010
0000
0100
0000
0000
0001
0000
0001
0000
0001
0000
,
0011
0000
0000
0000
0100
1000
0000
0001
0000
0000
0100
0000
0000
0000
0010
0000
,
0100
0000
0010
0000
1000
0001
0000
0010
0000
0000
0000
0000
0000
0000
0000
0000
;

//--------------- dance-single - forcednature ----------------
#NOTEDATA:;
#STEPSTYPE:dance-single;
#DESCRIPTION:forcednature;
#CREDIT:forcednature;
#DIFFICULTY:Challenge;
#METER:13;
#RADARVALUES:0,0,0,0,0;
#NOTES:
0000
0000
0000
0000
,
0000
0000
0000
0000
,
0000
0000
0000
0000
,
0000
0000
0000
0000
,
0000
0000
0000
0000
0000
0000
0000
0000
0000
0000
0000
0000
0000
0000
0000
0001
1000
0001
1000
0000
0000
0000
0000
0000
,
1000
0000
0010
0000
0100
0000
0001
0010
0002
0000
0203
0000
0320
0000
2030
0000
,
3002
0000
0013
0000
0100
0000
1000
0001
2000
0000
3020
0000
0032
0000
0023
0000
,
0230
0000
0301
0000
1000
0000
0100
0010
0200
0000
2300
0000
3002
0000
2003
0000
,
3020
0000
0130
0000
0001
0000
0010
0100
0010
0000
0100
0000
1000
0001
0100
0000
,
0010
0000
1000
0100
0010
0000
0001
0000
0100
0001
0100
0010
0000
1000
0001
0000
,
0010
0000
0001
0000
0110
0000
1000
0000
0001
0100
0010
0000
1000
0100
1000
0100
,
0000
0010
0001
0000
1000
0000
0001
0100
0010
1000
0010
0000
0100
0001
1000
0100
,
0000
0010
0100
0000
0010
0001
0010
0100
2000
0000
0000
0010
3000
0000
0000
0000
,
1000
0001
1000
0001
1000
0001
0000
0000
0100
0000
0001
0010
0001
0000
0100
0000
,
0001
1000
0001
1000
0000
0010
0000
1000
0001
0010
0000
0100
1000
0100
1000
0000
,
0010
1000
0000
1000
0100
0000
0100
0001
0000
0001
0100
0000
0010
0000
0001
0000
,
1000
0010
1000
0000
0100
0000
0010
0000
0001
1000
0001
0000
0010
0000
0010
0000
,
2100
0000
0000
0001
0000
0000
3010
0000
0102
0000
0000
1000
0000
0000
0013
0000
,
0000
0000
2002
0000
3003
0001
0100
1000
,
0210
0000
0000
1000
0000
0000
0301
0000
0210
0000
0000
0001
0000
0000
1300
0000
,
0000
0000
2002
0000
3003
1000
0100
0001
,
0100
0000
0000
0000
0010
0001
0000
0001
0100
0000
0000
0000
0010
1000
0000
1000
,
0100
0000
0000
0000
0010
0001
0000
0010
0001
0000
0000
0000
1000
0010
0000
1000
,
0020
0001
0100
1030
,
0010
0000
1010
0000
0011
0000
0000
1000
1000
0000
0011
0000
0011
0000
0101
0000
,
0101
0000
0000
0000
0001
0010
0000
0100
0000
0000
1100
0000
1100
0000
1010
0000
,
1010
0000
0000
1000
0001
1000
0000
0010
0000
0000
0101
0000
0101
0000
1100
0000
,
1100
0000
0000
0001
0010
0001
0000
0100
0000
0000
0110
0000
0110
0000
1001
0000
,
1001
0000
0000
1000
0100
0010
0000
0001
0000
0000
0000
0000
0101
0000
1010
0000
,
0101
0000
0000
0001
1000
0100
0000
0010
0000
0000
0011
0000
1100
0000
0011
0000
,
1100
0000
0000
1000
0001
1000
0000
0010
0000
0000
1100
0000
1010
0000
0101
0000
,
0011
0000
0000
1000
0010
0100
0000
0001
0000
0000
0010
0000
0010
0000
0110
0000
,
1100
0000
1001
0000
0100
0010
0000
1001
0000
0000
1000
0000
0001
0100
1000
0000
,
0100
0000
0000
0100
0001
0000
0000
0001
1000
0000
0000
1000
0100
0000
0000
0100
,
0010
0000
0000
0010
1000
0000
0000
1000
0010
0000
0000
0010
0001
0000
1000
0001
,
1000
0000
0000
1000
0010
0000
0000
0010
0001
0000
0000
0001
0010
0000
0000
0010
,
0100
0000
0000
0100
1000
0000
0000
1000
0100
0000
0000
0100
0001
0000
1000
0001
,
1000
0000
0100
0000
0010
0000
0001
1000
0010
0000
0100
0000
1000
0000
0100
0001
,
0010
0000
0100
0000
0001
0000
0100
0010
0001
0000
1000
0000
0010
0000
0100
0001
,
1000
0000
0100
0000
0001
0000
0100
0010
0001
0000
1000
0000
0001
0000
1000
0010
,
0100
0000
0000
0000
0001
0000
0000
1000
0000
0000
1100
0000
0101
0000
1100
0000
,
0101
0000
0000
0000
0001
1000
0000
0001
0000
0000
0011
0000
1010
0000
0110
0000
,
1001
0000
0000
1000
0010
1000
0000
0001
0000
0000
0101
0000
1100
0000
0110
0000
,
1001
0000
0000
1000
0100
0010
0000
0100
0000
0000
1010
0000
0110
0000
1100
0000
,
0101
0000
0000
1000
0001
0010
0000
0100
0000
0000
0000
0000
1010
0000
0110
0000
,
1001
0000
0000
0001
0100
1000
0000
0100
0000
0000
0110
0000
1001
0000
1100
0000
,
0011
0000
0000
1000
0100
0001
0000
0100
0000
0000
0011
0000
0101
0000
1100
0000
,
1010
0000
0000
0001
0001
0100
0000
0010
0000
0000
1000
0001
1000
0000
1100
0000
,
0110
0000
0011
0000
0100
1000
0100
0001
0000
0000
0000
0000
0000
0000
0000
0000
;

//--------------- dance-double - forcednature ----------------
#NOTEDATA:;
#STEPSTYPE:dance-double;
#DESCRIPTION:forcednature;
#CREDIT:forcednature;
#DIFFICULTY:Easy;
#METER:5;
#RADARVALUES:0,0,0,0,0;
#NOTES:
00000000
00000000
00000000
00000000
,
00000000
00000000
00000000
00000000
,
00000000
00000000
00000000
00000000
,
00000000
00000000
00000000
00000000
,
00000000
00000000
00000000
00000000
,
00001000
00010000
00100000
00000000
,
01000000
00010000
10000000
00000000
,
01000000
00010000
00001000
00000000
,
00000010
00000001
00000100
00000000
,
00000010
00000010
00001000
00001000
,
00000000
00000100
00000000
00000010
,
00000000
00000100
00010000
00001000
,
00000000
01000000
00010000
00000000
,
10000000
10000000
01000000
00010000
,
01000000
01000000
00100000
00001000
,
00010000
00000010
00010000
00000000
,
00000100
00001000
00000100
00000000
,
00000010
00000001
00000100
00000001
,
00000000
00002002
00003003
00000000
,
00001000
00000100
00010000
00001000
,
00000000
00022000
00033000
00000000
,
00000000
00001000
01000000
00010000
,
10000000
00010000
00100000
00001000
,
00020000
00000100
00030100
00000000
,
00000010
00001000
00000001
00000000
,
00000100
00000000
00000000
00000000
00001000
00000000
00000000
00001000
00000000
00000000
00000000
00000000
00010000
00000000
00000000
00000000
,
00100000
00000000
00000000
00000000
01000000
00000000
00000000
01000000
00000000
00000000
00000000
00000000
00010000
00000000
00000000
00000000
,
10000000
00000000
00000000
00000000
01000000
00000000
00000000
01000000
00000000
00000000
00000000
00000000
00100000
00000000
00000000
00000000
,
00001000
00000000
00000000
00000000
00010000
00000000
00000000
00010000
00000000
00000000
00000000
00000000
00000100
00000000
00000000
00000000
,
00001000
00000000
00000000
00000000
00000001
00000000
00000000
00000001
00000000
00000000
00000000
00000000
00000100
00000000
00000000
00000000
,
00000010
00000000
00000000
00000000
00001000
00000000
00000000
00001000
00000000
00000000
00000000
00000000
00000100
00000000
00000000
00000000
,
00010000
00000000
00000000
00000000
00001000
00000000
00000000
00001000
00000000
00000000
00000000
00000000
00000000
00000000
00000000
00000000
,
01000000
00000000
00000000
00000000
00010000
00000000
00000000
00010000
00000000
00000000
00000000
00000000
00000000
00000000
00000000
00000000
,
00100000
01000000
00010000
01000000
,
10000000
00010000
00100000
00001000
,
00010000
00000100
00010000
00001000
,
00000100
00000001
00001000
00000010
,
00000100
00001000
00010000
00100000
,
00010000
00001000
00010000
01000000
,
00100000
00010000
10000000
00100000
,
00010000
00002000
00000000
00003010
,
00000010
00000000
00000000
00000000
00000100
00000000
00000000
00000100
00000000
00000000
00000000
00000000
00001000
00000000
00000000
00000000
,
00001000
00000000
00000000
00000000
00000001
00000000
00000000
00000001
00000000
00000000
00000000
00000000
00000100
00000000
00000000
00000000
,
00000100
00000000
00000000
00000000
00001000
00000000
00000000
00001000
00000000
00000000
00000000
00000000
00010000
00000000
00000000
00000000
,
00010000
00000000
00000000
00000000
01000000
00000000
00000000
01000000
00000000
00000000
00000000
00000000
10000000
00000000
00000000
00000000
,
00010000
00000000
00000000
00000000
10000000
00000000
00000000
01000000
00000000
00000000
00000000
00000000
00100000
00000000
00000000
00000000
,
00010000
00000000
00000000
00000000
01000000
00000000
00000000
00001000
00000000
00000000
00000000
00000000
00010000
00000000
00000000
00000000
,
00000100
00000000
00000000
00000000
00001000
00000000
00000000
00000001
00000000
00000000
00000000
00000000
00000000
00000000
00000000
00000000
,
00000100
00000000
00000000
00000000
00001000
00000000
00000000
00010000
00000000
00000000
00000000
00000000
00000000
00000000
00000000
00000000
;

//--------------- dance-double - forcednature ----------------
#NOTEDATA:;
#STEPSTYPE:dance-double;
#DESCRIPTION:forcednature;
#CREDIT:forcednature;
#DIFFICULTY:Medium;
#METER:7;
#RADARVALUES:0,0,0,0,0;
#NOTES:
00000000
00000000
00000000
00000000
,
00000000
00000000
00000000
00000000
,
00000000
00000000
00000000
00000000
,
00000000
00000000
00000000
00000000
,
00000000
00000000
00000000
00000000
,
00000000
00001000
00010000
00000000
00100000
01000000
00100000
01000000
,
00000000
00010000
10000000
00000000
01000000
00010000
01000000
00010000
,
00000000
00001000
00000010
00000000
00000001
00001000
00000001
00001000
,
00000000
00000001
00000100
00000000
00001000
00010000
00100000
00000000
,
01000000
00010000
10000000
00000000
01000000
00000000
01000000
00000000
,
00100000
00001000
00010000
00000000
00000010
00010000
00001000
00000000
,
00000010
00000001
00000100
00000000
00000010
00000000
00000010
00000000
,
00000100
00001000
00010000
00000000
00200000
00000000
00000000
00000000
,
01300000
01000000
01000000
00000000
00010000
00000000
10000000
00000000
,
01000000
00010000
00001000
00000000
00000010
00000000
00000001
00000000
,
00000100
00000000
00000000
00000001
00000000
00000000
00000100
00000000
00000000
00000001
00000000
00000000
00000100
00000000
00000000
00000000
,
00000010
00010000
00001000
00000000
00100000
00001000
00010000
00000000
,
00100000
00000000
00000000
01000000
00000000
00000000
00010000
00000000
10000000
00000000
00000000
01000000
00000000
00000000
00100000
00000000
,
00000000
00022000
00000000
00033000
,
00000100
00000000
00000000
00001000
00000000
00000000
00000001
00000000
00000100
00000000
00000000
00000010
00000000
00000000
00001000
00000000
,
00000000
00002002
00000000
00003003
,
00000000
00000002
00000203
00002300
,
00023000
02030000
23000000
30200000
,
00320000
00000000
00000000
00030000
,
00001000
00000010
00000001
00000000
00000100
00000010
00000100
00000010
,
00001000
00000000
00000000
00000000
00000001
00000000
00000000
00001000
00000000
00000000
00000100
00000000
00010000
00000000
00000100
00000000
,
00010000
00000000
00000000
00000000
00001000
00000000
00000000
01000000
00000000
00000000
00010000
00000000
10000000
00000000
00010000
00000000
,
10000000
00000000
00000000
00000000
01000000
00000000
00000000
00100000
00000000
00000000
00001000
00000000
00010000
00000000
00001000
00000000
,
00010000
00000000
00000000
00000000
00000010
00000000
00000000
00001000
00000000
00000000
00000000
00000000
00000001
00000000
00000100
00000000
,
00000001
00000000
00000000
00000000
00000010
00000000
00000000
00000100
00000000
00000000
00010000
00000000
00001000
00000000
00010000
00000000
,
00001000
00000000
00000000
00000000
01000000
00000000
00000000
00010000
00000000
00000000
10000000
00000000
01000000
00000000
10000000
00000000
,
01000000
00000000
00000000
00000000
00100000
00000000
00000000
00010000
00000000
00000000
00000000
00000000
00000000
00000000
00001000
00000000
,
00000100
00000000
00001000
00000000
00000001
00000000
00000000
00000100
00000000
00000000
00000000
00000000
00000000
00000000
00000000
00000000
,
00000020
00020030
00032000
00003020
,
00000230
00020300
00032000
02003000
,
03002000
00023000
02030000
23000000
,
30020000
20030000
30200000
00320000
,
00031000
00000000
00000010
00000100
00001000
00000000
00000010
00000100
,
00000001
00000000
00000010
00001000
00010000
00000000
00100000
00010000
,
00001000
00000000
00010000
01000000
10000000
00000000
00010000
10000000
,
00100000
00000000
00000000
00000000
00010000
00000000
00000000
00001000
00000000
00000000
00010000
00000000
01000000
00000000
00010000
00000000
,
01000000
00000000
00000000
00000000
00100000
00000000
00000000
00010000
00000000
00000000
10000000
00000000
00100000
00000000
10000000
00000000
,
00100000
00000000
00000000
00000000
10000000
00000000
00000000
01000000
00000000
00000000
00010000
00000000
00001000
00000000
00010000
00000000
,
00001000
00000000
00000000
00000000
00000100
00000000
00000000
00000001
00000000
00000000
00000010
00000000
00000100
00000000
00000010
00000000
,
00000100
00000000
00000000
00000000
00001000
00000000
00000000
00000001
00000000
00000000
00000000
00000000
00000100
00000000
00001000
00000000
,
00000100
00000000
00000000
00000000
00000010
00000000
00000000
00001000
00000000
00000000
00000100
00000000
00010000
00000000
00000100
00000000
,
00010000
00000000
00000000
00000000
00001000
00000000
00000000
01000000
00000000
00000000
00010000
00000000
00100000
00000000
00010000
00000000
,
00100000
00000000
00000000
00000000
00001000
00000000
00000000
00010000
00000000
00000000
00000000
00000000
00000000
00000000
00000010
00000000
,
00001000
00000000
00000010
00000000
00000100
00000000
00000000
00000001
00000000
00000000
00000000
00000000
00000000
00000000
00000000
00000000
;

//--------------- dance-double - forcednature ----------------
#NOTEDATA:;
#STEPSTYPE:dance-double;
#DESCRIPTION:forcednature;
#CREDIT:forcednature;
#DIFFICULTY:Hard;
#METER:11;
#RADARVALUES:0,0,0,0,0;
#NOTES:
00000000
00000000
00000000
00000000
,
00000000
00000000
00000000
00000000
,
00000000
00000000
00000000
00000000
,
00000000
00000000
00000000
00000000
,
00000000
00000000
00000000
00000000
,
00001000
00000000
00010000
00000000
00100000
00000000
01000000
00010000
01000000
00000000
00100000
00000000
10000000
00000000
01000000
00000000
,
00010000
00000000
00001000
00000000
00000010
00000000
00000001
00001000
00000001
00000000
00000100
00000000
00001000
00000000
00010000
00000000
,
00000100
00000000
00010000
00000000
00001000
00000000
01000000
00010000
01000000
00000000
00001000
00000000
00010000
00000000
01000000
00000000
,
00100000
00000000
00010000
00000000
10000000
00000000
00100000
01000000
00100000
00000000
10000000
00000000
01000000
00100000
01000000
00000000
,
00010000
00000000
00001000
00000010
00000100
00000000
00001000
00000000
00000001
00000000
00000100
00000010
00000000
00000010
00000100
00000000
,
00000001
00000000
00001000
00000000
00000100
00000000
00010000
00000000
00001000
00000000
01000000
00000000
00010000
10000000
00010000
10000000
,
00000000
00000000
01000000
00000000
00010000
00000000
00001000
00000000
01000000
00000000
00010000
00000000
00100000
00000000
00001000
00010000
,
00000000
00010000
00001000
00000000
00000010
00000000
00000100
00000000
00002000
00000000
00000000
00000010
00000000
00000000
00000000
00000000
,
00003100
00000000
00000100
00000000
00000100
00001000
00000000
00000000
00000010
00000000
00010000
00000000
00001000
00000000
00100000
00000000
,
00010000
00000000
00010000
10000000
00000000
00100000
00000000
00000000
01000000
00000000
00010000
00000000
00100000
00000000
00100000
00000000
,
01000000
00010000
00000000
00001000
00010000
00000000
00000010
00010000
00000000
00000000
00001000
00000000
00000100
00000000
00000000
00000000
,
00000001
00001000
00000100
00000010
00001000
00010000
00001000
00000000
,
00010000
00000000
00000000
00100000
00000000
00000000
01000000
00000000
00010000
00000000
00000000
10000000
00000000
00000000
01000000
00000000
,
00000000
00000000
20020000
00000000
30030000
10000000
01000000
00010000
,
00001000
00000000
00000000
00000100
00000000
00000000
00000001
00000000
00000010
00000000
00000000
00000100
00000000
00000000
00001000
00000000
,
00000000
00000000
00002002
00000000
00003003
00000001
00000100
00001000
,
00000000
00000000
00010000
00100000
00010000
00000010
00010000
01000000
,
00010000
00001000
00010000
00100000
00010000
00000100
00010000
00001000
,
00000200
00000001
00000010
00001300
,
00000100
00000000
00001000
00000000
01000000
00000000
00000000
00100000
00100000
00000000
10000000
00000000
01000000
00000000
00010000
00000000
,
01000000
00000000
00000000
00000000
00100000
00001000
00000000
00010000
00000000
00000000
00100000
00000000
01000000
00000000
00001000
00000000
,
00010000
00000000
00000000
00000100
00001000
00000100
00000000
00000010
00000000
00000000
00000001
00000000
00000100
00000000
00000010
00000000
,
00001000
00000000
00000000
00010000
01000000
00010000
00000000
00100000
00000000
00000000
01000000
00000000
10000000
00000000
00010000
00000000
,
01000000
00000000
00000000
00001000
00010000
00001000
00000000
00000010
00000000
00000000
00000000
00000000
00000100
00000000
00001000
00000000
,
00000001
00000000
00000000
00000100
00000010
00000100
00000000
00001000
00000000
00000000
00010000
00000000
00000100
00000000
00000010
00000000
,
00001000
00000000
00000000
00010000
00100000
00010000
00000000
00001000
00000000
00000000
00010000
00000000
01000000
00000000
00100000
00000000
,
00001000
00000000
00000000
00010000
00100000
00010000
00000000
00001000
00000000
00000000
00000000
00000000
00000000
00000000
01000000
00000000
,
00010000
00000000
10000000
00000000
01000000
00100000
00000000
01000000
00000000
00000000
00000000
00000000
00000000
00000000
00000000
00000000
,
20000000
00000000
00000000
00000000
31000000
00000000
00000000
01000000
00020000
00000000
00000000
00000000
00031000
00000000
00000000
00001000
,
00000020
00000000
00000000
00000000
00000031
00000000
00000000
00000001
00000200
00000000
00000000
00000000
00000310
00000000
00000000
00000010
,
00020000
00000000
00000000
00000000
01030000
00000000
00000000
01000000
00200000
00000000
00000000
00000000
00301000
00000000
00000000
00001000
,
00020000
00000000
00000000
00000000
00130000
00000000
00000000
00100000
20000000
00000000
00000000
00000000
31000000
00000000
00100000
00010000
,
00100000
00000000
01000000
00000000
00010000
00000000
00001000
00010000
00001000
00000000
00000100
00000000
00000001
00000000
00001000
00000010
,
00001000
00000000
00000100
00000000
00000010
00000000
00000100
00010000
00000100
00000000
00001000
00000000
00000010
00000000
00000000
00000000
,
00010000
00000000
00001000
00000000
00100000
00000000
00010000
10000000
00010000
00000000
01000000
00000000
00001000
00000000
00010000
00000100
,
00010000
00000000
00000000
00000000
01001000
00000000
00000000
00010100
00000000
00000000
00010000
00000000
00001000
00000000
00010000
00000000
,
00001000
00000000
00000000
00000000
00000100
00000001
00000000
00000100
00000000
00000000
00000010
00000000
00010000
00000000
00001000
00000000
,
00000010
00000000
00000000
00001000
00010000
00001000
00000000
01000000
00000000
00000000
00010000
00000000
10000000
00000000
01000000
00000000
,
00100000
00000000
00000000
01000000
10000000
01000000
00000000
00100000
00000000
00000000
00001000
00000000
00010000
00000000
00100000
00000000
,
01000000
00000000
00000000
00001000
00010000
00001000
00000000
00000010
00000000
00000000
00000000
00000000
00000100
00000000
00001000
00000000
,
00000001
00000000
00000000
00000100
00000010
00000100
00000000
00001000
00000000
00000000
00010000
00000000
00100000
00000000
01000000
00000000
,
00001000
00000000
00000000
00100000
00010000
00100000
00000000
01000000
00000000
00000000
10000000
00000000
00010000
00000000
01000000
00000000
,
00001000
00000000
00000000
00010000
00000100
00010000
00000000
00001000
00000000
00000000
00000000
00000000
00000000
00000000
00000100
00000000
,
00000001
00000000
00000010
00000000
00001000
00010000
00000000
00100000
00000000
00000000
00000000
00000000
00000000
00000000
00000000
00000000
;

//--------------- dance-double - forcednature ----------------
#NOTEDATA:;
#STEPSTYPE:dance-double;
#DESCRIPTION:forcednature;
#CREDIT:forcednature;
#DIFFICULTY:Challenge;
#METER:14;
#RADARVALUES:0,0,0,0,0;
#NOTES:
00000000
00000000
00000000
00000000
,
00000000
00000000
00000000
00000000
,
00000000
00000000
00000000
00000000
,
00000000
00000000
00000000
00000000
,
00000000
00000000
00000000
00000000
00000000
00000000
00000000
00000000
00000000
00000000
00000000
00000000
00000000
00000000
00000000
00010000
00001000
00010000
00001000
00000000
00000000
00000000
00000000
00000000
,
00000100
00000000
00000001
00000000
00000010
00000000
00000100
00010000
00002000
00000000
00003200
00000000
00002300
00000000
00023000
00000000
,
00230000
00000000
01300000
00000000
00010000
00000000
10000000
01000000
00200000
00000000
00302000
00000000
00003020
00000000
00002030
00000000
,
00023000
00000000
00030100
00000000
00000010
00000000
00000001
00000100
00000020
00000000
00002030
00000000
00023000
00000000
02030000
00000000
,
03200000
00000000
10300000
00000000
00010000
00000000
00100000
01000000
10000000
00000000
00100000
00000000
01000000
00001000
00010000
00000000
,
01000000
00000000
00100000
00001000
00010000
00000000
00100000
00000000
01000000
00001000
00010000
00000100
00000000
00001000
00000001
00000000
,
00000100
00000000
00001000
00000000
00000110
00000000
00001001
00000000
00001000
00000100
00000010
00000000
00000100
00010000
00001000
00010000
,
00000000
00100000
00010000
00000000
00001000
00000000
01000000
00010000
10000000
01000000
00100000
00000000
01000000
00010000
00001000
00000010
,
00000000
00000100
00001000
00000000
00000001
00000100
00000010
00001000
00020000
00000000
00000000
01000000
00030000
00000000
00000000
00000000
,
10000000
01000000
00010000
01000000
10000000
01000000
00000000
00000000
00100000
00000000
00001000
00010000
00001000
00000000
00000010
00000000
,
00000001
00000100
00001000
00000100
00000000
00000010
00000000
00010000
00001000
00000010
00000000
00001000
00010000
00100000
00010000
00000000
,
00001000
00010000
00000000
01000000
10000000
00000000
00100000
00010000
00000000
00100000
10000000
00000000
01000000
00000000
00010000
00000000
,
00001000
00000010
00000100
00000000
00001000
00000000
00000001
00000000
00000100
00001000
00010000
00000000
00000100
00000000
00000010
00000010
,
00000100
00000000
00000000
00010100
00000000
00000000
00101000
00000000
01000000
00000000
00000000
01001000
00000000
00000000
00010010
00000000
,
00000000
00000000
00022000
00000000
00033000
00010000
01000000
10000000
,
01100000
00000000
00000000
00011000
00000000
00000000
00000110
00000000
00010010
00000000
00000000
00011000
00000000
00000000
00101000
00000000
,
00000000
00000000
00022000
00000000
00033000
01000000
00001000
00100000
,
01000000
00000000
00010000
00001000
00000010
00000001
00000100
00001000
,
00010000
00100000
10000000
00010000
00100000
10000000
00100000
00001000
,
00020000
00100000
00001000
00030100
,
00010000
00000000
00010100
00000000
01001000
00000000
00000000
00001000
00010000
00000000
00110000
00000000
00011000
00000000
00010100
00000000
,
00011000
00000000
00000000
00000000
00010000
00000100
00000000
00000010
00000000
00000000
00000110
00000000
00001001
00000000
00000101
00000000
,
00001100
00000000
00000000
00010000
00001000
00010000
00000000
00100000
00000000
00000000
01010000
00000000
00110000
00000000
01001000
00000000
,
00011000
00000000
00000000
00100000
00010000
01000000
00000000
00100000
00000000
00000000
01001000
00000000
00110000
00000000
00011000
00000000
,
00101000
00000000
00000000
10000000
01000000
00010000
00000000
00001000
00000000
00000000
00000000
00000000
00010100
00000000
00101000
00000000
,
00010100
00000000
00000000
00010000
00001000
00000010
00000000
00000100
00000000
00000000
00001100
00000000
00011000
00000000
00101000
00000000
,
00010010
00000000
00000000
00010000
00100000
01000000
00000000
00001000
00000000
00000000
01001000
00000000
00101000
00000000
00010010
00000000
,
01001000
00000000
00000000
00000100
00010000
00001000
00000000
00000010
00000000
00000000
00000100
00001000
00000010
00000000
00010010
00000000
,
01001000
00000000
00011000
00000000
01000000
00010000
00000000
00101000
00000000
00000000
00001000
00000000
00000100
00000001
00000010
00000000
,
00000100
00001000
00000100
00000000
00010000
00000000
00000000
00010000
00001000
01000000
00001000
00000000
00100000
00000000
00000000
00100000
,
01000000
10000000
00100000
00000000
01000000
00000000
00000000
01000000
00010000
00100000
00001000
00000000
00010000
00000000
00100000
01000000
,
00001000
00010000
01000000
00000000
00100000
00000000
00000000
00100000
00001000
00010000
00000100
00000000
00000010
00000000
00000000
00000010
,
00000100
00001000
00000001
00000000
00000100
00000000
00000000
00000100
00001000
00010000
00100000
00000000
00010000
00000000
00001000
00000010
,
00000001
00000000
00000100
00000000
00000010
00000000
00000100
00001000
00010000
00000000
00100000
00000000
01000000
00000000
00001000
00010000
,
01000000
00000000
10000000
00000000
00010000
00000000
10000000
01000000
00010000
00000000
00001000
00000000
00000010
00000000
00000100
00001000
,
00000010
00000000
00000001
00000000
00000010
00000000
00000100
00001000
00010000
00000000
00100000
00000000
00010000
00000000
00001000
00000010
,
00000100
00000000
00000000
00000000
00010100
00000000
00000000
01001000
00000000
00000000
00110000
00000000
01001000
00000000
00011000
00000000
,
00001010
00000000
00000000
00000000
00000100
00001000
00000000
00000010
00000000
00000000
00000110
00000000
00011000
00000000
00101000
00000000
,
00010010
00000000
00000000
00000100
00010000
00001000
00000000
00100000
00000000
00000000
00010100
00000000
01010000
00000000
00101000
00000000
,
10010000
00000000
00000000
10000000
01000000
00010000
00000000
00001000
00000000
00000000
00101000
00000000
00010010
00000000
00010100
00000000
,
00001001
00000000
00000000
00001000
00000100
00000010
00000000
00001000
00000000
00000000
00000000
00000000
00110000
00000000
01010000
00000000
,
00101000
00000000
00000000
00010000
00001000
00000100
00000000
00000010
00000000
00000000
00010010
00000000
01010000
00000000
00101000
00000000
,
00001100
00000000
00000000
00000001
00000100
00000010
00000000
00001000
00000000
00000000
00101000
00000000
01001000
00000000
01100000
00000000
,
10010000
00000000
00000000
10000000
00100000
00010000
00000000
00001000
00000000
00000000
00100000
00010000
01000000
00000000
01001000
00000000
,
01100000
00000000
00011000
00000000
00000100
00000001
00000100
00001000
00000000
00000000
00000000
00000000
00000000
00000000
00000000
00000000
;
