#VERSION:0.83;
#TITLE:OOO;
#SUBTITLE:;
#ARTIST:Ryu☆ feat.moimoi;
#TITLETRANSLIT:;
#SUBTITLETRANSLIT:;
#ARTISTTRANSLIT:;
#GENRE:BUBBLEGUM DANCE;
#CREDIT:;
#MUSIC:OOO.ogg;
#BANNER:OOO.png;
#BACKGROUND:OOO-bg.png;
#CDTITLE:./CDTitles/bm IIDX 24 SINOBUZ.png;
#SAMPLESTART:41.841;
#SAMPLELENGTH:15.000;
#SELECTABLE:YES;
#OFFSET:2.704;
#BPMS:0.000=140.000;
#STOPS:;
#TIMESIGNATURES:0.000=4=4;
#DISPLAYBPM:140.000;
#BGCHANGES:0.000=OOO.mp4=1.000=0=0=0=StretchNoLoop====,
99999.000=-nosongbg-=1.000=0=0=0=StretchNoLoop====
;
#FGCHANGES:;

//--------------- dance-single - forcednature ----------------
#NOTEDATA:;
#STEPSTYPE:dance-single;
#DESCRIPTION:forcednature;
#DIFFICULTY:Beginner;
#METER:1;
#RADARVALUES:0.073702,0.113501,0.034394,0,0,60,56,4,0,0,0,0.073702,0.113501,0.034394,0,0,60,56,4,0,0,0;
#CREDIT:forcednature;
#NOTES:
0000
0000
0000
0000
,
0000
0000
0000
0000
,
0000
0000
0000
0000
,
0000
0000
0000
0000
,
0000
0000
0000
0000
,
0000
0000
0000
0000
,
0001
0000
0000
0000
,
1000
0000
0000
0000
,
0100
0000
0000
0000
,
0000
0000
0000
0000
,
0010
0000
0000
0000
,
0100
0000
0000
0000
,
1000
0000
0000
0000
,
0001
0000
0000
0000
,
0100
0000
0000
0000
,
0010
0000
0000
0000
,
1000
0000
0000
0000
,
0000
0000
0000
0000
,
1001
0000
0000
0000
,
0001
0000
0000
0000
,
0100
0000
0000
0000
,
0010
0000
0010
0000
,
1000
0000
0000
0000
,
0001
0000
0000
0000
,
0010
0000
0000
0000
,
0100
0000
0000
0000
,
1000
0000
0000
0000
,
0001
0000
0000
0000
,
0100
0000
0000
0000
,
0010
0000
0000
0000
,
1000
0000
0000
0000
,
0001
0000
0000
0000
,
0010
0000
0000
0000
,
0000
0000
0000
0000
,
1001
0000
0000
0000
,
0010
0000
0000
0000
,
0100
0000
0000
0000
,
0010
0000
0010
0000
,
0100
0000
0000
0000
,
1000
0000
0000
0000
,
0001
0000
0000
0000
,
0010
0000
0000
0000
,
0100
0000
0000
0000
,
0000
0000
0000
0000
,
1000
0000
0000
0000
,
0000
0000
0000
0000
,
0001
0000
0000
0000
,
0100
0000
0000
0000
,
0010
0000
0010
0000
,
0000
0000
0000
0000
,
1001
0000
0000
0000
,
0100
0000
0000
0000
,
0001
0000
0000
0000
,
1000
0000
0000
0000
,
0010
0000
0000
0000
,
1000
0000
0000
0000
,
0100
0000
0000
0000
,
0000
0000
0000
0000
,
1001
0000
0000
0000
,
0001
0000
0000
0000
,
0100
0000
0000
0000
,
0010
0000
0000
0000
,
1000
0000
0000
0000
,
0100
0000
0000
0000
,
0010
0000
0000
0000
,
0000
0000
0000
0000
,
0100
0000
0000
0000
;

//--------------- dance-single - forcednature ----------------
#NOTEDATA:;
#STEPSTYPE:dance-single;
#DESCRIPTION:forcednature;
#DIFFICULTY:Easy;
#METER:4;
#RADARVALUES:0.169514,0.201635,0,0.06019,0,138,138,0,7,0,0,0.169514,0.201635,0,0.06019,0,138,138,0,7,0,0;
#CREDIT:forcednature;
#NOTES:
0000
0000
0000
0000
,
0000
0000
0000
0000
,
0000
0000
0000
0000
,
0000
0000
0000
0000
,
0000
0000
0000
0000
,
0000
0000
0000
0000
,
1000
1000
1000
0000
,
0010
0000
0100
0000
,
0001
0001
0001
0000
,
0020
0000
0000
0030
,
0100
0010
0100
0000
,
1000
0000
0001
0000
,
0100
0010
0100
0000
,
0001
0000
1000
0000
,
0010
0100
0010
0000
,
1000
0000
0001
0000
,
0010
0100
0010
0000
,
0200
0000
0000
0300
,
1000
0000
0001
0000
,
0100
0000
0010
0000
,
1000
0000
0001
0000
,
1000
0001
1000
0001
,
0100
0000
0010
0000
,
1000
0000
0001
0000
,
0010
0000
0100
0000
,
1000
0001
0100
0000
,
0010
0010
0010
0000
,
1000
0000
0001
0000
,
0010
0010
0010
0000
,
0100
0000
1000
0000
,
0001
0001
0001
0000
,
0100
0000
0010
0000
,
1000
1000
1000
0000
,
0200
0000
0000
0300
,
0010
0000
0001
0000
,
0010
0000
0001
0000
,
1000
0000
0010
0000
,
1000
0001
1000
0001
,
0100
0000
0010
0000
,
1000
0000
0001
0000
,
0010
0000
0100
0000
,
1000
0001
0200
0300
,
0010
0010
0010
0000
,
1000
0000
0000
0000
,
0010
0010
0010
0000
,
0001
0000
0000
0000
,
0010
0010
0010
0000
,
0100
0000
0100
0000
,
0010
0010
0010
0000
,
0200
0000
0000
0300
,
0001
0001
0001
0000
,
0010
0000
0100
0000
,
1000
1000
1000
0000
,
0010
0000
0100
0000
,
0001
0001
0001
0000
,
1000
0000
0100
0000
,
1000
1000
1000
0000
,
0002
0000
0000
0003
,
0100
0000
0100
0000
,
0010
0000
0010
0000
,
1000
0000
0001
0000
,
1000
0000
0001
0000
,
0010
0000
0010
0000
,
0100
0000
0100
0000
,
1000
0000
0001
0000
,
1000
0000
0001
0000
,
0020
0000
0000
0000
,
0030
0000
0000
0000
;

//--------------- dance-single - forcednature ----------------
#NOTEDATA:;
#STEPSTYPE:dance-single;
#DESCRIPTION:forcednature;
#DIFFICULTY:Medium;
#METER:7;
#RADARVALUES:0.30709,0.345661,0.29235,0.275153,0,250,216,34,32,0,0,0.30709,0.345661,0.29235,0.275153,0,250,216,34,32,0,0;
#CREDIT:forcednature;
#NOTES:
0000
0000
0000
0000
,
0000
0000
0000
0000
,
0000
0000
0000
0000
,
0000
0000
0000
0000
,
0000
0000
0000
0000
,
0000
0000
0000
0000
,
0100
0010
1001
0000
,
0001
1000
0010
0100
,
0001
0000
1000
0000
1001
0000
0000
0100
,
0000
0100
0000
0200
0000
0000
0300
0000
,
0010
0010
0010
1000
,
0001
0000
0010
0000
0100
0000
1000
0010
,
1000
0001
0100
0001
,
0010
0000
0100
0000
1000
0000
0001
0100
,
0001
1000
0010
1000
,
0100
0000
0010
0000
0001
0000
1000
0100
,
1000
0000
0001
0000
0010
0000
0000
0100
,
0000
0100
0000
0200
0000
0000
0300
0000
,
1001
1000
0010
1000
,
0001
0000
0100
0000
0001
0000
1000
0100
,
1000
0010
0100
0001
,
0101
1000
0101
1000
,
0001
1000
0010
1000
,
0100
0000
0010
0000
0001
0000
0100
0010
,
0100
0001
1000
0010
,
1100
0001
2000
3000
,
0100
0110
2002
3003
,
0001
0100
0010
1000
,
0100
0110
2002
3003
,
1000
0010
0100
0001
,
0010
0110
2002
3003
,
0001
0100
0010
1000
,
0010
0000
0110
0000
2002
0000
3003
0100
,
0000
0100
0000
0200
0000
0000
0300
0000
,
1000
0000
1001
0000
,
0001
0000
1001
0000
,
0010
0000
1001
0000
,
2000
3200
0302
0203
,
0310
0000
1100
0000
,
0010
0000
0101
0000
,
0010
0000
0110
0000
,
0002
0203
2300
3100
,
0010
0010
0020
0030
,
0100
0001
1000
0100
,
0010
0010
0020
0030
,
0100
1000
0001
0100
,
0010
0010
0010
0100
,
0001
0001
0001
1000
,
0010
0000
0100
0000
0010
0000
0000
0100
,
0000
0100
0000
0200
0000
0000
0300
0000
,
1001
0110
2002
3003
,
0100
0010
1000
0001
,
1001
0110
2002
3003
,
1000
0001
0010
0100
,
0110
1001
0220
0330
,
0001
0100
0010
1000
,
1001
0000
0110
0000
2002
0000
3003
0100
,
0000
0100
0000
0200
0000
0000
0300
0000
,
1001
0001
0100
0001
,
1000
0000
0010
0000
1000
0000
0100
0100
,
0100
0010
0001
1000
,
0001
0000
0100
0000
0010
0000
0100
0100
,
0100
0001
1000
0100
,
0010
0000
0100
0000
1000
0000
0100
0100
,
0100
0000
1000
0000
0001
0000
0000
0100
,
0000
0100
0000
0100
0000
0000
1001
0000
,
0020
0000
0000
0000
,
0030
0000
0000
0000
;

//--------------- dance-single - forcednature ----------------
#NOTEDATA:;
#STEPSTYPE:dance-single;
#DESCRIPTION:forcednature;
#DIFFICULTY:Hard;
#METER:10;
#RADARVALUES:0.504856,0.547296,0.395532,0.240759,0.090285,411,365,46,28,0,0,0.504856,0.547296,0.395532,0.240759,0.090285,411,365,46,28,0,0;
#CREDIT:forcednature;
#NOTES:
0000
0000
0000
0000
,
0000
0000
0000
0000
,
0000
0000
0000
0000
,
0000
0000
0000
0000
,
0000
0000
0000
0000
,
0000
0000
0000
0000
,
1000
0000
0110
0000
1001
0000
0001
0200
,
0000
0310
1000
0001
0010
0100
1000
0001
,
0100
0000
0110
0000
1001
0000
1000
0020
,
0000
0130
0001
0200
0000
0310
1000
0100
,
0010
0000
1100
0000
0011
0000
0001
1000
,
0000
0001
0100
0010
1000
0100
0010
0010
,
0010
0000
0110
0000
1001
0000
0001
0100
,
0000
0010
0000
1000
0100
0010
0001
0001
,
0001
0000
0101
0000
1100
0000
0001
1000
,
0000
0010
1000
0100
0010
0001
0100
0100
,
0100
0000
1001
0000
0110
0000
1000
0001
,
0000
0100
0000
0010
1000
0100
1100
0000
,
0010
0001
0010
0100
1000
0001
0200
0000
,
0310
1000
0001
0010
0100
1000
0002
0000
,
0103
1000
0100
0001
0100
0010
1000
0000
,
1100
0101
1100
0101
,
0001
1000
0010
1000
0001
0010
0200
0000
,
1300
0001
0100
0010
1000
0100
0020
0000
,
0130
1000
0001
0100
0010
1000
0001
0000
,
0011
0000
1010
0000
0001
0100
1000
0100
,
0001
0000
0101
0000
1010
0000
1000
0200
,
0000
1300
0001
0100
0010
1000
0001
0010
,
0100
0000
1100
0000
0011
0000
0001
2000
,
0000
3010
1000
0001
0010
0100
1000
0001
,
0100
0000
0110
0000
1001
0000
0001
0200
,
0000
0301
0010
0100
0001
0100
1000
0010
,
1000
0000
1010
0000
0011
0000
0001
2000
,
0000
3010
0100
0020
0000
0130
0101
0000
,
1001
0001
0110
0000
,
0100
0000
0000
0100
0110
0000
0000
0000
,
0001
1000
1001
0000
,
2100
3010
0102
0013
,
1000
0001
0100
0000
0110
0000
0001
0000
,
0010
0100
1000
0000
1010
0000
0001
0000
,
0100
0010
1000
0000
0011
0000
0001
0000
,
2000
0000
3002
0000
1003
0100
0001
0100
,
1000
0000
0000
0000
0001
0000
0000
0000
1000
0000
0000
1000
0000
0000
0001
0000
,
0000
0000
0010
0000
0100
0000
1000
0000
0001
0000
0000
0100
0000
0000
0001
1000
,
0001
0000
0000
0000
1000
0000
0000
0000
0001
0000
0000
0001
0000
0000
0010
0000
,
0000
0000
0001
0000
0000
0000
1000
0000
0001
0000
0100
0001
0000
1000
0010
0000
,
1000
0000
0100
0000
1000
0000
0010
0000
0100
0000
0001
0000
0010
0000
0001
1000
,
0001
0000
0100
0000
0001
0000
0010
0000
0100
0000
1000
0001
0000
1000
0100
0000
,
0010
1000
0010
0100
0010
0001
0010
0200
,
0000
1300
0001
2000
0000
3010
0100
0010
,
0100
0000
0000
0100
0001
0000
0000
0001
0010
0000
0000
0010
0100
0000
2000
0000
,
0000
3010
0100
0001
0010
1000
0010
0001
,
0100
0000
0000
0100
0001
0000
0000
0001
1000
0000
0000
1000
0100
0000
0020
0000
,
0000
0031
0100
0010
1000
0100
0010
0100
,
1000
0000
0000
1000
0010
0000
0000
0010
0001
0000
0000
0001
0010
0000
0200
0000
,
0000
0301
1000
0100
0010
1000
0010
0001
,
0100
0000
0000
0100
1000
0000
0000
1000
0100
0000
0000
0100
0001
0000
0020
0000
,
0000
0130
1000
0020
0000
0130
0101
0000
,
1001
0000
0101
0000
0001
1000
0010
0200
,
0000
0301
0010
0100
1000
0010
0100
0100
,
0101
0000
1010
0000
1000
0000
0100
0020
,
0000
0130
0001
0100
1000
0010
0100
0100
,
1100
0000
0101
0000
0001
1000
0010
0002
,
0000
0013
0100
0010
1000
0001
0010
0010
,
0110
0000
1001
0000
1000
0000
0001
0200
,
0000
0310
0001
0010
0100
0001
1000
0001
,
0020
0000
0000
0000
,
0030
0000
0000
0000
;

//--------------- dance-double - forcednature ----------------
#NOTEDATA:;
#STEPSTYPE:dance-double;
#DESCRIPTION:forcednature;
#DIFFICULTY:Easy;
#METER:4;
#RADARVALUES:0.174427,0.201635,0,0.06019,0,142,142,0,7,0,0,0.174427,0.201635,0,0.06019,0,142,142,0,7,0,0;
#CREDIT:forcednature;
#NOTES:
00000000
00000000
00000000
00000000
,
00000000
00000000
00000000
00000000
,
00000000
00000000
00000000
00000000
,
00000000
00000000
00000000
00000000
,
00000000
00000000
00000000
00000000
,
00000000
00000000
00000000
00000000
,
00001000
00000000
00010000
00000000
,
00001000
00000000
01000000
00000000
,
00010000
00000000
10000000
00000000
,
02000000
00000000
00000000
03000000
,
00100000
01000000
00100000
00000000
,
00001000
00000000
00010000
00000000
,
00000010
00000100
00000010
00000000
,
00001000
00000000
00000001
00000000
,
00000010
00000100
00000010
00000000
,
00001000
00000000
00010000
00000000
,
00100000
01000000
00100000
00000000
,
20000000
00000000
00000000
30000000
,
01000000
00000000
00100000
00000000
,
00010000
00000000
10000000
00000000
,
00010000
00000000
01000000
00000000
,
00001000
00010000
00001000
00010000
,
00000100
00000000
00001000
00000000
,
00000001
00000000
00000100
00000000
,
00000010
00000000
00010000
00000000
,
00001000
00010000
00001000
00000000
,
00100000
00100000
00100000
00000000
,
01000000
00000000
10000000
00000000
,
00010000
00010000
00010000
00000000
,
01000000
00000000
00001000
00000000
,
00010000
00010000
00010000
00000000
,
00000100
00000000
00001000
00000000
,
00000010
00000010
00000010
00000000
,
00000200
00000000
00000000
00000300
,
00000001
00000000
00000010
00000000
,
00000100
00000000
00000010
00000000
,
00000100
00000000
00010000
00000000
,
00001000
00010000
00001000
00010000
,
00001000
00000000
01000000
00000000
,
00010000
00000000
10000000
00000000
,
00010000
00000000
01000000
00000000
,
00001000
00010000
00002000
00003000
,
00100000
00100000
00100000
00000000
,
01000000
00000000
10000000
00000000
,
00010000
00010000
00010000
00000000
,
01000000
00000000
00001000
00000000
,
00010000
00010000
00010000
00000000
,
00000010
00000000
00001000
00000000
,
00000001
00000001
00000001
00000000
,
00000020
00000000
00000000
00000030
,
00000100
00000100
00000100
00000000
,
00010000
00000000
00001000
00000000
,
00100000
00100000
00100000
00000000
,
00010000
00000000
10000000
00000000
,
00010000
00010000
00010000
00000000
,
01000000
00000000
00001000
00000000
,
00010000
00010000
00010000
00000000
,
00000020
00000000
00000000
00000030
,
00000100
00000010
00000100
00000000
,
00001000
00000000
00010000
00000000
,
01000000
00100000
01000000
00000000
,
00010000
00000000
00001000
00000000
,
00000010
00000100
00000010
00000000
,
00001000
00000000
00010000
00000000
,
00100000
01000000
00100000
00000000
,
00010000
00000000
00001000
00000000
,
00020000
00000000
00000000
00000000
,
00030000
00000000
00000000
00000000
;

//--------------- dance-double - forcednature ----------------
#NOTEDATA:;
#STEPSTYPE:dance-double;
#DESCRIPTION:forcednature;
#DIFFICULTY:Medium;
#METER:7;
#RADARVALUES:0.297263,0.316856,0.206365,0.223562,0,242,218,24,26,0,0,0.297263,0.316856,0.206365,0.223562,0,242,218,24,26,0,0;
#CREDIT:forcednature;
#NOTES:
00000000
00000000
00000000
00000000
,
00000000
00000000
00000000
00000000
,
00000000
00000000
00000000
00000000
,
00000000
00000000
00000000
00000000
,
00000000
00000000
00000000
00000000
,
00000000
00000000
00000000
00000000
,
00001000
00010000
01000000
00000000
,
00100000
00010000
10000000
00100000
,
01000000
00000000
00001000
00000000
00010000
00000000
00000000
00000100
,
00000000
00000100
00000000
00000200
00000000
00000000
00000300
00000000
,
00001000
00000001
00000100
00000010
,
00000100
00000000
00001000
00000000
00010000
00000000
00100000
10000000
,
00100000
01000000
00010000
00100000
,
01000000
00000000
00010000
00000000
00001000
00000000
00000010
00000001
,
00000010
00000100
00001000
00000001
,
00000100
00000000
00001000
00000000
00010000
00000000
01000000
10000000
,
01000000
00100000
00001000
00010000
,
00000020
00000000
00000000
00000030
,
00000100
00000001
00000100
00001000
,
00010000
01000000
10000000
01000000
,
00010000
00001000
00000100
00000001
,
00000010
00001001
00000010
00001001
,
00000001
00000100
00001000
00010000
,
01000000
10000000
01000000
00010000
,
00001000
00000100
00001000
00010000
,
01000000
10010000
00200000
00300000
,
10000000
01100000
20020000
30030000
,
00010000
01000000
00001000
00010000
,
00000100
00000110
00002002
00003003
,
00001000
00000100
00010000
00001000
,
01000000
01100000
20020000
30030000
,
00010000
01000000
00001000
00010000
,
00000100
00000000
00000110
00000000
00002002
00000000
00003003
00000100
,
00000000
00000100
00000000
00000200
00000000
00000000
00000300
00000000
,
00010000
00000000
00011000
00000000
,
01000000
00000000
01100000
00000000
,
00010000
00000000
10010000
00000000
,
00001000
00000000
00011000
00000000
,
00001000
00010000
00001000
00000100
,
00000001
00000010
00000100
00001000
,
00000010
00010000
00001000
01000000
,
00100000
00100000
00200000
00300000
,
10000000
10000000
20000000
30000000
,
01000000
00010000
00001000
00000100
,
00000001
00000001
00000002
00000003
,
00000100
00001000
00010000
01000000
,
00010000
00000000
00010000
00000000
00010000
00000000
00001000
00010000
,
00001000
00000000
00001000
00000000
00001000
00000000
00010000
00001000
,
00010000
00000000
00001000
00000000
00010000
00000000
00000000
01000000
,
00000000
01000000
00000000
02000000
00000000
00000000
03000000
00000000
,
01000000
01100000
20020000
30030000
,
00010000
01000000
00001000
00010000
,
00000100
00000110
00002002
00003003
,
00001000
00000100
00010000
00001000
,
01000000
01100000
20020000
30030000
,
00010000
01000000
00001000
00010000
,
00000100
00000000
00000110
00000000
00002002
00000000
00003003
00000100
,
00000000
00000100
00000000
00000200
00000000
00000000
00000300
00000000
,
00010000
00001000
00010000
01000000
,
10000000
00000000
00010000
00000000
01000000
00000000
00001000
00010000
,
00001000
00000100
00000001
00000010
,
00000100
00000000
00010000
00000000
00001000
00000000
01000000
00010000
,
01000000
00100000
10000000
01000000
,
00010000
00000000
00001000
00000000
00000100
00000000
00000010
00001000
,
00000010
00000000
00010000
00000000
00001000
00000000
00000000
01000000
,
00000000
01000000
00000000
01000000
00000000
00000000
10010000
00000000
,
00200000
00000000
00000000
00000000
,
00300000
00000000
00000000
00000000
;

//--------------- dance-double - forcednature ----------------
#NOTEDATA:;
#STEPSTYPE:dance-double;
#DESCRIPTION:forcednature;
#DIFFICULTY:Hard;
#METER:11;
#RADARVALUES:0.492573,0.547296,0.404131,0.240759,0.090285,401,354,47,28,0,0,0.492573,0.547296,0.404131,0.240759,0.090285,401,354,47,28,0,0;
#CREDIT:forcednature;
#NOTES:
00000000
00000000
00000000
00000000
,
00000000
00000000
00000000
00000000
,
00000000
00000000
00000000
00000000
,
00000000
00000000
00000000
00000000
,
00000000
00000000
00000000
00000000
,
00000000
00000000
00000000
00000000
,
00001000
00000000
00010000
00000000
01100000
00000000
10000000
00020000
,
00000000
01030000
00001000
00010000
00000100
00001000
00000001
00000100
,
00000010
00000000
00000110
00000000
00001001
00000000
00000001
00000200
,
00000000
00001300
00010000
00002000
00000000
00103000
01000000
10000000
,
00010000
00000000
00101000
00000000
00010100
00000000
00000001
00000010
,
00000000
00000100
00001000
00000010
00000100
00001000
00010000
00010000
,
00010000
00000000
00110000
00000000
10100000
00000000
00010000
01000000
,
00000000
00001000
00000000
00010000
00000100
00001000
00000010
00000010
,
00000010
00000000
00000101
00000000
00010010
00000000
00010000
00001000
,
00000000
00100000
01000000
00010000
00001000
01000000
00010000
00010000
,
00010000
00000000
01010000
00000000
00011000
00000000
00000100
00001000
,
00000000
00000001
00000000
00000100
00001000
00010000
01000000
00000000
,
10000000
00100000
10000000
01000000
00010000
00001000
00000020
00000000
,
00000130
00001000
00000001
00000100
00000010
00000100
00002000
00000000
,
00013000
01000000
00100000
00010000
10000000
00100000
01000000
00000000
,
01001000
00010010
01001000
00010010
,
00000100
00001000
00000001
00000100
00000010
00010000
00002000
00000000
,
00003010
00001000
00010000
00100000
00010000
00001000
00020000
00000000
,
01030000
10000000
00010000
01000000
00100000
00010000
00001000
00000000
,
00010100
00000000
01001000
00000000
00001000
00000100
00000001
00000010
,
00001000
00000000
00010100
00000000
01001000
00000000
00010000
20000000
,
00000000
31000000
00010000
00001000
00000010
00000001
00001000
00000010
,
00000100
00000000
00001100
00000000
00011000
00000000
00001000
02000000
,
00000000
03100000
10000000
00010000
01000000
00100000
00010000
00001000
,
00000100
00000000
00000101
00000000
00001010
00000000
00000001
00000020
,
00000000
00001030
00010000
00000010
00010000
00001000
01000000
00100000
,
00010000
00000000
00011000
00000000
00101000
00000000
00010000
20000000
,
00000000
31000000
00010000
00002000
00000000
00003100
00000001
00000000
,
00001001
00000000
00000110
00000000
,
00001100
00000000
00000000
00001000
00011000
00000000
00000000
00000000
,
01010000
00000000
10100000
00000000
,
01002000
00103000
00020100
00030010
,
00001001
00000000
00000110
00000000
,
00011000
00000000
00000000
00001000
01001000
00000000
00000000
00000000
,
10100000
00000000
11000000
00000000
,
00020000
00000000
00032000
00000000
00013000
01000000
10000000
00100000
,
00010000
00000000
00000000
00000000
00001000
00000000
00000000
00000000
00000100
00000000
00000000
00000001
00000000
00000000
00000010
00000000
,
00000100
00000000
00000000
00000000
00010000
00000000
00000000
00000000
00001000
00000000
00000000
01000000
00000000
00000000
00010000
10000000
,
00010000
00000000
00000000
00000000
00100000
00000000
00000000
00000000
01000000
00000000
00000000
10000000
00000000
00000000
00010000
00000000
,
01000000
00000000
00000000
00000000
00001000
00000000
00000000
00000000
00010000
00000000
00000010
00001000
00000000
00000001
00000100
00000000
,
00000010
00000000
00000100
00000000
00001000
00000000
00010000
00000000
00100000
00000000
01000000
00000000
00010000
00000000
10000000
00010000
,
10000000
00000000
00100000
00000000
01000000
00000000
00010000
00000000
00001000
00000000
00000010
00000100
00000000
00000001
00001000
00000000
,
00000100
00010000
00001000
01000000
00100000
00010000
00001000
00000020
,
00000000
00000130
00010000
00002000
00000000
00013000
00100000
10000000
,
01000000
00000000
00000000
01000000
00010000
00000000
00000000
00010000
00001000
00000000
00000000
00001000
00000010
00000000
00000002
00000000
,
00000000
00000103
00000010
00000100
00001000
00010000
01000000
00100000
,
00010000
00000000
00000000
00010000
10000000
00000000
00000000
10000000
00100000
00000000
00000000
00100000
00010000
00000000
00002000
00000000
,
00000000
00003010
00000100
00001000
00000001
00000100
00001000
00010000
,
00000100
00000000
00000000
00000100
00010000
00000000
00000000
00010000
00001000
00000000
00000000
00001000
01000000
00000000
00020000
00000000
,
00000000
10030000
00100000
00010000
00001000
00000010
00000001
00000100
,
00000010
00000000
00000000
00000010
00010000
00000000
00000000
00010000
00001000
00000000
00000000
00001000
00000010
00000000
00000200
00000000
,
00000000
00010300
00001000
02000000
00000000
03100000
10000000
00000000
,
00110000
00000000
01100000
00000000
10000000
00010000
01000000
00200000
,
00000000
00310000
00001000
00000010
00000100
00001000
00000001
00000001
,
00000101
00000000
00001010
00000000
00000001
00000000
00000010
00000200
,
00000000
00000301
00000100
00001000
00000010
00010000
00001000
00001000
,
00011000
00000000
00101000
00000000
00010000
10000000
01000000
00200000
,
00000000
10300000
00100000
00010000
00001000
00000100
00000001
00000001
,
00000101
00000000
00001100
00000000
00000001
00000000
00000100
00002000
,
00000000
00013000
01000000
00100000
00010000
01000000
00100000
00010000
,
00002000
00000000
00000000
00000000
,
00003000
00000000
00000000
00000000
;
