#VERSION:0.83;
#TITLE:O/D*20;
#SUBTITLE:;
#ARTIST:Ryu*;
#TITLETRANSLIT:;
#SUBTITLETRANSLIT:;
#ARTISTTRANSLIT:;
#GENRE:;
#CREDIT:;
#MUSIC:O D 20.ogg;
#BANNER:O D 20.png;
#BACKGROUND:O D 20-bg.png;
#CDTITLE:./CDTitles/bm IIDX 25 CANNON BALLERS.png;
#SAMPLESTART:37.664;
#SAMPLELENGTH:15.000;
#SELECTABLE:YES;
#OFFSET:0.247;
#BPMS:0.000=155.000;
#STOPS:;
#TIMESIGNATURES:0.000=4=4;
#BGCHANGES:0.000=../BGAs/20dr.mp4=1.000=0=0=0=StretchNoLoop====,
99999.000=-nosongbg-=1.000=0=0=0=StretchNoLoop====
;
#FGCHANGES:;

//--------------- dance-single - forcednature ----------------
#NOTEDATA:;
#STEPSTYPE:dance-single;
#DESCRIPTION:forcednature;
#DIFFICULTY:Beginner;
#METER:2;
#RADARVALUES:0,0,0,0,0;
#CREDIT:forcednature;
#NOTES:
0000
0000
0000
0000
,
0000
0000
0000
0000
,
0000
0000
0000
0000
,
0000
0000
0000
0000
,
0000
0000
0000
0000
,
1000
0000
0000
0000
,
0001
0000
0000
0000
,
0100
0000
0000
0000
,
0010
0000
0000
0000
,
1000
0000
0000
0000
,
0001
0000
0000
0000
,
0010
0000
0000
0000
,
0100
0000
0000
0000
,
1000
0000
0000
0000
,
0000
0000
0000
0000
,
0001
0000
0000
0000
,
0000
0000
0000
0000
,
0100
0000
0000
0000
,
0000
0000
0000
0000
,
0010
0000
0000
0000
,
0000
0000
0000
0000
,
1000
0000
0000
0000
,
0100
0000
0000
0000
,
0010
0000
0000
0000
,
0001
0000
0000
0000
,
0100
0000
0000
0000
,
0010
0000
0000
0000
,
1000
0000
0000
0000
,
0001
0000
0000
0000
,
0010
0000
0000
0000
,
0100
0000
0000
0000
,
1000
0000
0000
0000
,
0001
0000
0000
0000
,
0100
0000
0000
0000
,
0010
0000
0000
0000
,
1000
0000
0000
0000
,
0001
0000
0000
0000
,
0010
0000
0000
0000
,
0100
0000
0000
0000
,
1000
0000
0000
0000
,
0001
0000
0000
0000
,
0100
0000
0000
0000
,
0010
0000
0000
0000
,
1000
0000
0000
0000
,
0001
0000
0000
0000
,
0010
0000
0000
0000
,
0100
0000
0000
0000
,
1000
0000
0000
0000
,
0001
0000
0000
0000
,
0100
0000
0000
0000
,
0000
0000
0000
0000
,
0010
0000
0000
0000
,
0000
0000
0000
0000
,
1000
0000
0000
0000
,
0001
0000
0000
0000
,
0010
0000
0000
0000
,
0100
0000
0000
0000
,
1000
0000
0000
0000
,
0001
0000
0000
0000
,
0100
0000
0000
0000
,
0001
0000
0000
0000
,
0010
0000
0000
0000
,
0100
0000
0000
0000
,
1000
0000
0000
0000
,
0010
0000
0000
0000
,
0100
0000
0000
0000
,
0001
0000
0000
0000
,
1000
0000
0000
0000
,
0100
0000
0000
0000
,
0010
0000
0000
0000
,
0001
0000
0000
0000
,
1000
0000
0000
0000
,
0010
0000
0000
0000
;

//--------------- dance-single - forcednature ----------------
#NOTEDATA:;
#STEPSTYPE:dance-single;
#DESCRIPTION:forcednature;
#DIFFICULTY:Easy;
#METER:6;
#RADARVALUES:0,0,0,0,0;
#CREDIT:forcednature;
#NOTES:
0000
0000
0000
0000
,
0000
0000
0000
0000
,
0000
0000
0000
0000
,
0000
0000
0000
0000
,
0000
0000
0000
0000
,
1000
0010
0000
0010
,
0000
0100
0000
0001
,
0000
0010
0000
0100
,
1000
0001
1000
0001
,
1000
0010
0000
1000
,
0000
0001
0000
0010
,
0000
0100
0000
1000
,
0001
1000
0001
1000
,
0001
0000
0000
0000
,
0100
0000
0000
0000
,
0110
0000
0000
0000
,
1000
0000
0000
0000
,
2002
0000
0000
0000
,
0000
0000
3003
0000
,
0010
0010
0010
0000
,
0010
0010
0010
0000
,
1000
0000
0001
0000
,
0100
0000
0010
0010
,
0100
0100
0100
0000
,
0100
0100
0100
0000
,
0001
1000
0001
0100
,
0001
0010
0100
1000
,
0010
0100
0001
1000
,
0100
0010
0001
1000
,
0010
0010
0100
0100
,
0001
1000
0100
0010
,
0100
0100
0010
0010
,
0001
1000
0010
0010
,
1000
0001
0100
0001
,
1000
0100
0010
0001
,
1000
0100
1000
0001
,
1000
0010
0100
0001
,
0010
0010
0100
0000
,
0010
0010
0100
0000
,
0010
0010
0100
0000
,
0010
0010
0100
0000
,
1000
0001
1000
0100
,
1000
0001
1000
0100
,
0001
0100
0001
1000
,
0001
0100
0001
1000
,
0100
0100
0010
0010
,
0100
0000
0010
0010
,
0100
0100
0010
0010
,
0100
0000
0010
0010
,
1000
0000
1000
0001
,
0100
0000
0100
0001
,
0010
0000
0010
0100
,
1000
0100
0001
0100
,
0010
0010
0001
1000
,
0010
0010
1000
0001
,
0010
0100
0010
0100
,
1000
0001
0000
0000
,
0100
0001
0100
1000
,
0100
0010
1000
0100
,
0010
1000
0010
0001
,
1000
0010
0100
1000
,
0100
0001
1000
0100
,
0010
1000
0010
0001
,
1000
0010
0100
0001
,
0100
0010
0100
0000
,
0001
1000
0100
1000
,
0001
1000
0100
0001
,
1000
0010
0001
0010
,
0001
1000
0001
0010
,
0001
0100
0010
1000
,
0001
0100
0010
1000
,
0100
0100
0100
0100
,
0100
0100
0010
0000
,
1001
0000
0000
0000
;

//--------------- dance-single - forcednature ----------------
#NOTEDATA:;
#STEPSTYPE:dance-single;
#DESCRIPTION:forcednature;
#DIFFICULTY:Medium;
#METER:9;
#RADARVALUES:0,0,0,0,0;
#CREDIT:forcednature;
#NOTES:
0000
0000
0000
0000
,
0000
0000
0000
0000
,
0000
0000
0000
0000
,
0000
0000
0000
0000
,
0000
0000
0000
0000
,
1000
0000
0100
1000
0010
0000
0100
0001
,
0010
0000
0001
1000
0100
0000
1000
0001
,
0010
0000
0001
0100
0010
0000
1000
0100
,
0000
1001
0000
0010
0000
1001
0000
0100
,
1000
0000
0010
0100
0001
0000
1000
0100
,
0010
0000
0001
1000
0010
0000
0100
1000
,
0100
0000
0010
1000
0100
0000
0010
0001
,
0000
1001
0000
0110
0010
0010
0010
0000
,
2000
0000
0000
0000
,
0200
0000
3000
0000
,
0020
0000
0300
0000
,
2000
0000
0030
0000
,
0020
0000
3000
0000
,
0002
0000
0003
0000
,
0100
0100
0100
0000
,
0100
0100
0100
0030
,
0020
0000
0000
0001
0000
0000
0100
0000
,
0000
1000
0000
0000
0230
0000
2300
0000
,
3020
0000
0000
0001
0000
0000
0100
0000
,
0000
1000
0000
0030
0010
0010
0010
0000
,
1000
0000
0100
1000
0001
0000
0100
0000
,
0010
1000
0100
0000
0010
0000
0001
0000
,
1000
0100
1000
0000
0001
0100
0001
0000
,
1000
0010
1000
0000
0010
0100
0100
0100
,
0001
0000
0010
0100
1000
0000
0001
0100
,
0000
0010
0010
0000
1000
0100
0000
0010
,
0001
1000
0001
0100
0001
0000
1000
0100
,
0000
1000
1000
0000
0010
0010
0010
0000
,
0100
0000
0001
0100
0010
0000
1000
0100
,
0000
0010
0010
0000
0001
1000
1000
0010
,
1000
0000
0010
0100
0000
0001
0010
0010
,
0000
0100
0100
0000
1000
1000
0001
0001
,
0100
0000
0110
0000
1000
0001
1000
0000
,
0010
0110
0000
0000
0001
1000
0001
0000
,
0110
0000
0110
0000
1000
0001
1000
0000
,
0100
0110
1000
0001
0010
0010
0010
0000
,
0001
1000
0001
0000
1000
0010
1000
0000
,
0001
0010
0001
0000
1000
0100
1000
0000
,
1000
1000
1000
0000
0001
0001
0001
0000
,
1000
1000
1000
0000
0001
0001
0001
0100
,
0001
0000
0101
0000
1000
0100
1000
0000
,
0000
0110
0000
0000
1000
0001
1000
0000
,
0011
0000
1010
0000
0010
0100
0010
0000
,
0000
1001
0000
0000
0100
0100
0100
0000
,
1000
0000
0000
0001
0101
0000
1000
0000
,
0010
0000
0100
0000
0101
0000
0000
0001
,
0010
0000
0000
0100
1100
0000
1000
0000
,
0010
0100
0010
0100
0010
0000
1000
0000
,
0001
0000
1000
0100
0010
0001
0100
0000
,
0010
0000
1000
0001
0010
0100
1000
0000
,
0001
0100
0001
0000
1000
0100
1000
0000
,
0010
0100
0010
0100
0010
0010
0010
0000
,
1000
0100
0010
0000
1000
0000
0010
0000
,
0001
0100
0010
0000
0001
0000
0010
0000
,
1000
0100
0010
0000
1000
0000
0010
0000
,
0001
0100
0010
0000
0001
0000
0010
0000
,
1000
0100
0010
0000
1000
0000
0010
0000
,
0001
0100
0010
0000
0001
0000
0010
0000
,
1000
0100
0001
0000
0001
0100
1000
0000
,
1000
0010
0001
0000
0010
0010
0010
0000
,
1000
0000
0001
0100
0010
0000
1000
0000
,
0001
0010
1000
0000
0010
0000
0100
0000
,
1000
0000
0010
0100
1000
0000
0100
0000
,
0001
0010
1000
0000
0010
0000
0100
0000
,
1000
0000
0001
0100
0001
0000
1000
0000
,
0010
0100
1000
0000
0100
0000
0010
0000
,
1000
0100
0010
0001
0100
0000
0010
0000
,
1000
0001
0010
0000
0010
0010
0010
0000
,
0100
0000
0000
0000
;

//--------------- dance-single - forcednature ----------------
#NOTEDATA:;
#STEPSTYPE:dance-single;
#DESCRIPTION:forcednature;
#DIFFICULTY:Hard;
#METER:12;
#RADARVALUES:0,0,0,0,0;
#CREDIT:forcednature;
#NOTES:
0000
0000
0000
0000
,
0000
0000
0000
0000
,
0000
0000
0000
0000
,
0000
0000
0000
0000
,
0000
0000
0000
0000
,
1000
0100
1000
0010
0000
0100
0001
0010
,
0000
0100
1000
0001
0000
0100
1000
0100
,
0000
0010
1000
0100
0000
0010
1000
0010
,
0000
0011
0000
1001
0000
1100
0000
1001
,
1000
0010
0100
1000
0000
0100
0001
0010
,
0000
1000
0010
0001
0000
0100
1000
0100
,
0000
0010
1000
0100
0000
0010
1000
0010
,
0000
1001
0000
0110
0010
0010
0010
0000
,
2000
0001
0001
3001
,
0200
0010
0010
0310
,
0002
1000
1000
1003
,
0020
0100
0100
0130
,
2000
0000
0000
0000
,
0000
0000
0000
0000
,
3001
1000
0001
1000
0001
1000
0000
0000
,
0010
0100
0010
0100
0010
0100
0000
0000
,
0002
0000
0000
0020
0003
0000
0200
0030
,
0000
2000
0300
0000
3020
0000
0230
0000
,
0301
1000
0001
1000
0001
1000
0000
0000
,
0100
0010
0100
0010
0010
0010
0010
0000
,
0001
0100
0001
0010
0100
1000
0010
0000
,
0100
0001
0010
1000
0010
0001
0100
0000
,
0010
1000
0100
0001
0100
1000
0010
0000
,
0100
0001
0010
0100
1000
0010
0010
0010
,
0100
0000
0001
0010
0100
0000
0010
0001
,
1000
0010
0010
0000
0100
0010
1000
0010
,
0100
0100
0001
0010
0100
0000
0010
0010
,
0001
0001
0010
0010
0100
1000
0001
0000
,
1000
0010
0100
0010
0000
0001
0010
0100
,
0000
0010
0010
0000
1000
0100
0100
0001
,
0100
0010
0100
1000
0010
0100
0001
0100
,
0000
0010
0010
0010
0001
0010
1000
0010
,
0100
0010
1000
0100
0100
0100
0100
0010
,
0000
1001
0000
1000
0010
0010
0001
0000
,
0110
0100
0101
0001
0010
0010
0100
1000
,
0000
0110
0010
1000
0010
0001
0010
0000
,
1000
0000
0100
0000
0010
0000
0000
0100
0010
0000
0001
0000
0100
0000
0000
0010
,
1000
0000
0001
0000
0100
0000
0000
0010
1000
0000
0001
0000
1000
0000
0000
0100
,
0010
0000
0001
0000
1000
0000
0000
0001
0100
0000
0010
0000
1000
0000
0000
0100
,
0010
0000
0100
0000
1000
0000
0000
0010
0100
0000
0001
0000
0100
0000
0010
0000
,
0100
0000
0001
0000
0100
0000
0000
0000
0010
0000
1000
0000
0010
1000
0000
0000
,
0000
0000
1100
0000
0100
0000
0000
0000
0010
0000
0001
0000
0010
0001
0000
0000
,
1001
0000
0001
0000
0101
0000
0000
0000
1000
0000
0010
0000
1000
0010
0000
0000
,
0000
1100
0100
0010
0001
0100
0010
0000
,
1000
0000
0000
0001
0101
0000
0110
0000
,
1000
0100
0001
0100
0110
0000
0000
0010
,
0011
0000
0000
0001
1001
0000
1000
0000
,
0010
0100
1000
0100
0001
0000
0110
0000
,
0001
0000
0000
0100
0000
0000
0010
0000
0000
1000
0000
0000
0100
0000
0010
0000
,
0100
0000
0000
1000
0000
0000
0010
0000
0000
0100
0000
0000
0001
0000
0010
0000
,
0100
1000
0001
1000
0100
0010
0001
1000
,
0001
0100
0010
1000
0001
1000
0001
0000
,
1000
0100
0001
0100
0010
0000
0001
0000
,
1000
0010
0100
1000
0100
0000
0001
0000
,
1000
0100
1000
0001
1000
0100
1000
0000
,
0001
0100
0001
1000
0001
0100
0001
0000
,
1000
0100
0010
1000
0010
0000
0001
0000
,
1000
0010
0001
0010
0100
0000
0001
0000
,
1000
0010
1000
0010
0001
0000
0010
0000
,
0100
0001
0100
0001
0010
1000
0010
0000
,
0100
0000
1000
0001
0100
0000
0010
0000
,
1000
0100
0001
0000
0101
0000
1100
0000
,
1000
0000
0010
0100
0001
0000
0010
0000
,
0100
1000
0001
0000
0101
0000
1001
0000
,
1000
0000
0000
0100
0000
0000
0010
0000
0000
1000
0000
0000
0010
0000
0001
0000
,
0100
0000
0000
1000
0000
0000
0100
0000
0000
0010
0000
0000
1000
0000
0100
0000
,
0001
1000
0010
0001
0100
1000
0001
0010
,
1000
0100
0001
0100
0010
0001
1000
0000
,
1001
0000
0000
0000
;

//--------------- dance-single - forcednature ----------------
#NOTEDATA:;
#STEPSTYPE:dance-single;
#DESCRIPTION:forcednature;
#DIFFICULTY:Challenge;
#METER:15;
#RADARVALUES:0,0,0,0,0;
#CREDIT:forcednature;
#NOTES:
0000
0000
0000
0000
,
0000
0000
0000
0000
,
0000
0000
0000
0000
,
0000
0000
0000
0000
,
0000
0000
0000
0000
,
1000
0100
0010
2000
3000
0010
0001
2000
,
3000
0010
0100
2000
3000
0100
0001
0020
,
0030
0100
1000
0002
0003
0100
1000
0200
,
0300
0110
0000
1001
0000
0110
0000
1001
,
0001
0010
1000
0020
0030
0100
1001
0020
,
0030
0001
0100
0020
0030
1000
0110
0002
,
0003
0010
0001
0200
0300
0010
1001
0200
,
0300
0101
0000
1010
0001
1000
0001
0000
,
0000
1000
0000
0000
0100
0000
0000
0010
0000
0000
1000
0000
0000
0010
0000
0000
,
0000
0001
0000
0000
0100
0000
0000
1000
0000
0000
0100
0000
0000
0010
0000
0000
,
0000
1000
0000
0000
0100
0000
0000
0001
0000
0000
0100
0000
0000
0010
0000
0000
,
0000
0001
0000
0000
0100
0000
0000
1000
0000
0000
0001
0000
0000
0010
0000
0000
,
0000
1000
0000
0000
0100
0000
0000
0001
0000
0000
1000
0000
0000
0010
0000
0000
,
0000
0100
0000
0000
1000
0000
0000
0001
0000
0000
0010
0000
0000
0100
0000
0000
,
1000
0100
1000
0000
0100
1000
0100
0000
1000
0100
1000
0000
0000
0000
0000
0000
,
0001
0010
0001
0000
0010
0001
0010
0000
0001
0010
0001
0000
0000
0000
0000
0000
,
1000
0010
0001
1000
0100
0001
1000
0100
,
0001
1000
0010
0001
1000
0001
0100
0010
,
1000
0010
1000
0000
0010
1000
0010
0000
1000
0010
1000
0000
0010
0000
0100
0000
,
0001
0100
0001
0000
0100
0001
0100
0000
0010
0000
0100
0000
0001
0000
0000
0000
,
1000
0100
0010
1000
0010
0100
1000
0001
,
0100
0010
0001
0010
0100
0001
1000
0100
,
0010
0001
0010
0000
0100
1000
0100
0000
0010
0001
0010
0000
0001
0000
0100
0000
,
0010
1000
0010
0000
0100
0001
0100
0000
0010
1000
0010
0000
0010
0000
0010
0000
,
0100
0001
1000
0010
1000
0100
1000
0010
,
0100
0010
0010
0100
0001
0010
0100
0010
,
0001
1000
0100
0000
1000
0001
0010
0000
0001
1000
0100
0000
1000
0000
0010
0000
,
0100
0000
0000
0001
0000
0000
0010
0000
0000
0000
0000
0000
0100
0000
0000
1000
0000
0000
0010
0000
0000
0000
0000
0000
0100
0000
0000
0000
0000
0000
0000
0000
0100
0000
0000
0000
0000
0000
0000
0000
0100
0000
0000
0000
0000
0000
0000
0000
,
0001
1000
0100
0010
0100
1000
0001
0010
,
0001
0010
0010
0100
1000
0010
0010
0010
,
1000
0001
0100
0000
0001
1000
0010
0000
1000
0001
0100
0000
0001
0000
0010
0000
,
0100
1000
0010
0000
0100
0001
0010
0000
0100
1000
0010
0000
0010
0000
0010
0000
,
1001
0000
0000
0000
1100
0000
0000
0000
1000
0000
0001
0000
1000
0001
0000
0000
,
0000
0000
0110
0000
0010
0000
0000
0000
1000
0000
0001
0000
1000
0001
0000
0000
,
1000
0010
1000
0000
0001
0100
0001
0000
1000
0000
0100
0000
1000
0100
0000
0000
,
0010
0001
0010
0000
0100
1000
0100
0000
1000
0000
0001
0000
1000
0000
0000
0000
,
0001
0000
0100
0000
0001
0000
1000
0100
0010
0000
0100
0000
0010
0000
0100
1000
,
0001
0000
1000
0000
0001
0000
1000
0010
0100
0000
0010
0000
0100
0000
0001
0010
,
0100
1000
0100
0000
0010
0001
0010
0000
0001
1000
0001
0000
0100
0000
0001
0100
,
0010
1000
0010
0000
0100
0001
0100
0000
0010
1000
0010
0000
0010
0000
0010
0000
,
1100
0000
0000
0000
0011
0000
0000
0000
1000
0000
0001
0000
1000
0001
0000
0000
,
0000
0000
0110
0000
0010
0000
0000
0000
1000
0000
0001
0000
1000
0001
0000
0000
,
1000
0100
0010
0000
0001
0100
0010
0000
1000
0000
0001
0000
1000
0001
0000
0000
,
1000
0110
0010
0010
0100
0100
0100
0000
,
1001
0000
0000
0001
0101
0000
1010
0000
,
1100
0000
0101
0000
0110
0000
0000
1000
,
1001
0000
0000
0010
0110
0000
1001
0000
,
1000
0001
1000
0001
1001
0000
0110
0000
,
0001
0000
0000
0100
0010
0000
1000
0000
0000
0001
0100
0000
0001
0010
0001
0010
,
0001
0000
0000
1000
0100
0000
0010
0000
0000
0001
1000
0000
0001
0100
0001
0100
,
0001
1000
0001
1000
0100
1000
0100
1000
0100
0010
0100
0010
0001
0010
0001
0010
,
0001
1000
0001
1000
0001
1000
0001
1000
0010
0000
0010
0000
0010
0000
0000
0000
,
1000
0100
0001
0100
0010
0001
1000
0010
,
0100
1000
0001
0010
0100
0001
1000
0100
,
0010
0001
1000
0000
0010
1000
0001
0000
0010
0001
1000
0000
0010
0000
0100
0000
,
0001
1000
0100
0000
1000
0001
0100
0000
0001
1000
0100
0000
0010
0000
0001
0000
,
1000
0010
0001
1000
0100
0010
1000
0100
,
0010
0001
0100
0010
0001
1000
0100
0001
,
1000
0100
0010
0000
0100
1000
0010
0000
1000
0100
0010
0000
0001
0000
0100
0000
,
0001
0000
0000
0100
0000
0000
0010
0000
0000
0000
0000
0000
0100
0000
0000
0001
0000
0000
0010
0000
0000
0000
0000
0000
0100
0000
0000
0000
0000
0000
0000
0000
0100
0000
0000
0000
0000
0000
0000
0000
0100
0000
0000
0000
0000
0000
0000
0000
,
0001
0100
1000
0001
0100
1000
0001
0010
,
1000
0001
0010
1000
0010
0100
1000
0100
,
0010
0100
1000
0000
0010
0100
0001
0000
0010
0100
1000
0000
0100
0000
0010
0000
,
0001
0100
0010
0000
1000
0100
0010
0000
0001
0100
0010
0000
1000
0000
0010
0000
,
1000
0000
0000
0100
0010
0000
0100
0000
0000
1000
0001
0000
0100
0001
0100
0001
,
0100
0000
0000
0010
1000
0000
0100
0000
0000
0010
0001
0000
0100
0010
0100
0010
,
1000
0001
1000
0001
1000
0100
0010
0001
1000
0001
1000
0001
0100
0001
1000
0010
,
0100
0010
1000
0100
0010
0001
1000
0001
0100
0000
0100
0000
0100
0000
0000
0000
,
1001
0000
0000
0000
;

//--------------- dance-double - forcednature ----------------
#NOTEDATA:;
#STEPSTYPE:dance-double;
#DESCRIPTION:forcednature;
#DIFFICULTY:Easy;
#METER:7;
#RADARVALUES:0,0,0,0,0;
#CREDIT:forcednature;
#NOTES:
00000000
00000000
00000000
00000000
,
00000000
00000000
00000000
00000000
,
00000000
00000000
00000000
00000000
,
00000000
00000000
00000000
00000000
,
00000000
00000000
00000000
00000000
,
00001000
00001000
00001000
00000000
,
01000000
01000000
01000000
00000000
,
00100000
00100000
00100000
00000000
,
00000000
10000000
00000000
10000000
00000000
10000000
00000000
10000000
,
00000000
01000000
01000000
01000000
,
00000000
00100000
00100000
00100000
,
00000000
00001000
00001000
00001000
,
00000000
00010000
00000000
00010000
00000000
00000000
00000000
00000000
,
00000020
00000000
00000030
00000000
,
00000200
00000000
00000300
00000000
,
00000002
00000000
00000003
00000000
,
00002000
00000000
00003000
00000000
,
00000200
00000000
00000300
00000000
,
00020000
00000000
00030000
00000000
,
00001000
00001000
00001000
00000000
,
00010000
00010000
00010000
00000000
,
01000000
00000000
00000000
10000000
00000000
00000000
01000000
00000000
,
00000000
00100000
00000000
00000000
00010000
00000000
00100000
00000000
,
00001000
00001000
00001000
00000000
,
00010000
00010000
00010000
00000000
,
00000010
00001000
00000001
00000100
,
00000001
00001000
00000010
00000000
,
00000100
00000100
00000100
00000000
,
00000001
00000001
00000001
00000000
,
00000010
00000100
00001000
00000010
,
00010000
00001000
00100000
00000000
,
00010000
00010000
00010000
00000000
,
10000000
10000000
10000000
00000000
,
00100000
10000000
00010000
00100000
,
01000000
00010000
00001000
00000000
,
00000010
00000010
00000010
00000000
,
00000100
00000100
00000100
00000000
,
00001000
00000000
00000001
00000000
00001000
00000001
00001000
00000000
,
00000000
00000000
00000010
00000000
00010000
00000100
00010000
00000000
,
00001000
00000000
01000000
00000000
00010000
10000000
00010000
00000000
,
00000000
01100000
00000000
00000000
00000000
00000000
00000000
00000000
,
10000000
00010000
01000000
00010000
,
00100000
00001000
00010000
00000100
,
00001000
00000001
00000100
00000001
,
00001000
00000100
00000010
00000001
,
00000100
00000000
00000100
00000000
00000010
00000100
00000010
00000000
,
00000000
00001000
00000000
00000000
00000001
00001000
00000001
00000000
,
00000100
00000000
00001000
00000000
00010000
00100000
00010000
00000000
,
00000000
00011000
00000000
00000000
00000000
00000000
00000000
00000000
,
01000000
00000000
01100000
10000000
,
00010000
00100000
01000000
00000000
,
00010000
00000000
00011000
00001000
,
00000100
00000001
00001000
00000100
,
00000010
00000000
00000000
00000010
00000000
00000000
00000100
00000000
,
00010000
00000000
00000000
00010000
00000000
00000000
00001000
00000000
,
01000000
00010000
01000000
10000000
,
01000000
00100000
10000000
00000000
,
01000000
00010000
01000000
00100000
,
00001000
00010000
00000010
00000000
,
00000100
00000100
00000100
00000000
,
00000001
00000001
00000001
00000000
,
00000010
00000001
00000100
00001000
,
00010000
01000000
10000000
00100000
,
10000000
10000000
10000000
00000000
,
00010000
00010000
00010000
00000000
,
00100000
01000000
00010000
00001000
,
00000010
00000100
00001000
00000001
,
00000100
00000100
00000100
00000000
,
00000010
00000010
00000010
00000000
,
00000100
00001000
00010000
01000000
,
00100000
00001000
00010000
00100000
,
10000000
10000000
10000000
01000000
,
00010000
00000000
00010000
00000000
00001000
00010000
00001000
00000000
,
00000100
00000000
00000000
00000000
;

//--------------- dance-double - forcednature ----------------
#NOTEDATA:;
#STEPSTYPE:dance-double;
#DESCRIPTION:forcednature;
#DIFFICULTY:Medium;
#METER:11;
#RADARVALUES:0,0,0,0,0;
#CREDIT:forcednature;
#NOTES:
00000000
00000000
00000000
00000000
,
00000000
00000000
00000000
00000000
,
00000000
00000000
00000000
00000000
,
00000000
00000000
00000000
00000000
,
00000000
00000000
00000000
00000000
,
00010000
00000000
00001000
00100000
00010000
00000000
01000000
10000000
,
00100000
00000000
01000000
00001000
00010000
00000000
00000100
00001000
,
00000010
00000000
00000100
00000001
00000010
00000000
00000100
00001000
,
00000000
00001001
00000000
00000110
00000000
00001001
00000000
00000110
,
00000100
00000000
00000001
00000010
00000100
00000000
00010000
00001000
,
01000000
00000000
00010000
00100000
10000000
00000000
00100000
01000000
,
10000000
00000000
00100000
00010000
00001000
00000000
00000100
00000001
,
00000000
00001010
00000000
00000101
00000100
00000100
00000100
00000000
,
00000002
00000000
00000000
00000000
,
00002000
00000003
00000000
00000000
,
00000200
00003000
00000000
00000000
,
00020000
00000300
00000000
00000000
,
00200000
00030000
00000000
00000000
,
00000000
00000000
00000000
00000000
,
10000000
10000000
10000000
10000000
10000000
10000000
00000000
00000000
,
00010000
00010000
00010000
00010000
00010000
00010000
00000000
00000000
,
20300000
00000000
00000000
32000000
00000000
00000000
03020000
00000000
,
00000000
00032000
00000000
00000000
00003020
00000000
00000032
00000000
,
00000100
00000100
00000100
00000100
00000100
00000100
00000000
00000000
,
00000010
00000010
00000010
00000013
00000001
00001000
00000001
00000000
,
00000100
00000001
00000010
00000000
00000100
00000000
00010000
00000000
,
00001000
00100000
00010000
00000000
10000000
00000000
00100000
00000000
,
01000000
10000000
01000000
00000000
00100000
00000000
10000000
00000000
,
01000000
00010000
00001000
00000000
00000010
00000001
00000001
00000001
,
00001000
00000000
00000010
00000100
00001000
00000000
00000100
00000001
,
00000010
00000100
00001000
00000000
00000100
00010000
00000000
00001000
,
01000000
00010000
00100000
10000000
00100000
00000000
01000000
10000000
,
00000000
00100000
00100000
00000000
01000000
00010000
01000000
00000000
,
00010000
00000000
00100000
00001000
00010000
00000000
00000100
00001000
,
00000010
00000100
00000100
00000000
00000001
00000010
00000010
00000001
,
00000100
00000000
00000010
00010000
00001000
00000000
01000000
00100000
,
00100000
10000000
00100000
00000000
10000000
10000000
01000000
10000000
,
00100000
00000000
01000000
00010000
00100000
00100000
00100000
00001000
,
00000000
00011000
00000000
00010000
00000010
00000010
00000010
00000000
,
00000110
00000000
00001001
00000001
00000010
00000010
00000100
00001000
,
00000000
00011000
00001000
00010000
01000000
00100000
01000000
00000000
,
10000000
00100000
00010000
00000000
00100000
00010000
00001000
00000000
,
00001000
00010000
00100000
00000000
00010000
00100000
10000000
00000000
,
10000000
01000000
00010000
00000000
01000000
00010000
00001000
00000000
,
00001000
00010000
01000000
00000000
10000000
10000000
10000000
10000000
,
10100000
00000000
01010000
00000000
00001000
00010000
00001000
00000000
,
00000000
00000110
00000000
00000000
00000001
00001000
00000001
00000000
,
00001100
00000000
00011000
00000000
01000000
00010000
01000000
00000000
,
00000000
01100000
00100000
00100000
10000000
00010000
10000000
00000000
,
11000000
00000000
00000000
01000000
01010000
00000000
00001000
00000000
,
00000010
00000000
00000001
00000000
00001001
00000000
00000000
00000001
,
00000101
00000000
00000000
00001000
00001100
00000000
00010000
00000000
,
00001000
00010000
01000000
10000000
00010000
00000000
10010000
00000000
,
10000000
00000000
00000000
01000000
00000000
00000000
10000000
00000000
00000000
00010000
00000000
00000000
01000000
00000000
00001000
00000000
,
00010000
00000000
00000000
00000100
00000000
00000000
00001000
00000000
00000000
00000001
00000000
00000000
00000100
00000000
00000010
00000000
,
00000100
00000001
00000100
00000010
00000100
00000000
00000001
00000000
,
00001000
00000100
00001000
00000010
00001000
00000001
00001000
00000000
,
00000100
00010000
00001000
01000000
00010000
00000000
01100000
00000000
,
00100000
10000000
01000000
00100000
00010000
00000000
10010000
00000000
,
10000000
01000000
10000000
00010000
01000000
00000000
01001000
00000000
,
00001000
00010000
00000100
00001000
00000001
00000000
00000110
00000000
,
00000001
00000010
00000100
00001000
00000010
00000000
00000110
00000000
,
00000100
00000001
00000010
00000100
00001000
00000000
00001010
00000000
,
00010000
00001000
01000000
00010000
00100000
00000000
01100000
00000000
,
01000000
10000000
01000000
00010000
01000000
01000000
01000000
00000000
,
00110000
00000000
00010000
10000000
00100000
00000000
01000000
00010000
,
00100000
00000000
00001000
00010000
00000010
00000000
00000100
00000000
,
00001001
00000000
00000001
00000010
00001000
00000000
00000010
00000100
,
00010000
00000000
00001000
01000000
00100000
00000000
10010000
00000000
,
10000000
00000000
00000000
00010000
00000000
00000000
01000000
00000000
00000000
00100000
00000000
00000000
01000000
00000000
00010000
00000000
,
00100000
00000000
00000000
00001000
00000000
00000000
00010000
00000000
00000000
00000010
00000000
00000000
00001000
00000000
00000001
00000000
,
00000010
00000100
00000010
00000100
00000010
00000100
00000010
00000000
,
00001000
00000001
00001000
00000001
00001000
00001000
00001000
00000000
,
00000100
00000000
00000000
00000000
;

//--------------- dance-double - forcednature ----------------
#NOTEDATA:;
#STEPSTYPE:dance-double;
#DESCRIPTION:forcednature;
#DIFFICULTY:Hard;
#METER:15;
#RADARVALUES:0,0,0,0,0;
#CREDIT:forcednature;
#NOTES:
00000000
00000000
00000000
00000000
,
00000000
00000000
00000000
00000000
,
00000000
00000000
00000000
00000000
,
00000000
00000000
00000000
00000000
,
00000000
00000000
00000000
00000000
00001000
00010000
00011000
00000000
,
00001000
00100000
01000000
00010000
00000000
01000000
10000000
00010000
,
00000000
00100000
00001000
00010000
00000000
00000010
00010000
00001000
,
00000000
00000010
00000001
00000100
00000000
00000010
00001000
00000100
,
00000000
00000110
00000000
00000011
00000000
00000110
00000000
00001100
,
00000000
00001000
00000100
00010000
00001000
00100000
00010000
00100000
,
00000000
00001000
00010000
00000010
00001000
00000010
00010000
00001000
,
00000000
00000010
00000100
00001000
00000001
00000100
00001000
00010000
,
00000000
00011000
00000000
00011000
00000000
00000000
00000000
00000000
,
00002000
00000000
00000000
00003000
,
00200000
00000000
00000000
00300000
,
00020000
00000000
00000000
00030000
,
20000000
00000000
00000000
30000000
,
00200000
00000000
00000000
00000000
,
00000000
00000000
00000000
00300000
,
01000000
00001000
00010000
00000010
00010000
00001000
00000000
00000000
,
00000100
00010000
00001000
00100000
00001000
00010000
00000000
00000000
,
00100000
00000000
00000000
10000000
00000000
00000000
01000000
00000000
,
00000000
00010000
00000000
00000000
00001000
00000000
00000010
00000000
,
00000100
00010000
00001000
00100000
00001000
00010000
00000000
00000000
,
00000010
00000010
00002002
00003003
,
00000001
00000000
00000100
00000000
00000010
00000100
00000010
00000000
00000100
00000000
00000010
00000000
00001000
00000000
00000100
00000000
,
00010000
00000000
00001000
00000000
01000000
00010000
01000000
00000000
00010000
00000000
10000000
00000000
00100000
00000000
10000000
00000000
,
00010000
00100000
00010000
00000000
00100000
01000000
00100000
00000000
01000000
10000000
01000000
00000000
10000000
00000000
00010000
00000000
,
00100000
00001000
00100000
00000000
00001000
00010000
00001000
00000000
00010000
00000000
00000010
00000000
00000010
00000000
00000010
00000000
,
00000000
00000100
00001000
00010000
00000000
01000000
00010000
00011000
,
00000000
00100000
10010000
00000000
10000000
01000000
00010000
01000000
,
00100000
00010000
00100000
00000000
00001000
00010000
00001000
00000000
01000000
00010000
01000000
00000000
00001000
00000000
00010000
00000000
,
00000010
00001000
00000010
00000000
00010000
00001000
00010000
00000000
00000200
00000000
00000000
00000000
00000000
00000000
00000300
00000000
,
00001000
00000000
00000001
00000000
00000010
00000000
00000100
00000010
00000000
00000000
00000100
00000000
00001000
00000000
00000100
00010000
,
00000000
00000000
00001000
00000000
00001000
00000000
00010000
00001000
00000000
00000000
01000000
00000000
00010000
00000000
01000000
00000000
,
00100000
10000000
00100000
00000000
10000000
01000000
10000000
00000000
00100000
10000000
00100000
00000000
01000000
00000000
00001000
00000000
,
00010000
00000100
00010000
00000000
00000100
00001000
00000100
00000000
00010000
00000000
00001000
00000000
00001000
00000000
00001000
00000000
,
00101000
00000000
00000000
00000000
01001000
00000000
00000000
00000000
00001000
00000000
00010000
00000000
00001000
00010000
00000000
00000000
,
00000010
00000000
00001010
00000000
00000000
00000000
00010000
00000000
00001000
00000000
00010000
00000000
00001000
00010000
00000000
00000000
,
00010100
00000000
00000000
00000000
00101000
00000000
00000000
00000000
00001000
00000000
00010000
00000000
00001000
00010000
00000000
00000000
,
00000010
00001010
00000000
00000001
00000200
00002300
00003200
00000300
,
00001000
00010000
00100000
01000000
00001000
00010000
00100000
01000000
,
00001000
00010000
01000000
00100000
00001000
00010000
01000000
00100000
,
00010000
00100000
00010000
00000000
00100000
00001000
00100000
00000000
00001000
00010000
00001000
00000000
00010000
00000000
00000010
00000000
,
00001000
00000100
00001000
00000000
00000100
00000010
00000100
00000000
00000010
00000001
00000010
00000000
00000001
00000000
00000010
00000000
,
00000011
00000000
00000000
00000000
00000101
00000000
00000000
00000000
00000100
00000000
00001000
00000000
00010000
00001000
00000000
00000000
,
00010000
00000000
00100000
00000000
00010000
00000000
00000000
00000000
00100000
00000000
10000000
00000000
00100000
10000000
00000000
00000000
,
01000000
00000000
10000000
00000000
01000000
00000000
00010000
00000000
00001000
00000000
00010000
00000000
00001000
00010000
00000000
00000000
,
00001000
00000010
00000001
00000000
00000100
00000010
00000110
00000000
,
00001002
00000000
00000000
00000103
00001000
00000000
00010000
00000000
,
01000000
00000000
10000000
00000000
10100000
00000000
00000000
00010000
,
20010000
00000000
00000000
31000000
00010000
00000000
00001000
00000000
,
00000010
00000100
00000010
00000100
00000010
00000000
00001001
00000000
,
00000001
00000000
00000000
00000100
00000000
00000000
00001000
00000000
00000000
00010000
00000000
00000000
00001000
00010000
00001000
00010000
,
00001000
00000000
00000000
00010000
00000000
00000000
00100000
00000000
00000000
10000000
00000000
00000000
00010000
10000000
00010000
10000000
,
00010000
00100000
01000000
00010000
00001000
00000010
00000100
00001000
,
00000001
00001000
00000001
00001000
00000001
00001000
00000001
00001000
00000020
00000000
00000000
00000000
00000030
00000000
00000000
00000000
,
00000100
00001000
00010000
00000000
00011000
00000000
00101000
00000000
,
00100000
00010000
10000000
00000000
10100000
00000000
01100000
00000000
,
00100000
10000000
00100000
00000000
10000000
01000000
10000000
00000000
00100000
10000000
00100000
00000000
10000000
00000000
01000000
00000000
,
00100000
00010000
00100000
00000000
00001000
00010000
00001000
00000000
00100000
00010000
00100000
00000000
00001000
00000000
00010000
00000000
,
00000010
00001000
00000100
00000000
00001001
00000000
00000011
00000000
,
00000001
00000100
00001000
00000000
00011000
00000000
00010010
00000000
,
00010000
00001000
00010000
00000000
00000100
00001000
00000100
00000000
00010000
00001000
00010000
00000000
00001000
00000000
01000000
00000000
,
00000000
00000000
00000000
01010000
00000000
00000000
00000000
00000000
00000000
00110000
00000000
00000000
00200000
00000000
00000000
00000000
02300000
00000000
00000000
00000000
03200000
00000000
00000000
00000000
,
00310000
00000000
00100000
00000000
00001000
00010000
00000100
00000000
00001000
00000000
00000100
00001000
00000100
00000000
00000010
00000000
,
00000001
00000000
00000100
00000000
00000001
00000100
00000010
00000000
00000100
00000000
00000010
00001000
00000010
00000000
00010000
00000000
,
00001000
00000000
00100000
00000000
00001000
00100000
00010000
00000000
00100000
00000000
00010000
00100000
01000000
00000000
10000000
00000000
,
00010000
00000000
01000000
00000000
00001000
00010000
00001000
00000000
00010000
00000000
00000010
00001000
00000010
00000000
00000000
00000000
,
00000100
00000001
00000000
00000100
00000001
00000000
00000010
00000001
00000000
00000010
00000001
00000000
00000010
00000000
00001000
00000000
,
00010000
00001000
00000000
00010000
00001000
00000000
01000000
00010000
00000000
01000000
00010000
00000000
00100000
00000000
00001000
00000000
,
00010000
00001000
00010000
00000000
00001000
00010000
00001000
00000000
00010000
00001000
00010000
00000000
00000100
00000000
00001000
00000000
,
00000001
00000010
00000001
00000010
00000100
00000010
00000100
00000010
00000100
00000000
00010000
00000000
00001000
00000000
00000000
00000000
,
00011000
00000000
00000000
00000000
;

//--------------- dance-double - forcednature ----------------
#NOTEDATA:;
#STEPSTYPE:dance-double;
#DESCRIPTION:forcednature;
#DIFFICULTY:Challenge;
#METER:16;
#RADARVALUES:0,0,0,0,0;
#CREDIT:forcednature;
#NOTES:
00000000
00000000
00000000
00000000
,
00000000
00000000
00000000
00000000
,
00000000
00000000
00000000
00000000
,
00000000
00000000
00000000
00000000
,
00000000
00000000
00000000
00000000
00010000
00001000
00011000
00000000
,
00010000
01000000
10000000
10100000
00000000
00100000
00010000
00100000
,
00000000
10000000
01000000
01010000
00000000
00010000
00001000
00100000
,
00000000
00001000
00010000
00010010
00000000
00010000
00001000
00101000
,
00000000
00010100
00000000
00000110
00000000
00010100
00000000
00000110
,
00000000
00000010
00000001
00000101
00000000
00000100
00001000
00011000
,
00000000
00010000
00100000
10100000
00000000
10000000
01000000
01010000
,
00000000
00010000
00001000
00001010
00000000
00000010
00000001
00000101
,
00000000
00001010
00000000
00001010
00000000
00000000
00000000
00000000
,
00000002
00000000
00000000
00000000
,
00000023
00000000
00000000
00000000
,
00002030
00000000
00000000
00000000
,
00023000
00000000
00000000
00000000
,
02030000
00000000
00000000
00000000
,
00000000
00000000
00000000
03000000
,
00010000
00001000
00100000
00000000
00010000
00100000
00001000
00000000
00010000
00001000
00100000
00000000
00000000
00000000
00000000
00000000
,
00001000
00010000
00000010
00000000
00001000
00000010
00010000
00000000
00001000
00010000
00000010
00000000
00000000
00000000
00000000
00000000
,
00002000
00000000
00000000
00003200
00000000
00000000
00020300
00000000
,
00000000
00032000
00000000
00000000
02003000
00000000
03020000
00000000
,
00130000
00001000
00010000
00000000
00001000
00100000
00010000
00000000
00100000
00001000
00010000
00000000
00000000
00000000
00000000
00000000
,
00000010
00010000
00001000
00000000
00010000
00000010
00001000
00000000
00000100
00000000
00000010
00000000
00000110
00000000
00000000
00000000
,
00000100
00001000
00000100
00000000
00010000
00001000
00000000
00100000
00010000
00000000
00100000
00001000
00000000
00010000
00001000
00000000
,
01000000
00010000
01000000
00000000
00001000
00010000
00000000
00000010
00001000
00000000
00000010
00010000
00000000
00001000
00010000
00000000
,
00000100
00001000
00000100
00000000
00000010
00000001
00000010
00000000
00000100
00001000
00000100
00000000
00010000
00000000
00001000
00000000
,
01000000
00010000
01000000
00000000
00100000
10000000
00100000
00000000
01000000
00000000
01010000
00000000
01010000
00000000
01010000
00000000
,
00000000
00000000
00010000
10000000
00100000
00000000
10100000
00000000
00000000
00000000
10000000
01000000
00100000
00000000
01100000
00000000
,
00000000
00000000
00100000
00001000
00010000
00000000
00000100
00000000
00010000
00000000
00001000
00010000
00000010
00000000
00001000
00000010
,
00000100
00000001
00000100
00000000
00000010
00001000
00000010
00000000
00000100
00000001
00000100
00000000
00000010
00000000
00010000
00000000
,
00001000
00100000
00001000
00000000
00010000
00000100
00010000
00000000
00022000
00000000
00000000
00000000
00000000
00000000
00033000
00000000
,
00001000
00000000
00010000
00000000
01000000
00000000
10000000
01000000
00100000
00000000
01000000
00000000
00100000
00000000
00010000
00100000
,
00001000
00000000
00010000
00000010
00001000
00000000
00000010
00000000
00010000
00000000
00001000
00000010
00000001
00000000
00000010
00000001
,
00001000
00000100
00010000
00000000
00001000
00010000
00000100
00000000
00001000
00000100
00010000
00000000
00001000
00000000
01000000
00000000
,
00010000
00100000
00001000
00000000
00010000
00001000
00100000
00000000
00010000
00100000
00001000
00000000
00010000
00000000
00100000
00000000
,
10100000
00000000
00000000
00000000
11000000
00000000
00000000
00000000
01000000
00000000
00010000
00000000
00001000
00000010
00000000
00000000
,
00000001
00000000
00001001
00000000
00001000
00000000
00000000
00000000
00000001
00000000
00000100
00000000
00001000
00010000
00000000
00000000
,
00010100
00000000
00000000
00000000
00101000
00000000
00000000
00000000
00000100
00000000
00010000
00000000
00001000
00100000
00000000
00000000
,
00001000
00011000
00000000
01000000
00200000
00320000
00032000
00003000
,
00010000
00000000
00000100
00000000
00001000
00000000
00000100
00010000
00001000
00000000
01000000
00000000
00010000
00000000
01000000
00001000
,
00010000
00000000
00000010
00000000
00001000
00000000
00000010
00010000
00001000
00000000
00100000
00000000
00010000
00000000
00100000
00001000
,
00010000
00000100
00010000
00000000
00001000
01000000
00001000
00000000
00010000
00000100
00010000
00000000
00001000
00000000
00010000
00000000
,
00001000
00100000
00001000
00000000
00010000
00000010
00010000
00000000
00001000
00100000
00001000
00000000
00010000
00000000
00100000
00000000
,
10100000
00000000
00000000
00000000
11000000
00000000
00000000
00000000
01000000
00000000
00010000
00000000
00001000
00000010
00000000
00000000
,
00000001
00000000
00001001
00000000
00000000
00000000
00000001
00000000
00000100
00000000
00001000
00000000
00010000
00100000
00000000
00000000
,
01000000
00010000
01000000
00000000
00001000
00010000
00001000
00000000
01000000
00010000
01000000
00000000
00001000
00000000
00010000
00000000
,
00000100
00001000
00000100
00000000
00010000
00001000
00010000
00000000
00000010
00000000
00001000
00000000
00001010
00000000
00000000
00000000
,
00000001
00000000
00000100
00010000
01000000
00000000
01010000
00000000
,
10000000
01000000
00010000
00000000
00101000
00000000
00100000
00010000
,
10000000
00000000
01000000
00010000
00000100
00000000
00001100
00000000
,
00000001
00000100
00001000
00000100
00000001
00000000
00000011
00000000
,
00000010
00000100
00000000
00001000
00000100
00000000
00010000
00001000
00000000
00100000
00010000
00000000
00100000
00010000
00100000
00001000
,
00010000
00001000
00000000
01000000
00010000
00000000
01000000
00001000
00000000
00010000
00001000
00000000
00010000
00000100
00001000
00000100
,
00010000
00001000
00010000
00001000
01000000
00010000
01000000
00010000
10000000
00100000
10000000
00100000
10000000
00010000
10000000
00010000
,
00100000
01000000
00100000
01000000
00100000
01000000
00100000
01000000
00000000
00000000
00000000
00000000
00000000
00000000
00000000
00000000
,
10000000
01000000
10000000
00000000
00010000
00100000
00000000
01000000
00100000
00000000
00010000
00100000
00000000
00001000
00010000
00000000
,
00000010
00001000
00000010
00000000
00000100
00000001
00000000
00001000
00000001
00000000
00000010
00000100
00000000
00001000
00000100
00000000
,
00010000
00001000
00010000
00000000
00000010
00001000
00000010
00000000
00010000
00001000
00010000
00000000
00000100
00000000
00001000
00000000
,
00010000
00100000
00010000
00000000
00100000
01000000
00100000
00000000
00010000
00100000
00010000
00000000
10000000
00000000
00100000
00000000
,
10000000
01000000
10000000
00000000
00010000
00100000
00000000
01000000
00100000
00000000
00001000
00010000
00000000
00000100
00001000
00000000
,
00000010
00000100
00000010
00000000
00001000
00000010
00000000
00010000
00001000
00000000
00100000
00010000
00000000
00100000
01000000
00000000
,
00100000
00010000
00100000
00000000
00001000
00010000
00001000
00000000
00100000
00010000
00100000
00000000
00001000
00000000
00010000
00000000
,
00000010
00001000
00000010
00000000
00010000
00001000
00010000
00000000
00000200
00000000
00000000
00000000
00000000
00000000
00000000
00000000
,
00001300
00000000
00000001
00000010
00000100
00000000
00000010
00000000
00000001
00001000
00000100
00000000
00010000
00000000
00001000
00100000
,
00010000
00000000
00100000
00000000
00001000
00010000
00000100
00000000
00010000
00001000
00100000
00010000
00100000
00000000
00000000
00000000
,
00010000
00000000
10000000
00100000
01000000
00000000
00100000
00000000
10000000
00010000
01000000
00000000
00001000
00000000
00010000
00000010
,
00001000
00000000
00000010
00000000
00010000
00001000
01000000
00000000
00001000
00010000
00000010
00001000
00000010
00000000
00000000
00000000
,
00000100
00000001
00000000
00000010
00000001
00000000
00000100
00000001
00000000
00000010
00000001
00000000
00000010
00000100
00001000
00000000
,
00000100
00010000
00000000
00001000
00010000
00000000
00000010
00010000
00000000
00001000
00010000
00000000
00001000
00100000
00010000
00000000
,
10000000
00100000
10000000
00100000
01000000
00100000
01000000
00100000
10000000
00010000
10000000
00010000
01000000
00010000
01000000
00010000
,
01000000
00001000
00010000
00001000
00100000
00010000
00100000
00001000
00010000
00000000
00001000
00000000
00011000
00000000
00000000
00000000
,
00000010
00000000
00000000
00000000
;
