#VERSION:0.83;
#TITLE:西日暮里の踊り;
#SUBTITLE:;
#ARTIST:家の裏でマンボウが死んでるP;
#TITLETRANSLIT:Nishinippori no odori;
#SUBTITLETRANSLIT:;
#ARTISTTRANSLIT:Ie no Uchi de Manbou ga ShinderuP;
#GENRE:;
#CREDIT:;
#MUSIC:Nishinippori no odori.ogg;
#BANNER:Nishinippori no odori.png;
#BACKGROUND:Nishinippori no odori-bg.png;
#CDTITLE:./CDTitles/SDVX BOOTH.png;
#SAMPLESTART:1.188;
#SAMPLELENGTH:15.000;
#SELECTABLE:YES;
#OFFSET:0.499;
#BPMS:0.000=140.000;
#STOPS:;
#BGCHANGES:0.000=../BGAs/06hy.mp4=1.000=0=0=0=StretchNoLoop====,
99999.000=-nosongbg-=1.000=0=0=0=StretchNoLoop====
;
#FGCHANGES:;

//--------------- dance-single - forcednature ----------------
#NOTEDATA:;
#STEPSTYPE:dance-single;
#DESCRIPTION:forcednature;
#DIFFICULTY:Beginner;
#METER:1;
#RADARVALUES:0,0,0,0,0;
#OFFSET:0.499;
#BPMS:0.000=140.000;
#CREDIT:forcednature;
#NOTES:
0000
0000
0000
0000
,
0000
0000
0000
0000
,
0000
0000
0000
0000
,
0000
0000
0000
0000
,
0000
0000
0000
0000
,
1000
0000
0000
0000
,
0000
0000
0000
0000
,
0000
0000
0000
0000
,
0001
0000
0000
0000
,
0000
0000
0000
0000
,
0000
0000
0000
0000
,
0100
0000
0000
0000
,
0000
0000
0000
0000
,
0000
0000
0000
0000
,
0000
0000
0000
0000
,
0010
0000
0000
0000
,
0000
0000
0000
0000
,
0000
0000
0000
0000
,
0000
0000
0000
0000
,
1000
0000
0000
0000
,
0000
0000
0000
0000
,
0000
0000
0000
0000
,
0000
0000
0000
0000
,
0001
0000
0000
0000
,
0000
0000
0000
0000
,
0000
0000
0000
0000
,
0000
0000
0000
0000
,
0010
0000
0000
0000
,
0000
0000
0000
0000
,
0000
0000
0000
0000
,
0000
0000
0000
0000
,
0100
0000
0000
0000
,
0000
0000
0000
0000
,
0000
0000
0000
0000
,
0000
0000
0000
0000
,
1000
0000
0000
0000
,
0000
0000
0000
0000
,
0000
0000
0000
0000
,
0000
0000
0000
0000
,
0001
0000
0000
0000
,
0000
0000
0000
0000
,
0000
0000
0000
0000
,
0000
0000
0000
0000
,
0100
0000
0000
0000
,
0000
0000
0000
0000
,
0000
0000
0000
0000
,
0000
0000
0000
0000
,
0010
0000
0000
0000
,
0000
0000
0000
0000
,
0000
0000
0000
0000
,
0000
0000
0000
0000
,
1000
0000
0000
0000
,
0000
0000
0000
0001
;

//--------------- dance-single - forcednature ----------------
#NOTEDATA:;
#STEPSTYPE:dance-single;
#DESCRIPTION:forcednature;
#DIFFICULTY:Easy;
#METER:4;
#RADARVALUES:0,0,0,0,0;
#OFFSET:0.499;
#BPMS:0.000=140.000;
#CREDIT:forcednature;
#NOTES:
0000
0000
0000
0000
,
0000
0000
0000
0000
,
0000
0000
0000
0000
,
0000
0000
0000
0000
,
0000
0000
0000
0000
,
1000
0000
0001
0000
,
0100
0000
0010
0000
,
1000
0000
0001
0000
,
0100
0000
0010
0000
,
1000
0000
0000
0000
,
0001
0000
0010
0000
,
0001
0000
1000
0000
,
0100
0000
0010
0000
,
0001
0000
1000
0000
,
0100
0000
0010
0000
,
0001
0000
1000
0000
,
0010
0000
0100
0000
,
0001
0000
1000
0000
,
0010
0000
0100
0000
,
0001
0000
0010
0000
,
0100
0000
1000
0000
,
0001
0000
0010
0000
,
0100
0000
1000
0000
,
1001
0000
0001
0000
,
0100
0000
0001
0000
,
1001
0000
1000
0000
,
0100
0000
1000
0000
,
0010
0000
0010
0000
,
0010
0000
0010
0010
,
0100
0000
0100
0100
,
0010
0010
0010
0000
,
1000
1000
1000
0000
,
0001
0001
0001
1000
,
1000
0000
0010
0010
,
0010
0100
0100
0100
,
0001
0000
1000
0001
,
1000
0000
0100
0000
,
1000
0000
0001
1000
,
0001
0000
0100
0000
,
0001
0000
1000
0001
,
1000
0000
0010
0000
,
1000
0000
0001
1000
,
0001
0000
0010
0000
,
0001
1000
0001
1000
,
0001
0000
0001
0000
,
1000
0001
1000
0001
,
1000
0000
1000
0000
,
0010
0100
0010
0100
,
0010
0000
0010
0000
,
0100
0010
0100
0010
,
0100
0000
0100
0000
,
1001
0000
1000
0000
,
0100
0000
0000
0110
;

//--------------- dance-single - forcednature ----------------
#NOTEDATA:;
#STEPSTYPE:dance-single;
#DESCRIPTION:forcednature;
#DIFFICULTY:Medium;
#METER:8;
#RADARVALUES:0,0,0,0,0;
#OFFSET:0.499;
#BPMS:0.000=140.000;
#CREDIT:forcednature;
#NOTES:
0000
0000
0000
0000
,
0000
0000
0000
0000
,
0000
0000
0000
0000
,
0000
0000
0000
0000
,
0000
0000
0000
0000
,
1000
1000
0001
0001
,
0100
0010
0110
1001
,
0001
0001
1000
1000
,
0100
0010
0110
1001
,
1000
0000
0001
0001
,
0100
0000
0010
0000
1000
0001
1000
0000
,
0001
1000
0001
1000
,
0010
0100
0010
0000
0100
0000
1001
0000
,
1000
0001
1000
0001
,
0010
0100
0010
0000
0100
0000
1001
0000
,
0001
1000
0001
1000
,
0100
0010
0100
0000
0010
0000
1001
0000
,
1000
0001
1000
0001
,
0100
0010
0100
0000
0010
0000
1001
0000
,
1000
1000
0100
0000
0001
0000
0100
0000
,
1000
0001
1000
0000
0010
0000
1001
0000
,
0001
0100
1000
0100
,
0001
1000
0001
0000
0010
0000
1001
0000
,
1000
0010
0001
0010
,
0100
0010
0100
0000
0010
0000
1001
0000
,
0001
0010
1000
0010
,
0100
0010
0100
0000
0010
0000
1001
0000
,
1000
1000
0001
0001
,
0100
0000
0100
0000
0010
0100
0010
0000
,
1000
0000
1000
0000
0100
0010
0100
0000
,
1000
0000
0010
0100
0010
0000
1000
0000
,
0100
0010
0100
0000
1000
0000
1000
0000
,
0001
0000
0100
0010
0100
0000
0010
0100
,
0010
0000
1000
0000
1000
0000
0100
0010
,
0100
0000
0110
0000
0001
1000
0001
0000
,
1000
0100
0001
0100
,
0010
0001
0010
0000
0100
0000
1001
0000
,
0001
0100
1000
0100
,
0010
1000
0010
0000
0100
0000
1001
0000
,
1000
0010
0001
0010
,
0100
0001
0100
0000
0010
0000
1001
0000
,
0001
0010
1000
0010
,
0100
1000
0100
0000
0010
0000
1001
0000
,
1000
1001
0001
1001
,
0100
0010
0100
0000
0010
0000
0110
0000
,
0001
1001
1000
1001
,
0100
0010
0100
0000
0010
0000
0110
0000
,
1000
1001
0001
1001
,
0010
0100
0010
0000
0100
0000
0110
0000
,
0001
1001
1000
1001
,
0010
0100
0010
0000
0100
0000
0110
0000
,
1001
0000
1000
0000
0100
0010
0100
0000
,
1000
0000
0000
0001
0000
0000
0000
0100
0000
0000
0010
0000
0010
0000
0000
0000
;

//--------------- dance-single - forcednature ----------------
#NOTEDATA:;
#STEPSTYPE:dance-single;
#DESCRIPTION:forcednature;
#DIFFICULTY:Hard;
#METER:14;
#RADARVALUES:0,0,0,0,0;
#OFFSET:0.499;
#BPMS:0.000=140.000;
#CREDIT:forcednature;
#NOTES:
0000
0000
0000
0000
,
0000
0000
0000
0000
,
0000
0000
0000
0000
,
0000
0000
0000
0000
,
0000
0000
0000
0000
,
2000
3000
0002
0003
2000
3000
0002
0003
,
1000
0010
0001
0000
0110
0000
1001
0000
,
0002
0003
2000
3000
0002
0003
2000
3000
,
0001
0010
1000
0000
0110
0000
1001
0000
,
0002
0000
0103
0100
0001
0001
0100
0010
,
2000
0000
0000
0000
3100
0000
0100
0000
0010
0001
0010
0000
0001
0010
0001
0000
,
2000
3010
0002
0013
2000
3010
0002
0013
,
0100
0001
1000
0000
0100
0000
0000
0000
0110
0000
0000
0000
1001
0000
0000
0000
,
0002
0013
2000
3010
0002
0013
2000
3010
,
0100
1000
0001
0000
0100
0000
0000
0000
0110
0000
0000
0000
1001
0000
0000
0000
,
2000
3100
0002
0103
2000
3100
0002
0103
,
0010
0001
1000
0000
0010
0000
0000
0000
0110
0000
0000
0000
1001
0000
0000
0000
,
0002
0103
2000
3100
0002
0103
2000
3100
,
0010
1000
0001
0000
0010
0000
0000
0000
0110
0000
0000
0000
1001
0000
0000
0000
,
1000
0010
1000
0000
1010
0000
0000
0000
0001
0010
0001
0000
0011
0000
0000
0000
,
0001
0100
1000
0000
0110
0000
1001
0000
,
0001
0010
0001
0000
0011
0000
0000
0000
1000
0010
1000
0000
1010
0000
0000
0000
,
1000
0100
0001
0000
0110
0000
1001
0000
,
1200
0001
1000
0001
,
1300
0100
0001
1000
0010
0000
1001
0000
,
0001
0100
0001
0000
0101
0000
0000
0000
1000
0100
1000
0000
1100
0000
0000
0000
,
0001
0010
1000
0000
0110
0000
1001
0000
,
1010
1010
0101
0101
,
1010
0000
0000
0000
1010
0000
0000
0000
0001
0010
0100
1000
0001
0000
0000
0000
,
0011
0000
0000
0000
0011
0000
0000
0000
1000
0010
0100
0001
1000
0000
0000
0000
,
1100
0000
0000
0000
0001
0010
0100
1000
0001
0000
0000
0000
1010
0000
0000
0000
,
1000
0010
0100
0001
1000
0000
0000
0000
0011
0000
0000
0000
1100
0000
0000
0000
,
0011
0000
0000
0000
1000
0010
0100
0001
1000
0000
0000
0000
0001
0010
0100
1000
,
0001
0000
0000
0000
0101
0000
0000
0000
1010
0000
0000
0000
1000
0001
0100
0010
,
1000
0000
0000
0000
1001
0000
0000
0000
0001
1000
0001
1000
0010
0100
0010
0100
,
0002
0000
0013
0100
2000
0000
3100
0010
0002
0000
0013
0100
2000
0000
3000
0000
,
0001
0100
1000
0000
0110
0000
1001
0000
,
2000
0000
3010
0100
0002
0000
0103
0010
2000
0000
3010
0100
0002
0000
0003
0000
,
1000
0100
0001
0000
0110
0000
1001
0000
,
2000
0000
3100
0010
0002
0000
0013
0100
2000
0000
3100
0010
0002
0000
0003
0000
,
1000
0010
0001
0000
0110
0000
1001
0000
,
0002
0000
0103
0010
2000
0000
3010
0100
0002
0000
0103
0010
2000
0000
3000
0000
,
0001
0010
1000
0000
0110
0000
1001
0000
,
1000
0100
1000
0000
0100
0010
0100
0000
0010
0001
0010
0000
0100
0010
0100
0000
,
1000
0010
0001
0000
0110
0000
1001
0000
,
0001
0100
0001
0000
0100
0010
0100
0000
0010
1000
0010
0000
0100
0010
0100
0000
,
0001
0010
1000
0000
0110
0000
1001
0000
,
1000
0001
0010
0000
0001
1000
0010
0000
1000
0001
0100
0000
0001
1000
0100
0000
,
1000
0010
0001
0000
0110
0000
1001
0000
,
0001
1000
0010
0000
1000
0001
0010
0000
0001
1000
0100
0000
1000
0001
0100
0000
,
0001
0000
0010
0000
1000
0000
0000
0000
0110
0000
0000
0000
0001
1000
0001
1000
,
0010
0000
0000
0000
0100
0000
0001
0000
0010
0000
0100
0000
0100
1000
0100
1000
,
0001
0100
0010
1000
0000
0100
0000
0110
0000
0000
1001
0000
1001
0000
0000
0000
;

//--------------- dance-single - forcednature ----------------
#NOTEDATA:;
#STEPSTYPE:dance-single;
#DESCRIPTION:forcednature;
#DIFFICULTY:Challenge;
#METER:12;
#RADARVALUES:0,0,0,0,0;
#OFFSET:0.499;
#BPMS:0.000=140.000;
#STOPS:44.000=0.214
,44.500=0.214
,45.000=0.214
,45.500=0.215
,50.000=0.214
,50.500=0.215
,51.000=0.214
,51.500=0.215
,56.000=0.214
,56.500=0.214
,57.000=0.214
,57.500=0.214
,62.000=0.214
,62.500=0.215
,63.000=0.214
,63.500=0.215
,68.000=0.214
,68.500=0.214
,69.000=0.214
,69.500=0.214
,74.000=0.214
,74.500=0.215
,75.000=0.214
,75.500=0.215
,80.000=0.214
,80.500=0.214
,81.000=0.214
,81.500=0.215
,86.000=0.214
,86.500=0.214
,87.000=0.214
,87.500=0.215
,92.000=0.214
,92.500=0.214
,93.000=0.215
,93.500=0.214
,94.000=0.214
,94.500=0.215
,96.000=0.214
,96.500=0.214
,97.000=0.215
,98.500=0.214
,99.000=0.215
,100.500=0.214
,101.000=0.213
,102.500=0.214
,103.000=0.215
,103.500=0.214
,104.000=0.215
,105.500=0.214
,107.000=0.214
,107.500=0.214
,108.000=0.215
,109.500=0.215
,113.000=0.214
,113.500=0.214
,114.000=0.214
,114.500=0.215
,119.000=0.214
,119.500=0.214
,120.000=0.214
,120.500=0.214
,125.000=0.214
,125.500=0.215
,126.000=0.214
,126.500=0.215
,131.000=0.214
,131.500=0.214
,132.000=0.214
,132.500=0.215
,137.000=0.214
,137.500=0.214
,138.000=0.214
,138.500=0.215
,143.000=0.214
,143.500=0.215
,144.000=0.214
,144.500=0.215
,149.000=0.214
,149.500=0.214
,150.000=0.214
,150.500=0.214
,155.000=0.214
,155.500=0.215
,156.000=0.214
,156.500=0.215
;
#CREDIT:forcednature;
#NOTES:
0000
0000
0000
0000
,
0000
0000
0000
0000
,
0000
0000
0000
0000
,
0000
0000
0000
0000
,
0000
0000
0000
0000
,
1000
1000
0001
0001
,
0100
0010
0100
0000
MMMM
0000
1001
0000
,
0001
0001
1000
1000
,
0100
0010
0100
0000
MMMM
0000
1001
0000
,
0020
0000
0000
0030
,
0200
0000
0000
0300
0010
0100
0010
0100
,
0001
1000
0001
1000
0100
0010
0100
0000
,
MMMM
0000
1001
0000
1000
0001
1000
0001
,
0100
0010
0100
0000
MMMM
0000
1001
0000
,
0010
0100
0010
0100
0001
1000
0001
0000
,
MMMM
0000
1001
0000
0010
0100
0010
0100
,
1000
0001
1000
0000
MMMM
0000
1001
0000
,
0010
1001
0100
1001
1000
0010
0100
0000
,
MMMM
0000
1001
0000
0100
1001
0010
1001
,
0001
0010
0100
0000
MMMM
0000
1001
0000
,
1010
1010
0101
0101
0001
0010
0100
1000
,
0100
0000
1001
0000
0011
0011
1100
1100
,
1000
0010
0100
0000
MMMM
0000
1001
0000
,
1000
0001
1000
0001
1000
0001
0200
0310
,
1000
0001
1000
0200
0310
0001
1000
0020
,
0130
0001
1000
0200
0310
0001
1000
0001
,
1000
0020
0130
0001
0020
0130
1000
0001
,
1000
0020
0130
0001
0220
0330
0020
0130
,
0020
0130
1001
0100
1001
0010
1000
0100
,
0001
0000
MMMM
0000
1001
0000
1001
0100
,
1001
0010
0001
0100
1000
0000
MMMM
0000
,
1001
0000
1010
0100
0011
0100
0001
0010
,
1000
0000
MMMM
0000
1001
0000
0011
0100
,
1010
0100
1000
0010
0001
0000
MMMM
0000
,
1001
0000
0101
1100
0101
1100
0001
0010
,
1000
0000
MMMM
0000
1001
0000
1100
0101
,
1100
0101
1000
0010
0001
0000
MMMM
0000
,
1001
0000
1010
1100
0011
0101
1000
0100
,
0001
0000
MMMM
0000
1001
0000
0011
0101
,
1010
1100
0001
0100
1000
0000
MMMM
0000
,
1001
0000
0110
0000
0001
0010
0100
1000
,
0010
0000
0000
0000
0100
0000
0000
0001
0000
0001
0000
0010
0000
0000
0100
0000
,
1001
0000
0000
0000
;

//--------------- dance-double - forcednature ----------------
#NOTEDATA:;
#STEPSTYPE:dance-double;
#DESCRIPTION:forcednature;
#DIFFICULTY:Easy;
#METER:1;
#RADARVALUES:0,0,0,0,0;
#CREDIT:forcednature;
#NOTES:
00000000
00000000
00000000
00000000
,
00000000
00000000
00000000
00000000
,
00000000
00000000
00000000
00000000
,
00000000
00000000
00000000
00000000
,
00000000
00000000
00000000
00000000
,
00001000
00000000
00000000
00000000
,
00000000
00000000
00000000
00000000
,
00010000
00000000
00000000
00000000
,
00000000
00000000
00000000
00000000
,
00000000
00000000
00000000
00000000
,
00000000
00000000
00000000
00000000
,
00000100
00000000
00000000
00000000
,
00000000
00000000
00000000
00000000
,
00000010
00000000
00000000
00000000
,
00000000
00000000
00000000
00000000
,
00000001
00000000
00000000
00000000
,
00000000
00000000
00000000
00000000
,
00001000
00000000
00000000
00000000
,
00000000
00000000
00000000
00000000
,
00000010
00000000
00000000
00000000
,
00000000
00000000
00000000
00000000
,
00010000
00000000
00000000
00000000
,
00000000
00000000
00000000
00000000
,
00001000
00000000
00000000
00000000
,
00000000
00000000
00000000
00000000
,
01000000
00000000
00000000
00000000
,
00000000
00000000
00000000
00000000
,
00010000
00000000
00000000
00000000
,
00000000
00000000
00010000
00000000
,
00000000
00000000
00000000
00000000
,
00000000
00000000
00010000
00000000
,
00000000
00000000
00000000
00000000
,
00000000
00000000
00010000
00000000
,
00000000
00000000
00000000
00000000
,
00000000
00000000
00000000
00000000
,
10000000
00000000
00000000
00000000
,
00000000
00000000
00000000
00000000
,
01000000
00000000
00000000
00000000
,
00000000
00000000
00000000
00000000
,
00100000
00000000
00000000
00000000
,
00000000
00000000
00000000
00000000
,
00001000
00000000
00000000
00000000
,
00000000
00000000
00000000
00000000
,
00010000
00000000
00000000
00000000
,
00000000
00000000
00000000
00000000
,
00000100
00000000
00000000
00000000
,
00000000
00000000
00000000
00000000
,
00000010
00000000
00000000
00000000
,
00000000
00000000
00000000
00000000
,
00000001
00000000
00000000
00000000
,
00000000
00000000
00000000
00000000
,
00000100
00000000
00000000
00000000
,
00000000
00000000
00000000
00001001
;

//--------------- dance-double - forcednature ----------------
#NOTEDATA:;
#STEPSTYPE:dance-double;
#DESCRIPTION:forcednature;
#DIFFICULTY:Medium;
#METER:8;
#RADARVALUES:0,0,0,0,0;
#CREDIT:forcednature;
#NOTES:
00000000
00000000
00000000
00000000
,
00000000
00000000
00000000
00000000
,
00000000
00000000
00000000
00000000
,
00000000
00000000
00000000
00000000
,
00000000
00000000
00000000
00000000
,
00010000
00001000
00010000
00001000
,
01000000
00010000
00100000
00000000
,
00001000
00010000
00001000
00010000
,
00000100
00001000
00000010
00000000
,
00000200
00000000
00000000
00000300
,
00000002
00000000
00000000
00000003
,
00000010
00000010
00000010
00000010
,
00000100
00010000
00001000
01000000
,
00100000
00100000
00100000
00100000
,
01000000
00001000
00010000
00000100
,
00000010
00000010
00000010
00000010
,
00000100
00010000
00001000
01000000
,
00100000
00100000
00100000
00100000
,
01000000
00001000
00010000
00000100
,
00001000
00001000
00000001
00001000
,
00000100
00010000
00001000
01000000
,
00010000
00010000
10000000
00010000
,
01000000
00001000
00010000
00000100
,
00000110
00000010
00000100
00000010
,
00000001
00000100
00001000
00010000
,
00100000
00100000
00100000
00100000
,
01000000
00001000
00010000
00000100
,
00000110
00000000
00000110
00000000
,
00000110
00000000
00000010
00000001
,
00000100
00000000
00000010
00001000
,
00000100
00010000
00000000
00010000
,
00001000
01000000
00000000
00010000
,
00010000
10000000
00000000
01000000
,
00000000
00100000
00010000
01000000
,
00000000
01100000
01100000
01100000
,
01000000
00010000
01000000
00010000
,
00100000
01000000
00010000
00001000
,
00000010
00000100
00000010
00000100
,
00010000
00000010
00001000
00000001
,
00000100
00000010
00000100
00000010
,
00000100
00001000
00010000
01000000
,
00100000
00010000
00100000
00010000
,
10000000
00100000
00010000
00001000
,
00011000
00011000
00011000
00011000
,
00010000
00000100
00001000
00000010
,
00000110
00000110
00000110
00000110
,
00000100
00000001
00000010
00000100
,
00000110
00000110
00000110
00000110
,
00000010
00001000
00010000
00001000
,
00011000
00011000
00011000
00011000
,
00010000
00100000
10000000
00100000
,
01100000
00000000
00000000
01000000
00000000
01000000
00000000
00000000
,
00010000
00000000
00010000
00000000
00000000
00100000
00100000
00000000
;

//--------------- dance-double - forcednature ----------------
#NOTEDATA:;
#STEPSTYPE:dance-double;
#DESCRIPTION:forcednature;
#DIFFICULTY:Hard;
#METER:14;
#RADARVALUES:0,0,0,0,0;
#CREDIT:forcednature;
#NOTES:
00000000
00000000
00000000
00000000
,
00000000
00000000
00000000
00000000
,
00000000
00000000
00000000
00000000
,
00000000
00000000
00000000
00000000
,
00000000
00000000
00000000
00000000
,
00002000
00003000
00020000
00030000
00002000
00003000
00020000
00030000
,
00100000
10000000
01000000
00000000
01100000
00000000
00011000
00000000
,
00020000
00030000
00002000
00003000
00020000
00030000
00002000
00003000
,
00000010
00000001
00000100
00000000
00000110
00000000
00001001
00000000
,
00000002
00000000
00000103
00001000
00010000
01000000
10000000
00100000
,
20000000
00000000
00000000
00000000
31000000
00000000
00010000
00000000
00001000
00010000
00001000
00000000
00010000
00001000
00010000
00000000
,
00002000
00003010
00000002
00000013
00002000
00003010
00000002
00000013
,
00000100
00000000
00010000
00001000
00010000
00000000
00000000
00000000
01001000
00000000
00000000
00000000
00010100
00000000
00000000
00000000
,
00020000
00130000
20000000
30100000
00020000
00130000
20000000
30100000
,
01000000
00000000
00001000
00010000
00001000
00000000
00000000
00000000
00010100
00000000
00000000
00000000
01001000
00000000
00000000
00000000
,
00002000
00003100
00000002
00000103
00002000
00003100
00000002
00000103
,
00000010
00000000
00010000
00001000
00010000
00000000
00000000
00000000
00101000
00000000
00000000
00000000
00010010
00000000
00000000
00000000
,
00020000
01030000
20000000
31000000
00020000
01030000
20000000
31000000
,
00100000
00000000
00001000
00010000
00001000
00000000
00000000
00000000
00010010
00000000
00000000
00000000
00101000
00000000
00000000
00000000
,
00001000
00010000
00001000
00000000
01000000
00010000
01000000
00000000
00001000
00010000
00001000
00000000
00100000
00010000
00100000
00000000
,
01000000
00010000
00001000
00000000
00101000
00000000
00010010
00000000
,
00010000
00001000
00010000
00000000
00000100
00001000
00000100
00000000
00010000
00001000
00010000
00000000
00000010
00001000
00000010
00000000
,
00000100
00001000
00010000
00000000
00010010
00000000
00101000
00000000
,
20000000
30020000
00032000
00003002
,
00000103
00001000
00010000
01000000
00010000
00001000
00000010
00000000
,
00010000
00001000
00010000
00000000
00000100
00001000
00000100
00000000
00010000
00001000
00010000
00000000
00000010
00001000
00000010
00000000
,
00000100
00001000
00010000
00000000
00010010
00000000
00101000
00000000
,
01100000
01100000
00011000
00011000
,
00000110
00000000
00000000
00000000
00000110
00000000
00000000
00000000
00001000
00000001
00001000
00000001
00001000
00000000
00000000
00000000
,
00000110
00000000
00000000
00000000
00011000
00000000
00000000
00000000
00001000
00010000
00001000
00010000
00001000
00000000
00000000
00000000
,
01100000
00000000
00000000
00000000
00010000
10000000
00010000
10000000
00010000
00000000
00000000
00000000
00011000
00000000
00000000
00000000
,
00010000
00001000
00010000
00001000
00010000
00000000
00000000
00000000
00011000
00000000
00000000
00000000
00000110
00000000
00000000
00000000
,
00000110
00000000
00000000
00000000
00000001
00001000
00000001
00001000
00000001
00000000
00000000
00000000
00000100
00000010
00000100
00000010
,
00000100
00000000
00000000
00000000
00000110
00000000
00000000
00000000
00011000
00000000
00000000
00000000
00001000
00010000
00001000
00010000
,
00001000
00000000
00000000
00000000
00011000
00000000
00000000
00000000
01000000
00010000
01000000
00010000
10000000
00100000
10000000
00100000
,
20000000
00000000
31000000
00100000
00020000
00000000
00130000
00001000
00020000
00000000
00031000
00010000
00000200
00000000
00001300
00000100
,
00000010
00000001
00000100
00001000
00001100
00000000
00000101
00000000
,
00000002
00000000
00000103
00000010
00002000
00000000
00003010
00010000
00002000
00000000
00013000
00001000
02000000
00000000
03010000
01000000
,
00100000
10000000
01000000
00010000
01010000
00000000
11000000
00000000
,
00020000
00000000
10030000
01000000
00020000
00000000
01030000
00010000
00002000
00000000
00013000
00001000
00000020
00000000
00001030
00000010
,
00000001
00000100
00001000
00000100
00000101
00000000
00000011
00000000
,
00002000
00000000
00003001
00000100
00002000
00000000
00003100
00001000
00020000
00000000
00031000
00010000
00200000
00000000
00310000
00100000
,
10000000
01000000
00010000
01000000
11000000
00000000
10100000
00000000
,
10000000
01000000
10000000
01000000
00100000
01000000
00100000
01000000
00100000
00001000
00100000
00001000
00010000
00001000
00010000
00001000
,
01000000
00100000
00010000
00000000
00011000
00000000
00000110
00000000
,
00000001
00000100
00000001
00000100
00000010
00000100
00000010
00000100
00000010
00010000
00000010
00010000
00001000
00010000
00001000
00010000
,
00000100
00000010
00001000
00000000
00011000
00000000
01100000
00000000
,
10000000
00100000
10000000
00100000
01000000
00100000
01000000
00100000
01000000
00001000
01000000
00001000
00010000
00001000
00010000
00001000
,
00100000
01000000
00010000
00000000
00011000
00000000
00000110
00000000
,
00000001
00000010
00000001
00000010
00000100
00000010
00000100
00000010
00000100
00010000
00000100
00010000
00001000
00010000
00001000
00010000
,
00000010
00000000
00000100
00000000
00001000
00000000
00000000
00000000
00011000
00000000
00000000
00000000
01000000
00100000
01000000
00100000
,
10000000
00000000
01000000
00000000
00010000
00000000
00001000
00000000
00000010
00000000
00000100
00000000
00000100
00001000
00000001
00001000
,
00000010
00000000
00000100
00001000
00000000
00010000
00000000
00011000
00000000
00000000
00101000
00000000
00110000
00000000
00000000
00000000
;

//--------------- dance-double - forcednature ----------------
#NOTEDATA:;
#STEPSTYPE:dance-double;
#DESCRIPTION:forcednature;
#DIFFICULTY:Challenge;
#METER:14;
#RADARVALUES:0,0,0,0,0;
#OFFSET:0.499;
#BPMS:0.000=140.000;
#STOPS:44.000=0.214
,44.500=0.214
,45.000=0.214
,45.500=0.215
,50.000=0.214
,50.500=0.215
,51.000=0.214
,51.500=0.215
,56.000=0.214
,56.500=0.214
,57.000=0.214
,57.500=0.214
,62.000=0.214
,62.500=0.215
,63.000=0.214
,63.500=0.215
,68.000=0.214
,68.500=0.214
,69.000=0.214
,69.500=0.214
,74.000=0.214
,74.500=0.215
,75.000=0.214
,75.500=0.215
,80.000=0.214
,80.500=0.214
,81.000=0.214
,81.500=0.215
,86.000=0.214
,86.500=0.214
,87.000=0.214
,87.500=0.215
,92.000=0.214
,92.500=0.214
,93.000=0.215
,93.500=0.214
,94.000=0.214
,94.500=0.215
,96.000=0.214
,96.500=0.214
,97.000=0.215
,98.500=0.214
,99.000=0.215
,100.500=0.214
,101.000=0.213
,102.500=0.214
,103.000=0.215
,103.500=0.214
,104.000=0.215
,105.500=0.214
,107.000=0.214
,107.500=0.214
,108.000=0.215
,109.500=0.215
,113.000=0.214
,113.500=0.214
,114.000=0.214
,114.500=0.215
,119.000=0.214
,119.500=0.214
,120.000=0.214
,120.500=0.214
,125.000=0.214
,125.500=0.215
,126.000=0.214
,126.500=0.215
,131.000=0.214
,131.500=0.214
,132.000=0.214
,132.500=0.215
,137.000=0.214
,137.500=0.214
,138.000=0.214
,138.500=0.215
,143.000=0.214
,143.500=0.215
,144.000=0.214
,144.500=0.215
,149.000=0.214
,149.500=0.214
,150.000=0.214
,150.500=0.214
,155.000=0.214
,155.500=0.215
,156.000=0.214
,156.500=0.215
;
#CREDIT:forcednature;
#NOTES:
00000000
00000000
00000000
00000000
,
00000000
00000000
00000000
00000000
,
00000000
00000000
00000000
00000000
,
00000000
00000000
00000000
00000000
,
00000000
00000000
00000000
00000000
,
00001000
00010000
01000000
10000000
,
00100000
01000000
00100000
00000000
0110MMMM
00000000
00011000
00000000
,
00010000
00001000
00000100
00000001
,
00000010
00000100
00000010
00000000
MMMM0110
00000000
00011000
00000000
,
02000000
00000000
00000000
00000000
00000000
03000000
00000000
00000000
,
00000200
00000000
00000000
00000000
00001300
00000001
00001000
00000001
,
00000100
00001000
00000100
00001000
00010000
00100000
01000000
00000000
,
1010MMMM
00000000
1100MMMM
00000000
01000000
00010000
01000000
00010000
,
00001000
00000010
00000001
00000000
MMMM0011
00000000
MMMM0101
00000000
,
00000100
00001000
00000100
00001000
00010000
01000000
10000000
00000000
,
1010MMMM
00000000
1100MMMM
00000000
01000000
00010000
01000000
00010000
,
00001000
00000010
00000001
00000000
MMMM0011
00000000
MMMM0101
00000000
,
00000100
00001000
01000000
00001000
00010000
00100000
10000000
00000000
,
1010MMMM
00000000
1100MMMM
00000000
01000000
00010000
00000100
00010000
,
00001000
00000010
00000001
00000000
MMMM0011
00000000
MMMM0101
00000000
,
00001001
00011000
10010000
00011000
00001000
00010000
01000000
00010000
,
00001000
00000100
00001000
00000000
00010000
01000000
00010000
01000000
,
10000000
00100000
00010000
00000000
MMMM1100
00000000
MMMM1010
00000000
,
00000001
00000100
00001000
00010000
01000000
10000000
00100000
00100000
,
00100000
10000000
01000000
00010000
00010000
00010000
00001000
00000010
,
00000010
00000010
00000001
00000100
00000100
00000100
00001000
00010000
,
00100000
10000000
10000000
10000000
01000000
01000000
01000000
00010000
,
00001000
00000010
00000010
00000010
00000110
00000000
00000001
00001000
,
00000001
00001000
00001010
00011000
01010000
00011000
00001000
00000100
,
00000001
00000010
MMMM1000
00010000
0100MMMM
00000000
00110000
00011000
,
00001100
00011000
00010000
01000000
10000000
00100000
0001MMMM
00001000
,
MMMM0100
00000000
00000110
00010010
00101000
01100000
01000000
00010000
,
00001000
00000100
MMMM1000
00010000
0100MMMM
00000000
01100000
00101000
,
00010010
00000110
00000100
00001000
00010000
01000000
0001MMMM
00001000
,
MMMM0100
00000000
00000110
00011000
01100000
00011000
00001000
01000000
,
00010000
00000100
MMMM1000
00000000
1001MMMM
00000000
01100000
00011000
,
00000110
00011000
00010000
00000100
00001000
01000000
0001MMMM
00000000
,
MMMM1001
00000000
00000110
00011000
01100000
00011000
00010000
01000000
,
00100000
00001000
MMMM0010
00010000
0101MMMM
00000000
01100000
00011000
,
00000110
00011000
00001000
00000100
00000010
00010000
0010MMMM
00001000
,
MMMM1100
00000000
00001001
00000000
00000001
00000100
00001000
00010000
,
01000000
00000000
10000000
00000000
00100000
00000000
00000000
01000000
00000000
01000000
00000000
01000000
00000000
00000000
01100000
00000000
,
10010000
00000000
00000000
00000000
;
