#VERSION:0.83;
#TITLE:虹の先に何があるか;
#SUBTITLE:;
#ARTIST:あさき;
#TITLETRANSLIT:Niji no saki ni nani ga aru ka;
#SUBTITLETRANSLIT:;
#ARTISTTRANSLIT:Asaki;
#GENRE:;
#CREDIT:;
#MUSIC:Niji no saki ni nani ga aru ka.ogg;
#BANNER:Niji no saki ni nani ga aru ka.png;
#BACKGROUND:Niji no saki ni nani ga aru ka-bg.png;
#CDTITLE:./CDTitles/REFLEC BEAT.png;
#SAMPLESTART:62.595;
#SAMPLELENGTH:15.000;
#SELECTABLE:YES;
#OFFSET:0.576;
#BPMS:0.000=216.000;
#STOPS:;
#BGCHANGES:0.000=../BGAs/09te.mp4=1.000=0=0=0=StretchNoLoop====,
99999.000=-nosongbg-=1.000=0=0=0=StretchNoLoop====
;
#FGCHANGES:;

//--------------- dance-single - forcednature ----------------
#NOTEDATA:;
#STEPSTYPE:dance-single;
#DESCRIPTION:forcednature;
#DIFFICULTY:Beginner;
#METER:2;
#RADARVALUES:0,0,0,0,0;
#CREDIT:forcednature;
#NOTES:
0000
0000
0000
0000
,
0000
0000
0000
0000
,
0000
0000
0000
0000
,
0000
0000
0000
0000
,
0000
0000
0000
0000
,
0000
0000
0000
0000
,
0000
0000
0000
0000
,
0000
0000
0000
0000
,
0000
0000
0000
0000
,
1000
0000
0000
0000
,
0000
0000
0000
0000
,
0001
0000
0000
0000
,
0001
0000
0000
0000
,
0001
0000
0000
0000
,
0000
0000
0000
0000
,
1000
0000
0000
0000
,
1000
0000
0000
0000
,
0100
0000
0000
0000
,
0000
0000
0000
0000
,
1000
0000
0000
0000
,
0000
0000
0000
0000
,
0001
0000
0000
0000
,
0000
0000
0000
0000
,
0001
0000
0000
0000
,
0001
0000
0000
0000
,
0100
0000
0000
0000
,
0000
0000
0000
0000
,
0010
0000
0000
0000
,
0000
0000
0000
0000
,
1000
0000
0000
0000
,
1000
0000
0000
0000
,
1000
0000
0000
0000
,
0000
0000
0000
0000
,
0100
0000
0000
0000
,
0000
0000
0000
0000
,
0010
0000
0000
0000
,
0000
0000
0000
0000
,
0100
0000
0000
0000
,
0100
0000
0000
0000
,
0010
0000
0000
0000
,
0000
0000
0000
0000
,
0001
0000
0000
0000
,
0000
0000
0000
0000
,
1000
0000
0000
0000
,
0000
0000
0000
0000
,
0001
0000
0000
0000
,
0001
0000
0000
0000
,
1000
0000
0000
0000
,
0000
0000
0000
0000
,
0010
0000
0000
0000
,
0000
0000
0000
0000
,
0100
0000
0000
0000
,
0000
0000
0000
0000
,
1001
0000
0000
0000
,
0000
0000
0000
0000
,
1000
0000
0000
0000
,
0100
0000
0000
0000
,
1000
0000
0000
0000
,
0000
0000
0000
0000
,
0001
0000
0000
0000
,
0000
0000
0000
0000
,
0100
0000
0000
0000
,
0000
0000
0000
0000
,
0010
0000
0000
0000
,
0000
0000
0000
0000
,
1000
0000
0000
0000
,
0000
0000
0000
0000
,
0001
0000
0000
0000
,
0000
0000
0000
0000
,
0010
0000
0000
0000
,
0010
0000
0000
0000
,
0010
0000
0000
0000
,
0100
0000
0000
0000
,
0000
0000
1000
0000
,
0000
0000
0000
0000
,
0000
0000
0000
0000
,
0001
0000
0000
0000
,
0000
0000
0000
0000
,
0100
0000
0000
0000
,
0000
0000
0000
0000
,
0001
0000
0000
0000
,
0001
0000
0000
0000
,
0000
0000
0000
0000
,
1000
0000
0000
0000
,
1000
0000
0000
0000
,
0010
0000
0000
0000
,
0100
0000
0000
0000
,
0001
0000
0000
0000
,
0000
0000
0000
0000
,
1001
0000
0000
0000
,
0000
0000
0000
0000
,
1000
0000
0000
0000
,
0000
0000
0000
0000
,
0100
0000
0000
0000
,
0010
0000
0000
0000
,
0001
0000
0001
0000
,
1000
0000
1000
0000
,
0010
0000
0000
0000
;

//--------------- dance-single - forcednature ----------------
#NOTEDATA:;
#STEPSTYPE:dance-single;
#DESCRIPTION:forcednature;
#DIFFICULTY:Easy;
#METER:5;
#RADARVALUES:0,0,0,0,0;
#CREDIT:forcednature;
#NOTES:
0000
0000
0000
0000
,
0000
0000
0000
0000
,
0000
0000
0000
0000
,
0000
0000
0000
0000
,
0000
0000
0000
0000
,
0000
0000
0000
0000
,
0000
0000
0000
0000
,
0000
0000
0000
0000
,
0000
0000
0000
0000
,
1000
0000
0000
0000
,
0100
0000
1000
0000
,
0001
0000
0000
0000
,
0001
0000
0010
0000
,
0001
0000
0000
0000
,
0100
0000
0001
0000
,
1000
0000
0000
0000
,
1000
0000
0010
0000
,
0110
0000
0000
0000
,
0100
0000
0000
0000
,
0001
0000
0000
0000
,
0010
0000
0000
0000
,
0001
0000
0001
0000
,
0001
0000
1000
0000
,
0010
0000
0010
0000
,
0010
0000
0000
0000
,
1001
0000
0000
0000
,
1000
0000
0100
0000
,
1000
0000
0000
0000
,
1000
0000
0010
0000
,
0100
0000
0100
0000
,
0100
0000
0001
0000
,
1000
0000
1000
0000
,
1000
0000
0000
0000
,
1001
0000
0000
0000
,
0001
0000
0010
0000
,
0100
0000
0000
0000
,
0010
0000
0001
0000
,
1000
0000
1000
0000
,
1000
0000
0010
0000
,
0100
0000
0100
0000
,
0100
0000
0000
0000
,
1001
0000
0000
0000
,
0001
0000
0010
0000
,
0100
0000
0000
0000
,
1000
0000
0001
0000
,
0100
0000
0100
0000
,
0100
0000
0001
0000
,
0010
0000
0010
0000
,
0010
0000
0000
0000
,
0110
0000
0000
0000
,
0100
0000
1000
0000
,
0001
0000
0000
0000
,
0100
0000
0000
0000
0000
0000
0000
0220
,
0000
0000
0000
0000
,
0000
0330
0000
0000
0000
0000
0000
0000
,
1000
0000
0001
0000
,
0100
0100
0100
0000
,
0110
0000
0010
0000
,
1000
0000
0001
0000
,
0020
0000
0000
0030
,
0200
0000
0000
0300
,
1000
0000
0001
0000
,
0100
0000
0001
0000
,
2000
0000
0000
3000
,
0020
0000
0000
0030
,
0100
0000
0001
0000
,
1000
0000
0001
0000
,
0020
0000
0000
0030
,
0200
0000
0000
0300
,
1000
0000
0001
0000
,
0100
0000
0001
0000
,
1000
0000
1000
0000
,
0010
0010
0010
0000
,
0000
1001
0000
1000
,
0100
1000
0000
0000
,
0001
0000
0100
0000
,
0001
0001
0010
0000
,
0001
0000
0100
0000
,
0010
0000
1000
0000
,
0001
0000
0010
0000
,
0100
0000
0000
0000
,
0110
0000
1000
0000
,
0001
0000
0000
0000
,
0200
0000
0000
0300
,
0020
0000
0000
0030
,
1000
0000
1000
0000
,
0001
0000
0001
0000
,
0100
0000
0010
0000
,
0100
0000
0000
0000
,
1001
0000
0000
0000
,
1000
0000
0100
0000
,
1000
0000
0000
0000
,
0001
0000
0000
0000
,
0010
0000
0010
0000
,
0001
0000
0100
0000
,
0010
0000
0010
0000
,
1000
0000
0100
0000
,
1001
0000
0000
0000
;

//--------------- dance-single - forcednature ----------------
#NOTEDATA:;
#STEPSTYPE:dance-single;
#DESCRIPTION:forcednature;
#DIFFICULTY:Medium;
#METER:10;
#RADARVALUES:0,0,0,0,0;
#CREDIT:forcednature;
#NOTES:
0000
0000
0000
0000
,
0000
0000
0000
0000
,
0000
0000
0000
0000
,
0000
0000
0000
0000
,
0000
0000
0000
0000
,
0000
0000
0000
0000
,
0000
0000
0000
0000
,
0000
0000
0000
0000
,
0000
0000
0000
0000
0000
0000
0000
1001
,
0000
1000
0100
0000
,
1000
0001
0010
0001
,
0200
0000
0320
0000
,
2030
0000
0000
0000
3001
0000
0000
1001
,
0000
1000
0100
0010
,
0100
0000
1000
0000
0001
0000
0000
0020
,
0000
0001
0031
0001
,
1000
0000
0010
0000
0100
0000
0000
1001
,
0000
1000
0000
1000
,
0100
1000
0001
0020
,
0000
0031
0000
0001
,
0100
0001
1000
0020
,
0000
0130
0001
2000
,
0000
3100
1000
0002
,
0000
0013
0100
1000
,
0010
0000
0100
0000
0100
0000
0000
1001
,
0000
0001
0000
0001
,
0010
0001
0100
0002
,
0000
1003
0000
1000
,
0010
1000
0100
0020
,
0000
0031
0100
0020
,
0000
1030
0100
0020
,
0000
0031
1000
0010
,
0100
0000
0001
0000
1000
0000
0000
1001
,
0000
0001
0001
0000
,
0010
0010
0001
0020
,
0000
0130
0100
0000
,
1000
1000
0100
2000
,
0000
3001
0010
0200
,
0000
1300
0010
0200
,
0000
0301
1000
0100
,
1000
0000
0001
0000
0100
0000
0000
1001
,
0000
1000
0010
1000
,
0010
1000
0001
0020
,
0000
0031
0000
0001
,
0010
0001
1000
0020
,
0000
1030
0100
0020
,
0000
0000
0031
0000
0100
0000
0000
1001
,
0000
0001
0010
0001
,
1000
1000
0010
0000
,
0120
0000
0130
0001
,
1000
0000
0020
0000
,
1030
1000
0100
0000
,
1000
0000
0001
0000
0010
0000
0000
0220
,
0000
0000
0000
0000
,
0000
0330
0000
0000
0110
0000
0000
1001
,
0000
1000
0010
1000
,
0001
0000
0100
0000
0001
0000
0000
2001
,
0000
0000
3200
0000
,
0320
0000
0032
0000
,
1003
0010
0100
0000
,
0001
0100
0010
0000
,
1000
0001
0010
0000
,
0100
0100
0100
0000
,
0010
0001
1000
0000
,
0010
0010
0010
0000
,
0110
0000
0100
0001
,
1000
0010
1000
0000
,
0001
0010
0200
0000
,
1300
0010
0200
0000
,
0301
0001
0001
0000
,
1000
0100
0010
0000
,
0100
0100
1000
0001
,
0010
0010
0001
0000
,
0000
1001
0000
1000
,
0010
1000
0001
0000
,
0100
0100
0001
0100
,
0100
0010
1000
0200
,
0000
0310
0001
0200
,
0000
0310
1000
0001
,
0010
0001
1000
0020
,
0000
0000
0130
0000
0001
0000
0000
1001
,
0000
1000
0100
1000
,
0000
1000
0010
0100
,
0000
0001
0100
0001
,
0000
0000
0001
0000
0010
0000
0000
0110
,
0000
0100
0100
1000
,
1000
0000
0001
0000
0100
0000
0000
0110
,
0000
0010
1000
0001
,
0010
0001
1000
0000
,
1001
0000
0001
0100
,
0001
1000
0010
0000
,
0100
0001
0010
0000
,
0100
0000
1000
0000
0010
0000
0000
0100
,
0000
0000
0001
0000
0001
0000
0000
0010
,
0000
0000
0110
0000
0100
0000
0000
1000
,
0000
0000
1001
0000
0001
0000
0100
0010
,
0000
0000
0100
0000
0010
0100
0000
1001
;

//--------------- dance-single - forcednature ----------------
#NOTEDATA:;
#STEPSTYPE:dance-single;
#DESCRIPTION:forcednature;
#DIFFICULTY:Hard;
#METER:13;
#RADARVALUES:0,0,0,0,0;
#CREDIT:forcednature;
#NOTES:
0000
0000
0000
0000
,
0000
0000
0000
0000
,
0000
0000
0000
0000
,
0000
0000
0000
0000
,
0000
0000
0000
0000
,
0000
0000
0000
0000
,
0000
0000
0000
0000
,
0000
0000
0000
0000
,
0000
0000
0000
0000
0000
0000
0000
1001
,
0000
0001
0100
0000
0010
0000
0100
0001
,
0000
1000
0000
0020
0000
0000
0000
2030
,
0000
0100
3002
0100
,
2003
0000
0010
0000
3001
1000
0000
1001
,
0000
0001
0010
0000
0100
0010
0000
0100
,
0000
1000
0001
0000
0100
0001
0000
0110
,
0000
1000
0010
0000
0100
0000
0001
0020
,
0000
0100
0100
0000
0031
1000
0000
1001
,
0000
0000
1000
0000
0010
0000
1000
0001
,
0100
0001
1000
0000
0010
0000
0100
0001
,
0000
2000
0000
0000
3010
0000
0001
0010
,
0100
0010
0001
0000
1000
0000
0100
2000
,
0000
0000
3002
0000
0203
0000
0310
2000
,
0000
3002
0000
0203
0000
0310
0000
2000
,
0000
0000
3002
0000
0013
0200
0000
2300
,
0000
3001
0010
0000
0001
0000
1000
0100
,
0000
0110
0020
0001
,
0130
1000
0100
0010
0100
0000
1000
0001
,
0000
0010
0001
0000
1000
0000
0010
0000
,
0100
0001
0100
0010
0100
0000
0001
2000
,
0000
0000
3020
0000
0230
0000
0301
2000
,
0000
3020
0000
0230
0000
0000
0301
0020
,
0000
0000
0130
0000
1000
0002
0000
0103
,
0000
0010
1000
0000
0001
0010
0000
0110
,
0000
0100
1000
0000
1000
0010
1000
0000
,
1000
0001
0100
0010
1000
0000
0001
0010
,
0000
0100
0010
0000
0010
0001
0010
0000
,
0010
0100
1000
0001
0010
0000
0001
0100
,
0000
0010
1000
0000
0001
0000
0010
0100
,
0000
0001
0000
0100
2000
0000
3001
0010
,
0000
0001
0100
0000
0010
1000
0010
0100
,
0000
0001
0010
0000
0100
0100
0000
1001
,
0000
0000
0001
0010
0001
0000
0001
1000
,
0001
0100
0010
0000
0010
1000
0001
0100
,
0000
0100
0010
0000
1000
0000
0001
0010
,
0001
1000
0100
0000
0100
0010
0001
0020
,
0000
0000
0130
0000
1000
0000
0001
0100
,
0000
0010
1000
0000
0001
0010
0001
1000
,
0000
0010
0100
0000
0010
0000
1001
0000
,
1000
0100
1000
0001
0010
0000
0001
0000
,
2000
0000
0010
0000
0010
0000
3001
1000
,
0000
0100
1000
0000
0001
0010
0100
0010
,
0000
0001
0000
2000
0000
0000
0010
0010
,
0000
0001
0000
3100
0100
1000
0000
0220
,
0000
0000
0000
0000
,
0000
0330
0000
0001
1000
0001
0000
1001
,
0000
1000
0010
0000
0100
0001
0000
0110
,
0000
0010
1000
0010
0100
0001
0000
2001
,
0000
0100
3002
0010
,
2003
0000
0010
0000
3001
0000
0100
0020
,
0000
0000
1000
0000
0130
0000
0001
2000
,
0000
0000
3010
0000
1000
0100
0010
0200
,
0000
0000
0310
0000
0011
0000
0001
0100
,
0000
0010
1000
0000
0110
0000
0001
2000
,
0000
0100
0001
3010
,
1000
0001
0100
0000
0010
0010
1000
0002
,
0000
0100
2003
0100
,
3002
0000
0023
0000
2030
0000
3010
0002
,
0000
0100
1000
0013
,
1000
0100
0010
0000
0001
1000
0010
1000
,
0000
0001
0100
0000
0010
0100
0000
0020
,
0000
1000
1030
0000
0001
0010
0000
0110
,
0000
0100
1000
0000
0001
0100
0000
0110
,
0000
0010
0010
1000
0001
1000
0020
0100
,
0000
0030
0000
0000
1001
0000
0000
0000
1200
0000
0000
0000
0010
0000
0010
0000
,
0000
1000
1300
0000
0001
0010
0000
0110
,
0000
0100
1000
0000
0001
0100
1000
0200
,
0000
0301
1000
0000
1010
0000
0001
0200
,
0000
0301
0010
0000
2100
0000
3020
0000
,
0032
0000
2003
0000
3200
0000
0301
0100
,
0020
0000
1000
0000
0130
0000
1000
0002
,
0000
0013
0001
0010
0100
0100
1000
0002
,
0000
0103
1000
0000
0100
0000
0001
2000
,
0000
3100
0001
0000
0100
0000
1000
0002
,
0000
0000
0010
0000
1000
0000
0103
0001
,
1000
0000
1010
0000
0010
0100
0001
0010
,
0000
0100
1000
0100
0010
0100
0000
0110
,
0000
0010
0001
0100
0010
0000
0100
0100
,
0000
0010
1000
0001
0100
0000
0010
0110
,
0000
1000
1000
0001
0100
0010
1000
0001
,
0020
0000
0001
0000
0001
0000
0130
1000
,
0000
0001
0010
0000
0001
0000
1000
0010
,
0000
0100
0001
0000
0010
0000
0001
0100
,
0000
0010
1000
0000
0001
0010
0001
2000
,
0000
3100
0002
0000
0103
0000
1000
1100
,
0000
0000
0011
0000
0001
0001
0100
0010
,
0000
1000
1100
0000
0011
0000
0001
0101
,
0000
1000
1010
0000
0100
0110
0000
1001
;

//--------------- dance-double - forcednature ----------------
#NOTEDATA:;
#STEPSTYPE:dance-double;
#DESCRIPTION:forcednature;
#DIFFICULTY:Easy;
#METER:5;
#RADARVALUES:0,0,0,0,0;
#CREDIT:forcednature;
#NOTES:
00000000
00000000
00000000
00000000
,
00000000
00000000
00000000
00000000
,
00000000
00000000
00000000
00000000
,
00000000
00000000
00000000
00000000
,
00000000
00000000
00000000
00000000
,
00000000
00000000
00000000
00000000
,
00000000
00000000
00000000
00000000
,
00000000
00000000
00000000
00000000
,
00000000
00000000
00000000
00000000
,
00001000
00000000
00000000
00000000
,
00010000
00000000
00001000
00000000
,
00010000
00000000
00000000
00000000
,
00000100
00000000
00000000
00000000
,
00001000
00000000
00000000
00000000
,
00000001
00000000
00001000
00000000
,
00000001
00000000
00000000
00000000
,
00000100
00000000
00000000
00000000
,
00000110
00000000
00000000
00000000
,
00000010
00000000
00000000
00000000
,
00001000
00000000
00000000
00000000
,
00000100
00000000
00000000
00000000
,
00010000
00000000
00010000
00000000
,
00001000
00000000
00001000
00000000
,
00010000
00000000
00001000
00000000
,
00010000
00000000
00000000
00000000
,
00011000
00000000
00000000
00000000
,
01000000
00000000
00000000
00000000
,
00010000
00000000
00000000
00000000
,
10000000
00000000
00000000
00000000
,
00100000
00000000
00100000
00000000
,
01000000
00000000
01000000
00000000
,
00100000
00000000
01000000
00000000
,
00100000
00000000
00000000
00000000
,
10010000
00000000
00000000
00000000
,
10000000
00000000
00000000
00000000
,
01000000
00000000
00000000
00000000
,
00100000
00000000
00000000
00000000
,
00001000
00000000
00001000
00000000
,
00010000
00000000
00001000
00000000
,
00010000
00000000
00010000
00000000
,
00001000
00000000
00000000
00000000
,
00011000
00000000
00000000
00000000
,
00000100
00000000
00000000
00000000
,
00001000
00000000
00000000
00000000
,
00000001
00000000
00000000
00000000
,
00000100
00000000
00000100
00000000
,
00000010
00000000
00000010
00000000
,
00000100
00000000
00000010
00000000
,
00000100
00000000
00000000
00000000
,
00001001
00000000
00000000
00000000
,
00001000
00000000
00000000
00000000
,
00000100
00000000
00000000
00000000
,
00010000
00000000
00000000
00000000
00000000
00000000
00000000
00022000
,
00000000
00000000
00000000
00000000
,
00000000
00033000
00000000
00000000
00000000
00000000
00000000
00000000
,
00001000
00000000
00010000
00000000
,
00001000
00000000
00000000
00000000
,
00011000
00000000
00000000
00000000
,
01000000
00000000
00010000
00000000
,
00200000
00000000
00000000
00300000
,
02000000
00000000
00000000
03000000
,
10000000
00000000
00010000
00000000
,
01000000
00000000
00010000
00000000
,
00200000
00000000
00000000
00300000
,
00002000
00000000
00000000
00003000
,
00010000
00000000
00010000
00000000
,
00001000
00000000
00010000
00000000
,
00000200
00000000
00000000
00000300
,
00002000
00000000
00000000
00003000
,
00000001
00000000
00000100
00000000
,
00000010
00000000
00000100
00000000
,
00000010
00000000
00000010
00000000
,
00001000
00001000
00001000
00000000
,
00000000
00001001
00000000
00000000
,
00001000
00000100
00001000
00000000
,
00000100
00000000
00010000
00000000
,
00001000
00010000
00001000
00000000
,
01000000
00000000
00010000
00000000
,
10000000
00100000
10000000
00000000
,
00010000
00000000
00100000
00000000
,
01000000
00100000
01000000
00000000
,
10010000
00000000
10000000
00000000
,
00010000
00000000
00000000
00000000
,
02000000
00000000
00000000
03000000
,
00020000
00000000
00000000
00030000
,
00100000
00000000
00100000
00000000
,
00001000
00000000
00010000
00000000
,
00001000
00000000
00010000
00000000
,
00001000
00010000
00001000
00000000
,
00011000
00000000
00000000
00000000
,
00000100
00000000
00001000
00000000
,
00000100
00000000
00000010
00000000
,
00000001
00000000
00000000
00000000
,
00000100
00000000
00000100
00000000
,
00000010
00000100
00000010
00000000
,
00001000
00000000
00000001
00000000
,
00001000
00000001
00001000
00000000
,
00001001
00000000
00000000
00000000
;

//--------------- dance-double - forcednature ----------------
#NOTEDATA:;
#STEPSTYPE:dance-double;
#DESCRIPTION:forcednature;
#DIFFICULTY:Medium;
#METER:10;
#RADARVALUES:0,0,0,0,0;
#CREDIT:forcednature;
#NOTES:
00000000
00000000
00000000
00000000
,
00000000
00000000
00000000
00000000
,
00000000
00000000
00000000
00000000
,
00000000
00000000
00000000
00000000
,
00000000
00000000
00000000
00000000
,
00000000
00000000
00000000
00000000
,
00000000
00000000
00000000
00000000
,
00000000
00000000
00000000
00000000
,
00000000
00000000
00000000
00000000
00000000
00000000
00000000
00011000
,
00000000
00010000
00001000
00000000
,
01000000
00010000
10000000
00100000
,
02000000
00000000
03002000
00000000
,
00023000
00000000
00000000
00000000
00030010
00000000
00000000
00001001
,
00000000
00001000
00000100
00010000
,
00001000
00000000
00100000
00000000
00010000
00000000
00000000
20000000
,
00000000
00100000
30100000
10000000
,
01000000
00000000
00010000
00000000
00001000
00000000
00000000
00011000
,
00000000
00010000
00000000
00000100
,
00001000
00000100
00000010
00000002
,
00000000
00000103
00000000
00000001
,
00001000
00000010
00010000
00002000
,
00000000
01003000
00010000
20000000
,
00000000
31000000
10000000
00020000
,
00000000
00130000
00001000
00010000
,
00000100
00000000
00001000
00000000
00001000
00000000
00000000
00001001
,
00000000
00010001
00000000
00000100
,
00000001
00001000
00000010
00000200
,
00000000
00000301
00000000
00001000
,
00000100
00010000
00001000
00200000
,
00000000
00310000
01000000
00200000
,
00000000
10300000
00010000
00200000
,
00000000
01300000
10000000
00010000
,
00100000
00000000
00001000
00000000
00010000
00000000
00000000
00011000
,
00000000
00001000
00001000
00000000
,
00010000
00010000
00000100
00020000
,
00000000
00031000
00001000
00000000
,
00000010
00000010
00000100
00000020
,
00000000
00000031
00000100
00000020
,
00000000
00001030
00000100
00020000
,
00000000
00031000
00100000
00010000
,
00100000
00000000
00001000
00000000
00010000
00000000
00000000
00011000
,
00000000
00001000
01000000
00010000
,
01000000
00001000
00010000
00002000
,
00000000
00103000
00000000
00010000
,
10000000
01000000
10000000
00020000
,
00000000
00130000
00001000
00020000
,
00000000
00000000
00030010
00000000
00001000
00000000
00000000
00001001
,
00000000
00000001
00000010
00000100
,
00001000
00001000
00000010
00000000
,
00022000
00000000
00033000
00001000
,
01000000
00000000
00020000
00000000
,
10030000
10000000
01000000
00000000
,
00100000
00000000
00001000
00000000
00010000
00000000
00000000
00022000
,
00000000
00000000
00000000
00000000
,
00000000
00033000
00000000
00000000
00000010
00000000
00000000
00001001
,
00000000
00001000
00000100
00010000
,
00001000
00000000
00100000
00000000
00010000
00000000
00000000
20010000
,
00000000
00000000
32000000
00000000
,
03020000
00000000
00032000
00000000
,
00103000
00010000
00100000
00000000
,
00001000
00010000
00000010
00000000
,
00001000
00000001
00000100
00000000
,
00000010
00000010
00000010
00000000
,
00001000
00000100
00010000
00001000
,
00100000
00100000
00100000
00000000
,
10010000
00000000
10000000
01000000
,
10000000
00010000
00100000
00000000
,
00001000
00010000
00000020
00000000
,
00001030
00000001
00000200
00000000
,
00000310
00000010
00000010
00000000
,
00001000
00000100
00010000
00000000
,
00001000
00001000
00100000
00010000
,
10000000
10000000
00100000
00000000
,
00000000
01100000
00000000
01000000
,
00010000
10000000
00100000
00000000
,
10000000
10000000
01000000
10000000
,
00010000
00100000
00010000
02000000
,
00000000
03001000
00010000
00000020
,
00000000
00001030
00000001
00000100
,
00000010
00001000
00000001
00000020
,
00000000
00000000
00000130
00000000
00010000
00000000
00000000
00011000
,
00000000
00001000
00100000
00010000
,
00000000
10000000
00100000
01000000
,
00000000
00010000
10000000
01000000
,
00000000
00000000
00100000
00000000
00001000
00000000
00000000
00011000
,
00000000
00010000
00010000
00000100
,
00000100
00000000
00001000
00000000
00000001
00000000
00000000
00000011
,
00000000
00000010
00000100
00010000
,
00001000
00100000
01000000
00000000
,
10010000
00000000
10000000
00100000
,
10000000
00010000
01000000
00000000
,
00001000
00010000
00000010
00000000
,
00001000
00000000
00000001
00000000
00000010
00000000
00000000
00000100
,
00000000
00000000
00010000
00000000
00010000
00000000
00000000
00001000
,
00000000
00000000
00011000
00000000
00000000
00000000
00000000
01000000
,
00000000
00000000
10010000
00000000
00010000
00000000
01000000
00100000
,
00000000
00000000
01000000
00000000
00100000
01000000
00000000
10010000
;

//--------------- dance-double - forcednature ----------------
#NOTEDATA:;
#STEPSTYPE:dance-double;
#DESCRIPTION:forcednature;
#DIFFICULTY:Hard;
#METER:14;
#RADARVALUES:0,0,0,0,0;
#CREDIT:forcednature;
#NOTES:
00000000
00000000
00000000
00000000
,
00000000
00000000
00000000
00000000
,
00000000
00000000
00000000
00000000
,
00000000
00000000
00000000
00000000
,
00000000
00000000
00000000
00000000
,
00000000
00000000
00000000
00000000
,
00000000
00000000
00000000
00000000
,
00000000
00000000
00000000
00000000
,
00000000
00000000
00000000
00000000
00000000
00000000
00000000
00011000
,
00000000
00010000
00001000
00000000
01000000
00000000
00010000
01000000
,
00000000
00100000
00000000
20000000
00000000
00000000
00000000
32000000
,
00000000
00100000
23000000
00100000
,
30020000
00000000
00100000
00000000
01030000
00010000
00000000
10010000
,
00000000
10000000
01000000
00000000
00100000
01000000
00000000
00100000
,
00000000
00001000
00010000
00000000
00000100
00001000
00000000
00000110
,
00000000
00000010
00000001
00000000
00000100
00000000
00001000
00000200
,
00000000
00000001
00000001
00000000
00000310
00000100
00000000
00001001
,
00000000
00000000
00001000
00000000
00000100
00000000
00010000
00001000
,
00100000
00010000
00100000
00000000
00001000
00000000
00010000
00001000
,
00000000
02000000
00000000
00000000
03010000
00000000
10000000
00100000
,
01000000
00100000
10000000
00000000
01000000
00000000
00010000
00002000
,
00000000
00000000
00203000
00000000
00320000
00000000
00130000
00002000
,
00000000
00003020
00000000
00000230
00000000
00001300
00000000
00000002
,
00000000
00000000
00000203
00000000
00001300
00020000
00000000
00230000
,
00000000
10300000
00010000
00000000
01000000
00000000
00100000
10000000
,
00000000
11000000
00020000
00100000
,
01030000
00010000
01000000
00001000
00010000
00000000
00000010
00001000
,
00000000
00000001
00000100
00000000
00000001
00000000
00000010
00000000
,
00000100
00001000
00000100
00010000
00001000
00000000
00100000
00020000
,
00000000
00000000
20030000
00000000
32000000
00000000
03100000
00002000
,
00000000
00023000
00000000
00030200
00000000
00000000
00001300
00000002
,
00000000
00000000
00000103
00000000
00000010
00002000
00000000
00003001
,
00000000
00001000
00000100
00000000
00010000
00001000
00000000
00011000
,
00000000
01000000
00010000
00000000
00010000
10000000
00010000
00000000
,
00010000
00100000
00010000
10000000
01000000
00000000
00100000
01000000
,
00000000
00100000
00001000
00000000
00001000
00010000
00001000
00000000
,
00001000
00010000
00000100
00001000
00000100
00000000
00000010
00000001
,
00000000
00000100
00000001
00000000
00000010
00000000
00001000
00010000
,
00000000
00001000
00000000
00010000
02000000
00000000
13000000
00010000
,
00000000
00100000
01000000
00000000
00100000
00010000
00100000
00001000
,
00000000
00000010
00001000
00000000
00000010
00000010
00000000
00000110
,
00000000
00001000
00000001
00000000
00000200
00000000
00001300
00000100
,
00000001
00001000
00000010
00000100
00000001
00001000
00000010
00010000
,
00000000
00001000
00010000
00000000
00100000
00000000
01000000
00010000
,
10000000
00100000
10000000
00000000
01000000
00010000
00001000
00020000
,
00000000
00000000
00031000
00000000
00000010
00000001
00000100
00000001
,
00000000
00000010
00000100
00000000
00010000
00001000
00100000
00010000
,
00000000
10000000
00100000
00000000
01000000
00000000
10010000
00000000
,
10000000
01000000
10000000
00010000
00200000
00000000
00302000
00000000
,
00003020
00000000
00000100
00000000
00000100
00000000
00000031
00001000
,
00000000
00000010
00001000
00000000
00000001
00000100
00001000
00000100
,
00000000
00001000
00000000
00020000
00000000
00000000
00000010
00000010
,
00000000
00001000
00000000
00000100
00030100
00010000
00000000
00022000
,
00000000
00000000
00000000
00000000
,
00000000
00033000
00000000
00010000
00001000
00010000
00000000
00011000
,
00000000
00001000
01000000
00000000
00010000
00100000
00000000
01100000
,
00000000
01000000
10000000
00010000
10000000
01000000
00000000
00210000
,
00000000
00001000
00320000
01000000
,
20030000
00000000
00100000
00000000
31000000
00000000
10000000
00020000
,
00000000
00000000
00100000
00000000
01030000
00000000
00001000
00020000
,
00000000
00000000
00030010
00000000
00001000
00000001
00000100
00000002
,
00000000
00000000
00000013
00000000
00000110
00000000
00000100
00001000
,
00000000
00000100
00010000
00000000
00011000
00000000
00001000
00200000
,
00000000
00010000
01000000
10300000
,
00100000
00010000
10000000
00000000
01000000
01000000
00010000
00002000
,
00000000
00100000
00023000
00000010
,
00032000
00000000
02003000
00000000
03020000
00000000
10030000
00200000
,
00000000
00010000
01000000
10300000
,
00100000
01000000
00010000
00000000
00100000
00010000
00100000
00001000
,
00000000
00000010
00001000
00000000
00000010
00000100
00000000
00002000
,
00000000
00000001
00003001
00000000
00000010
00000100
00000000
00000110
,
00000000
00000001
00001000
00000000
00000100
00010000
00000000
00011000
,
00000000
00001000
00001000
00100000
00010000
10000000
00200000
01000000
,
00000000
00300000
00000000
00000000
10010000
00000000
00000000
00000000
12000000
00000000
00000000
00000000
00100000
00000000
00100000
00000000
,
00000000
00010000
03010000
00000000
01000000
10000000
00000000
10100000
,
00000000
00010000
01000000
00000000
00001000
00010000
00000010
00002000
,
00000000
00003100
00001000
00000000
00000011
00000000
00000001
00000200
,
00000000
00001300
00000100
00000000
00000002
00000000
00000023
00000000
,
00002030
00000000
00023000
00000000
02030000
00000000
13000000
00010000
,
00200000
00000000
01000000
00000000
00310000
00000000
00100000
00002000
,
00000000
00013000
00000100
00001000
00000001
00000001
00000010
00000002
,
00000000
00000103
00001000
00000000
00011000
00000000
00010000
00200000
,
00000000
10300000
00100000
00000000
01000000
00000000
00010000
00200000
,
00000000
00000000
01000000
00000000
00010000
00000000
00301000
00010000
,
00001000
00000000
00011000
00000000
00010000
00000100
00001000
00000010
,
00000000
00000100
00000001
00000100
00000010
00001000
00000000
00001100
,
00000000
00000100
00010000
00001000
00100000
00000000
00010000
00010000
,
00000000
01000000
10000000
01000000
00010000
00000000
00100000
00110000
,
00000000
10000000
10000000
01000000
10000000
00010000
00100000
01000000
,
00020000
00000000
00001000
00000000
00001000
00000000
00030100
00001000
,
00000000
00000001
00000010
00000000
00000001
00000000
00000100
00001000
,
00000000
00010000
00001000
00000000
00010000
00000000
00100000
10000000
,
00000000
01000000
10000000
00000000
01000000
00010000
00001000
00020000
,
00000000
00031000
00000020
00000000
00000031
00000000
00001000
00001100
,
00000000
00000000
00011000
00000000
00100000
00100000
00010000
01010000
,
00000000
10000000
10100000
00000000
11000000
00000000
00010000
00110000
,
00000000
00001000
00011000
00000000
00000100
00000110
00000000
00001001
;
