#VERSION:0.83;
#TITLE:Neuron;
#SUBTITLE:;
#ARTIST:BEMANI Sound Team "Expander";
#TITLETRANSLIT:;
#SUBTITLETRANSLIT:;
#ARTISTTRANSLIT:Expander;
#GENRE:;
#CREDIT:;
#MUSIC:Neuron.ogg;
#BANNER:Neuron.png;
#BACKGROUND:Neuron-bg.png;
#CDTITLE:./CDTitles/jubeat festo.png;
#SAMPLESTART:73.086;
#SAMPLELENGTH:14.999;
#SELECTABLE:YES;
#OFFSET:0.000;
#BPMS:0.000=174.008;
#STOPS:;
#TIMESIGNATURES:0.000=4=4;
#BGCHANGES:0.000=../BGAs/19cy.mp4=1.000=0=0=0=StretchNoLoop====,
99999.000=-nosongbg-=1.000=0=0=0=StretchNoLoop====
;
#FGCHANGES:;

//--------------- dance-single - forcednature ----------------
#NOTEDATA:;
#STEPSTYPE:dance-single;
#DESCRIPTION:forcednature;
#DIFFICULTY:Beginner;
#METER:2;
#RADARVALUES:0,0,0,0,0;
#CREDIT:forcednature;
#NOTES:
0000
0000
0000
0000
,
0000
0000
0000
0000
,
0000
0000
0000
0000
,
0000
0000
0000
0000
,
0000
0000
0000
0000
,
1000
0000
0000
0000
,
0001
0000
0000
0000
,
0100
0000
0000
0000
,
0010
0000
0000
0000
,
1001
0000
0000
0000
,
1000
0000
0000
0000
,
0001
0000
0000
0000
,
0100
0000
0000
0000
,
0001
0000
0000
0000
,
0010
0000
0000
0000
,
0100
0000
0000
0000
,
1000
0000
0000
0000
,
1001
0000
0000
0000
,
0001
0000
0000
0000
,
0100
0000
0000
0000
,
0010
0000
0000
0000
,
1000
0000
0000
0000
,
0100
0000
0000
0000
,
1000
0000
0000
0000
,
0010
0000
0000
0000
,
1001
0000
0000
0000
,
1000
0000
0000
0000
,
1000
0000
0000
0000
,
0100
0000
0000
0000
,
0010
0000
0000
0000
,
0010
0000
0000
0000
,
0010
0000
0000
0000
,
0001
0000
0000
0000
,
1001
0000
0000
0000
,
1000
0000
0000
0000
,
0010
0000
0000
0000
,
1000
0000
0000
0000
,
0000
0001
0000
0000
,
0010
0000
0000
0000
,
0001
0000
0000
0000
,
0100
0000
0000
0000
,
1001
0000
0000
0000
,
0000
0000
0000
0000
,
1000
0000
0000
0000
,
0100
0000
0000
0000
,
1000
0000
0000
0000
,
0000
0000
0000
0000
,
0001
0000
0000
0000
,
0100
0000
0000
0000
,
2002
0000
0000
0000
,
0000
0000
0000
0000
,
0000
0000
0000
0000
,
3003
0000
0000
0000
,
0110
0000
0000
0000
,
0001
0000
1000
0000
,
0001
0000
0000
0000
,
0010
0000
0000
0000
,
0100
0000
0000
0000
,
1000
0000
0001
0000
,
1000
0000
0000
0000
,
0010
0000
0000
0000
,
1001
0000
0000
0000
,
0001
0000
0100
0000
,
0001
0000
0000
0000
,
1000
0000
0000
0000
,
0010
0000
0000
0000
,
1000
0000
0100
0000
,
1000
0000
0000
0000
,
0001
0000
0000
0000
,
0010
0000
0000
0000
,
0100
0000
0000
0000
,
1000
0000
0000
0000
,
0100
0000
0000
0000
,
1000
0000
0000
0000
,
0001
0000
0000
0000
,
0100
0000
0000
0000
,
0010
0000
0000
0000
,
1000
0000
0000
0001
;

//--------------- dance-single - forcednature ----------------
#NOTEDATA:;
#STEPSTYPE:dance-single;
#DESCRIPTION:forcednature;
#DIFFICULTY:Easy;
#METER:6;
#RADARVALUES:0,0,0,0,0;
#CREDIT:forcednature;
#NOTES:
0000
0000
0000
0000
,
0000
0000
0000
0000
,
0000
0000
0000
0000
,
0000
0000
0000
0000
,
0000
0000
0000
0000
,
1000
0000
0000
1000
0000
0000
1000
0000
,
0001
0100
0010
1000
,
0001
0000
0000
0001
0000
0000
0001
0000
,
2000
0000
0000
3100
,
1001
0000
0001
0100
,
0010
1000
0001
0000
,
0010
0100
1000
0000
,
0100
0010
0001
0000
,
1001
0000
1000
0010
,
0100
0001
1000
0000
,
0100
0010
0001
0000
,
0100
0010
1000
0000
,
1001
0000
0001
0010
,
0001
1000
0010
0000
,
0100
0001
1000
0000
,
0100
1000
0001
0100
,
0010
0000
1000
0100
,
1000
0010
0100
0000
,
0001
0010
0100
0000
,
0010
0010
0001
0000
,
0100
0010
1000
0000
,
0100
0010
0001
0000
,
1000
0001
0100
0001
,
1000
0000
0010
1000
,
0001
0000
0010
0100
,
2000
0000
0000
3010
,
1000
0000
0001
0100
,
0001
0000
0010
0100
,
1001
0000
1000
0100
,
1000
0001
0010
0000
,
0001
0000
0100
0000
0000
0100
0000
0000
,
0010
1000
0001
2000
,
3000
1001
0000
0001
,
0010
0001
0100
0000
,
0110
0000
1001
0000
,
1000
0100
0010
0001
,
0100
0000
0100
0001
,
0010
0000
0010
0100
,
2000
0000
3002
0000
,
0103
0010
1000
0000
,
0001
0000
0001
0010
,
0100
0000
0100
1000
,
0020
0000
0230
0000
,
0301
0000
1000
0100
,
2002
0000
0000
0000
,
0000
0000
0000
0000
,
0000
0000
0000
0000
,
3003
0020
0000
0030
,
1001
0000
1000
0100
,
0010
0001
0100
0000
,
0010
1000
0001
0000
,
0010
0001
1000
0000
,
1001
0000
0001
0100
,
0010
1000
0001
0000
,
0010
0100
1000
0000
,
0100
0010
0001
0000
,
1001
0000
1000
0001
,
0100
0010
1000
0000
,
0100
1000
0010
0000
,
0100
0001
0010
0000
,
0000
1001
0000
1000
,
0100
0010
0001
0000
,
0100
0100
0001
0001
,
0000
1000
0100
0010
,
0002
0000
0103
0010
,
1000
0000
0000
1000
0000
0000
1000
0000
,
0100
1000
0001
0010
,
0001
0000
0000
0001
0000
0000
0001
0000
,
0100
0001
1000
0010
,
0100
0000
0000
0100
0000
0000
0100
0000
,
0001
1000
0001
0010
,
0100
0000
0000
0100
0000
0000
0100
0000
,
1000
0001
0100
1001
;

//--------------- dance-single - forcednature ----------------
#NOTEDATA:;
#STEPSTYPE:dance-single;
#DESCRIPTION:forcednature;
#DIFFICULTY:Medium;
#METER:12;
#RADARVALUES:0,0,0,0,0;
#CREDIT:forcednature;
#NOTES:
0000
0000
0000
0000
,
0000
0000
0000
0000
,
0000
0000
0000
0000
,
0000
0000
0000
0000
,
0000
0000
0000
0000
,
0001
0000
0000
0001
0000
0000
1000
0000
0000
1000
0000
0000
0001
0000
0000
0000
,
0100
0000
0010
0000
1000
0100
0010
0000
,
0100
0000
0000
0100
0000
0000
0010
0000
0000
0010
0000
0000
0100
0000
0000
0000
,
2000
0000
3020
0000
0130
0001
0010
0000
,
0110
0000
0001
0000
1000
0010
0100
0000
,
0001
0010
0100
1000
0001
0100
1000
0000
,
0110
0000
0000
0000
0001
0000
0000
0000
1000
0000
0100
0000
0010
0001
0000
0000
,
0010
0000
0100
0000
1000
0000
0000
0010
0000
0000
0100
0000
0001
0000
0000
0000
,
1001
0000
0101
0000
0001
0010
0100
0000
,
1000
1000
0100
0001
0001
0100
0010
0000
,
1001
0000
0001
0100
0001
1000
0010
0100
,
0200
0000
1300
0100
0001
0100
0010
0000
,
1001
0000
0001
0000
0010
0100
1000
0000
,
0010
0000
0001
0000
0010
0000
0000
0100
0000
0000
0001
0000
0010
0000
0000
0000
,
0110
0000
1000
0000
0001
0100
0010
0000
,
1000
1000
0100
0001
0100
0100
0100
0000
,
1001
0000
0001
0000
1000
0010
0100
0000
,
0000
0001
0000
0000
1000
0000
0000
0100
0000
0000
0010
0000
0010
0000
0000
0000
,
0001
0100
1000
0000
0100
0001
0010
0000
,
0000
0100
0000
0000
1000
0000
0000
0010
0000
0000
0001
0000
0100
0000
0000
0000
,
1001
0000
0100
0000
1000
1000
0001
0000
,
0201
0000
1300
1000
0100
0001
1000
0000
,
1001
0000
0001
0010
0001
0100
0010
0000
,
0100
0000
0000
1000
0000
0000
0100
0000
0000
0000
0001
0000
1000
0000
0000
0000
,
0110
0000
0001
0000
0100
0001
0010
0100
,
2000
0000
3002
0000
0103
0010
1001
0000
,
0010
1000
0001
0000
0100
0001
0010
0000
,
0200
0000
0301
0100
1000
0010
1001
0000
,
1100
0000
0010
0000
0001
0100
0010
0000
,
1000
0001
0010
0010
0001
1000
0010
0000
,
0110
0000
0001
0100
1000
0100
0001
0000
,
0010
0010
0100
0100
0000
1000
0001
1000
,
0000
0000
0101
0000
0001
0010
0100
0000
,
1000
0010
0100
0100
0001
1000
0100
0000
,
0010
0000
0001
0010
0000
0000
0001
0000
1000
0001
0000
0000
,
0100
0000
0000
0001
1000
0001
1000
0000
0000
0110
0000
0000
,
1001
0001
0101
0000
,
0010
0010
1000
0000
0110
0000
0001
0010
,
0100
0000
0000
0000
1000
0000
0000
0000
0010
0000
0000
0010
0000
0000
0010
0000
,
0100
0001
1000
0001
0000
0000
0110
0000
0000
0001
0000
0000
,
1100
1000
1010
0000
,
0100
0001
0010
0000
0110
0000
1000
0010
,
0100
0000
0000
0000
0001
0000
0000
0000
1000
0000
0000
1000
0000
0000
1000
0000
,
0100
0000
1000
0000
0001
0000
0010
0000
0000
0000
0000
0000
1000
0000
0000
0001
0000
0000
1001
0000
0000
0000
0000
0000
,
2000
0100
0001
0100
,
0010
0001
0010
3000
,
0002
0100
1000
0010
,
1003
0000
0100
0100
0010
0010
0001
0001
,
1000
0000
0010
0000
0100
0100
0001
0010
,
0000
0100
0000
1000
0001
0100
0010
0000
,
0100
0010
1000
0001
0010
0010
0100
1000
,
0000
0001
0100
0010
1000
0100
0010
0000
,
1001
0000
0100
0000
1000
1000
0010
1000
,
0000
0100
0000
0010
0001
0100
0010
0000
,
1000
0100
1000
1000
0001
0100
1000
0100
,
0000
0001
1000
0100
0010
0010
1001
0000
,
1010
0000
0001
0000
0100
0100
0010
0100
,
0000
0001
0010
0100
0010
0100
1000
0000
,
0010
0100
1000
0100
0001
0001
1000
0010
,
0000
1000
0100
0010
0000
0001
1000
0010
,
0000
0000
1001
0000
0010
0010
1000
0001
,
0000
1000
0010
0100
0001
1000
0100
0000
,
0010
0001
0100
0100
0010
1000
0001
1001
,
0000
0110
0010
1001
0000
0100
1001
0000
,
0020
0000
0100
0000
0100
0100
0130
0000
,
1001
0000
0000
0001
0000
0000
1000
0000
0000
0001
0000
0000
1001
0000
0000
0000
,
0001
0100
0001
0001
0100
0010
1000
1000
,
0100
0000
0000
0010
0000
0000
0001
0000
0000
1000
0000
0000
1010
0000
0000
0000
,
0100
0001
0100
0100
0010
1000
0010
0010
,
1000
0000
0000
0100
0000
0000
0001
0000
0000
0100
0000
0000
1100
0000
0000
0000
,
0010
0100
0001
0001
1000
0100
0010
0010
,
0100
0000
0000
1000
0000
0000
0100
0000
0000
0001
0000
0000
0110
0000
0000
0000
,
0020
0000
0031
1000
0010
0100
1001
0000
;

//--------------- dance-single - forcednature ----------------
#NOTEDATA:;
#STEPSTYPE:dance-single;
#DESCRIPTION:forcednature;
#DIFFICULTY:Hard;
#METER:15;
#RADARVALUES:0,0,0,0,0;
#CREDIT:forcednature;
#NOTES:
0000
0000
0000
0000
,
0000
0000
0000
0000
,
0000
0000
0000
0000
,
0000
0000
0000
0000
,
0000
0000
0000
0000
,
1001
0000
0000
1100
0000
0000
1001
0000
0000
0101
0000
0000
1001
0000
0000
0000
,
1000
1000
0100
0001
0100
0100
0010
0000
,
0011
0000
0000
0110
0000
0000
1100
0000
0000
0110
0000
0000
1001
0000
0000
0000
,
0002
0000
0103
0100
1000
0100
1001
0000
,
0110
0000
0000
0000
0001
0000
0000
0001
1000
0000
0010
0000
0100
0001
0100
0000
,
0010
1000
0000
0000
0001
0000
0100
0000
1000
0000
1000
0000
0100
0000
0000
0000
,
0110
0000
0000
0000
1000
0000
0000
1000
0100
0000
0100
0000
0001
0000
0100
0000
,
0010
0001
0000
0000
1000
0000
0000
0110
0000
0000
1000
0000
0001
0000
0000
0000
,
0100
0000
0000
0100
0001
0000
0001
0000
0010
0000
0010
0000
0100
0000
1000
0000
,
0000
0010
0000
0000
0110
0000
0100
0000
0001
0000
1000
0000
0001
0000
0000
0000
,
0100
0000
0000
0100
1000
0000
0100
0000
0001
0000
1000
0000
0100
0000
0001
0000
,
0200
0000
0000
0000
0310
0001
0010
0000
0001
1000
0001
0000
0100
0000
0010
0000
,
1001
0000
0101
0000
1000
0100
1000
0010
,
0000
0110
0000
0000
0001
0000
0000
0101
0000
0000
1010
0000
1001
0000
0000
0000
,
0001
0000
0100
0000
1000
0000
0100
0010
0100
0000
0100
0000
0001
0000
1000
0000
,
0020
0001
0100
1000
1030
0010
0010
0000
,
1000
0000
0100
0000
0010
0000
0000
0010
0001
0000
0100
0000
1000
0000
0100
0000
,
0000
1001
0000
0000
0010
0000
0000
0110
0000
0000
1001
0000
0001
0000
0000
0000
,
1000
0001
0100
1000
0001
0010
1000
0001
,
1000
0100
0000
0000
1000
0000
0001
0100
0000
0000
0001
0000
1001
0000
0000
0000
,
0110
0000
0001
1000
0100
0010
0100
0000
,
1100
0000
0001
0100
1000
0001
0010
0000
,
0110
0000
0000
0000
0001
0100
0001
0000
1000
0000
1000
0000
0100
0010
0000
0000
,
0001
0000
0000
0100
0000
0000
1000
0000
0100
0000
0010
0000
0100
0010
0100
0010
,
1000
0000
0000
0001
0010
0000
0000
0000
0100
0000
1000
0000
0001
0000
0100
0000
,
0020
0001
0100
1000
0130
0100
0110
0000
,
1000
0000
0000
1000
0001
0000
0010
0000
0000
0100
1000
0000
0010
0000
1000
0000
,
0200
0000
0000
0000
0310
0001
0010
0001
1000
0010
1000
0010
0100
0000
0000
0000
,
1001
0000
0000
0000
1100
0000
0000
0100
0010
0000
0001
0000
0100
0000
0001
0000
,
0010
0000
0000
0000
0110
0000
0000
0100
1000
0000
0001
0000
0100
0000
1000
0000
,
0100
0000
0000
0000
0101
0000
0001
0000
0000
0000
1100
0000
1000
0100
0000
0000
,
1000
1000
0001
0200
0000
0010
1000
0010
,
0300
0000
0000
0000
1001
0000
0000
0001
0010
0000
0100
0000
0001
0000
0000
0000
,
0110
0000
0000
0000
1000
0000
0000
1000
0010
0000
0100
0000
0001
0000
0000
0000
,
0010
0001
0010
0100
1000
0010
0100
0001
1000
0100
0010
0001
,
2000
0000
0000
3001
0100
1000
0100
0000
0000
1001
0000
0000
,
1000
0000
0000
0001
0000
0000
0100
0000
0000
0010
0000
0000
1000
0000
0001
1000
,
0001
0000
0001
0000
1000
0100
0000
0100
0010
0000
0001
0000
0100
0000
0010
0000
,
0100
1000
0000
0000
0100
0001
0000
0000
0110
0000
0000
1001
0000
0000
0110
0000
,
1000
0000
0001
0000
0100
0000
0010
0000
1000
0000
0001
0000
0010
0000
0000
0010
0000
0000
0100
0000
0000
0100
0000
0000
,
1000
0000
0000
0001
0000
0000
0010
0000
0000
0100
0000
0000
1000
0000
0010
1000
,
0010
0000
0010
0000
0100
0001
0000
0001
0100
0000
0001
0000
0010
0000
1000
0000
,
0010
0100
0000
0000
1000
0100
0000
0000
0011
0000
0000
0101
0000
0000
1010
0000
,
0001
0000
0100
0000
0001
0000
0010
0000
0100
0000
1000
0000
0010
0000
0000
0010
0000
0000
1001
0000
0000
0000
0000
0000
,
0210
1000
0301
0000
,
2000
0010
3001
0000
,
0002
1000
0010
0000
,
0103
0000
0000
0000
0100
0001
0100
0001
1000
0100
1000
0100
1000
0001
1000
0001
,
0100
0000
0000
0000
0001
0000
0000
0010
0001
0000
0100
0000
0010
0000
0210
0000
,
0000
1300
0100
0001
1000
0100
0001
0000
,
0100
0000
0010
0000
0001
0000
0000
0001
1000
0000
0010
0000
0100
0000
0101
0000
,
0000
0000
1000
0000
0010
0000
0001
0000
0010
0000
0100
0000
0001
0100
0001
0000
,
1000
0100
0010
0001
0100
0000
0000
0100
0010
0000
1000
0000
0001
0000
0021
0000
,
0000
1030
0010
0001
1000
0010
0001
0000
,
0010
0000
0100
0000
0001
1000
0001
1000
0001
0000
0010
0000
0100
0000
1100
0000
,
0000
1000
0001
0000
0100
0000
0010
0000
1000
0000
1000
0000
1001
0000
0000
0000
,
0001
0100
0010
1000
0001
0000
0000
0001
0010
0000
0100
0000
1000
0000
1020
0000
,
0000
0000
0130
0010
0100
0000
1000
0000
0100
0000
0001
0000
0010
0000
0000
0000
,
0100
0001
0100
1000
0010
0100
0001
1001
,
0000
0000
0001
0000
0100
0000
0001
0000
0010
0001
0010
0000
0100
1000
0100
0000
,
0010
0001
1000
0010
0200
0000
0000
0000
0301
0000
0010
0000
0100
0000
1200
0000
,
0000
0301
0100
1000
0001
0100
1000
0000
,
0100
0000
0001
0000
1000
0100
1000
0100
1000
0000
0010
0000
0100
0000
0101
0000
,
0000
1100
0000
0110
0100
0100
1001
0000
,
0001
0000
0001
0000
0100
0000
0000
0000
0010
1000
0010
0000
1001
0000
0000
0000
,
0110
0000
0000
1010
0000
0000
0101
0000
0000
0110
0000
0000
1001
0000
0000
0000
,
0001
0000
0100
0000
0010
1000
0010
0000
1000
0100
1000
0000
0010
0000
0000
0000
,
0101
0000
0000
0110
0000
0000
1100
0000
0000
0110
0000
0000
1001
0000
0000
0000
,
1000
0000
0100
0000
0010
0001
0010
0000
0001
0100
0001
0000
0010
0000
0000
0000
,
1100
0000
0000
0101
0000
0000
0011
0000
0000
1010
0000
0000
1001
0000
0000
0000
,
0001
0000
0010
0000
0001
0100
0001
0000
1000
0010
1000
0000
0100
0000
0000
0000
,
0011
0000
0000
1100
0000
0000
1010
0000
0000
0101
0000
0000
1001
0000
0000
0000
,
0001
0000
1000
0000
0100
0010
0100
0000
1000
0001
1000
0001
0100
0000
0000
0000
;

//--------------- dance-double - forcednature ----------------
#NOTEDATA:;
#STEPSTYPE:dance-double;
#DESCRIPTION:forcednature;
#DIFFICULTY:Easy;
#METER:6;
#RADARVALUES:0,0,0,0,0;
#CREDIT:forcednature;
#NOTES:
00000000
00000000
00000000
00000000
,
00000000
00000000
00000000
00000000
,
00000000
00000000
00000000
00000000
,
00000000
00000000
00000000
00000000
,
00000000
00000000
00000000
00000000
,
00001000
00000000
00000000
00001000
00000000
00000000
00001000
00000000
,
00010000
00000100
00001000
00000010
,
00010000
00000000
00000000
00010000
00000000
00000000
00010000
00000000
,
00002000
00000000
00000000
01003000
,
00010000
00000000
00010000
00000000
,
10000000
01000000
10000000
00000000
,
00010000
01000000
00010000
00000000
,
00010000
00100000
00001000
00000000
,
00011000
00000000
00010000
00000000
,
00000010
00001000
00000100
00000000
,
00000010
00000001
00001000
00000000
,
00001000
00000001
00000100
00000000
,
00000110
00000000
00000010
00010000
,
00001000
01000000
00010000
00000000
,
10000000
01000000
00100000
00000000
,
00100000
01000000
10000000
00000000
,
00010000
00000000
00010000
01000000
,
00001000
00010000
00000100
00000000
,
00000100
00001000
00000001
00000000
,
00000100
00000100
00000010
00000000
,
00001000
00000100
00010000
00000000
,
00001000
01000000
00010000
00000000
,
00100000
01000000
10000000
01000000
,
00100000
00000000
00001000
00010000
,
00000010
00000000
00001000
00000001
,
00000020
00000000
00000000
00000130
,
00000010
00000000
00001000
00000100
,
00010000
00000000
00001000
01000000
,
00010000
00000000
00010000
10000000
,
00010000
00100000
01000000
00000000
,
01000000
00000000
00100000
00000000
00000000
00100000
00000000
00000000
,
00001000
00010000
00000010
00002000
,
00003000
00001001
00000000
00000001
,
00000010
00000001
00000100
00000000
,
00000110
00000000
00001001
00000000
,
00001000
00000100
00010000
00001000
,
01000000
00000000
01000000
00001000
,
00010000
00000000
00010000
00001000
,
00200000
00000000
02300000
00000000
,
03100000
00010000
10000000
00000000
,
10000000
00000000
10000000
00010000
,
01000000
00000000
00001000
00010000
,
00000020
00000000
00002030
00000000
,
00003001
00000000
00000001
00000010
,
00002002
00000000
00000000
00000000
,
00000000
00000000
00000000
00000000
,
00000000
00000000
00000000
00000000
,
00003003
00000020
00000000
00000030
,
00000110
00000000
00001000
00000100
,
00010000
00001000
00100000
00000000
,
00001000
00010000
00000010
00000000
,
00010000
00001000
01000000
00000000
,
01100000
00000000
00100000
10000000
,
00010000
10000000
01000000
00000000
,
00100000
00001000
00010000
00000000
,
00000010
00010000
00001000
00000000
,
00011000
00000000
00001000
00010000
,
00000100
00001000
00000100
00000000
,
00000010
00000001
00001000
00000000
,
00000010
00010000
00001000
00000000
,
00000000
00011000
00000000
00010000
,
00001000
01000000
00010000
00000000
,
10000000
10000000
00010000
00010000
,
00000000
00100000
00001000
00010000
,
00000200
00000000
00001300
00000001
,
00000100
00000000
00000000
00000100
00000000
00000000
00000100
00000000
,
00000010
00001000
00000010
00010000
,
00001000
00000000
00000000
00001000
00000000
00000000
00001000
00000000
,
00100000
00010000
10000000
00010000
,
01000000
00000000
00000000
01000000
00000000
00000000
01000000
00000000
,
00100000
10000000
00010000
10000000
,
01000000
00000000
00000000
01000000
00000000
00000000
01000000
00000000
,
00100000
00001000
00010000
00011000
;

//--------------- dance-double - forcednature ----------------
#NOTEDATA:;
#STEPSTYPE:dance-double;
#DESCRIPTION:forcednature;
#DIFFICULTY:Medium;
#METER:12;
#RADARVALUES:0,0,0,0,0;
#CREDIT:forcednature;
#NOTES:
00000000
00000000
00000000
00000000
,
00000000
00000000
00000000
00000000
,
00000000
00000000
00000000
00000000
,
00000000
00000000
00000000
00000000
,
00000000
00000000
00000000
00000000
,
00001000
00000000
00000000
00001000
00000000
00000000
00010000
00000000
00000000
00010000
00000000
00000000
00001000
00000000
00000000
00000000
,
01000000
00010000
00100000
00000000
01000000
10000000
00100000
00000000
,
01000000
00000000
00000000
01000000
00000000
00000000
00010000
00000000
00000000
00010000
00000000
00000000
10000000
00000000
00000000
00000000
,
01000000
00000000
00010000
00000000
00001000
00010000
00011000
00000000
,
00001000
00000000
00000010
00000000
00000001
00000100
00000001
00000000
,
00000010
00000100
00001000
00000000
00000100
00010000
00001000
00000000
,
01000000
00000000
00010000
00100000
01000000
00100000
00010000
00000000
,
10000000
00100000
00010000
00000000
00100000
10000000
00010000
00000000
,
01010000
00000000
01000000
00001000
00010000
00000010
00001000
00000000
,
00000100
00000001
00000100
00000000
00001000
00000001
00000010
00000000
,
00000110
00000000
00000100
00010000
00001000
00100000
00001000
00010000
,
00000000
00000000
00000010
00010000
00001000
01000000
00001000
00010000
,
00000000
00100000
10000000
00000000
00010000
01000000
00010000
00100000
,
00000000
01000000
00000000
00000000
01000000
00000000
00000000
10000000
00000000
00000000
00010000
00000000
00100000
00000000
00000000
00000000
,
00000000
00001000
00010000
00000000
00000010
00001000
00000010
00000100
,
00000000
00000001
00001000
00000001
00001000
00001000
00000001
00000000
,
00000010
00000100
00001000
00000000
00000100
00010000
00001000
00100000
,
00000000
00001000
00000000
00000000
00001000
00000000
00000000
00010000
00000000
00000000
00000010
00000000
00001000
00000000
00000000
00000000
,
00000001
00000010
00000100
00000000
00001000
00000000
00000100
00010000
,
00000000
00001000
00000000
00000000
00001000
00000000
00000000
00010000
00000000
00000000
00010000
00000000
00001000
00000000
00000000
00000000
,
01000000
00010000
00100000
00000000
01000000
10000000
00100000
00000000
,
01100000
00000000
01000000
00010000
10000000
01000000
00010000
00000000
,
00001000
00100000
00010000
00000000
00100000
00001000
00010000
00000000
,
00000010
00000000
00000000
00000010
00000000
00000000
00001000
00000000
00000001
00000000
00000100
00000000
00000010
00000000
00000000
00000000
,
00000110
00000000
00000100
00000001
00001000
00000001
00000010
00000000
,
00000200
00000000
00020300
00000000
00031000
00100000
00110000
00000000
,
00010000
01000000
00001000
00000000
00010000
00100000
10000000
00000000
,
12000000
00000000
03010000
00001000
00000010
00000000
00000110
00000000
,
00001001
00000000
00000001
00000100
00001000
00000100
00000001
00000000
,
00001000
00000010
00010000
00001000
01000000
00010000
00100000
00000000
,
01100000
00000000
01000000
00010000
00000000
00000100
00001000
00000000
,
00000001
00000100
00001000
00000200
00000000
00000301
00001000
00000010
,
00000000
00000000
00011000
00000000
00100000
00010000
01000000
00001000
,
00010000
00000000
00100000
10000000
00010000
00000000
01010000
00000000
,
20000000
32000000
03020000
00032000
,
00003010
00000000
00000000
00000100
00000010
00000100
00000010
00000000
00000000
00001001
00000000
00000000
,
00000001
00000000
00000100
00000000
00001000
00010000
00001000
00000000
,
00010000
00000000
00100000
00000000
10000000
00010000
10000000
00000000
,
02000000
00000000
00000000
00000000
03020000
00000000
00000000
00000000
00031000
00000000
00000000
00001000
00000000
00000000
00001000
00000000
,
00100000
00000000
00010000
00000000
00100000
00001000
00010000
00000000
,
00000010
00000000
00001000
00000000
00000100
00010000
00001000
00000000
,
00100000
00000000
00010000
00000000
01000000
00001000
00010000
00000000
,
00200000
00000000
00000000
00000000
20300000
00000000
00000000
00000000
31000000
00000000
00000000
01000000
00000000
00000000
01000000
00000000
,
00100000
00000000
00001000
00000000
00010000
00000100
00001000
00000000
,
00002002
00000000
00000000
00000000
,
00000000
00000000
00000000
00000000
,
00000000
00000000
00000000
00000000
,
00003003
00000000
00000000
00000000
,
00000001
00000100
00001000
00000000
00010000
00001000
00010000
00100000
,
00000000
10000000
00100000
01000000
00010000
01000000
00100000
00000000
,
10000000
01000000
00010000
00000000
00001000
00010000
01000000
00010000
,
00000000
00001000
00010000
00001000
00000010
00000001
00001000
00000000
,
00000010
00000100
00000001
00000000
00000100
00000010
00001000
00000001
,
00000000
00000010
00001000
00010000
00001000
01000000
00010000
00000000
,
00100000
00001000
00010000
00100000
01000000
00010000
10000000
01000000
,
00000000
01100000
00000000
00100000
00001000
00010000
00000010
00000000
,
00001000
00000100
00000001
00000100
00001000
00000001
00000010
00000001
,
00000000
00000100
00001000
00010000
00001000
00010000
00100000
00000000
,
01000000
00010000
10000000
00100000
00000000
10000000
01000000
00010000
,
00000000
00011000
00000000
00001000
00000010
00000001
00000010
00000000
,
00000000
00000000
00011000
00000000
01000000
00010000
00100000
01000000
,
00000000
00100000
00001000
00010000
00000010
00001000
00000100
00000000
,
00000110
00000000
00000010
00000001
00000100
00000001
00000010
00001000
,
00000000
00011000
00000000
00010000
01000000
10000000
00100000
00000000
,
20000000
00000000
30020000
00000000
01030000
01000000
01100000
00000000
,
00100000
00000000
00000000
10000000
00000000
00000000
01000000
00000000
00000000
00010000
00000000
00000000
00001000
00000000
00000000
00000000
,
00100000
00010000
00100000
00000000
00001000
00010000
00001000
00000000
,
00010000
00000000
00000000
00001000
00000000
00000000
00000010
00000000
00000000
00000001
00000000
00000000
00000100
00000000
00000000
00000000
,
00000010
00001000
00000010
00000000
00000100
00000001
00000100
00000000
,
00000001
00000000
00000000
00000010
00000000
00000000
00001000
00000000
00000000
00010000
00000000
00000000
01000000
00000000
00000000
00000000
,
00100000
00001000
00010000
00000000
00000010
00010000
00001000
00000000
,
00000010
00000000
00000000
00000100
00000000
00000000
00010000
00000000
00000000
00001000
00000000
00000000
00100000
00000000
00000000
00000000
,
02000000
00000000
13000000
00100000
00010000
00001000
00011000
00000000
;

//--------------- dance-double - forcednature ----------------
#NOTEDATA:;
#STEPSTYPE:dance-double;
#DESCRIPTION:forcednature;
#DIFFICULTY:Hard;
#METER:15;
#RADARVALUES:0,0,0,0,0;
#CREDIT:forcednature;
#NOTES:
00000000
00000000
00000000
00000000
,
00000000
00000000
00000000
00000000
,
00000000
00000000
00000000
00000000
,
00000000
00000000
00000000
00000000
,
00000000
00000000
00000000
00000000
,
00001000
00000000
00000000
00011000
00000000
00000000
00010000
00000000
00000000
00011000
00000000
00000000
00000100
00000000
00000000
00000000
,
00001000
00000010
00000001
00000010
00001000
00000100
00010000
00000000
,
00001000
00000000
00000000
00011000
00000000
00000000
00010000
00000000
00000000
00011000
00000000
00000000
01000000
00000000
00000000
00000000
,
00010000
00100000
20000000
00000000
30010000
01000000
20000000
00000000
,
30100000
01000000
00001000
00100000
01000000
00010000
00001000
00000000
,
00101000
00000000
00010100
00000000
00000100
00001000
00000010
00000000
,
00000100
00001000
00000100
00000001
00001000
00000010
00010000
00000000
,
00001000
00000000
00000010
00000000
00000100
00000000
00000000
00000110
00000000
00000000
00000010
00000000
00000001
00000000
00000000
00000000
,
00001000
00000010
00010000
00001000
01000000
00010000
00100000
01000000
,
00000000
10000000
01000000
00000000
00100000
00000000
01000000
00000000
00100000
00000000
00000000
00001000
00010000
00000000
00000000
00000000
,
00011000
00000000
00000000
00000000
00000010
00001000
00000010
00001000
00000001
00000100
00000001
00000100
00000010
00000000
00010000
00000000
,
00002000
00000000
00000000
00000000
00103000
00010000
00100000
00010000
10000000
01000000
10000000
01000000
00100000
00000000
00001000
00000000
,
00011000
00000000
00010000
00000100
00000010
00001000
00000001
00000010
,
00000000
00000110
00000000
00000000
00000100
00000000
00000000
00010000
00000000
00000000
00001000
00000000
00011000
00000000
00000000
00000000
,
01000000
00010000
00100000
01000000
00010000
01000000
10000000
00010000
,
00200000
00000000
01300000
00010000
00001000
00000100
00001000
00000000
,
00011000
00000000
00010000
00000010
00001000
00000001
00000010
00001000
,
00000000
00011000
00000000
00000000
00010000
00000000
00000000
01000000
00000000
00000000
00100000
00000000
10010000
00000000
00000000
00000000
,
10000000
00000000
01000000
00000000
00010000
00000000
00001000
00010000
00001000
00000000
00100000
00000000
00010000
00000000
01000000
00000000
,
00000000
01010000
00000000
00000000
01001000
00000000
00000000
00011000
00000000
00000000
00000010
00000000
00002010
00000000
00000000
00000000
,
00003001
00000000
00000010
00000000
00001000
00000000
00010000
00000000
00001000
00010000
00001000
00000000
00100000
00000000
00000000
00000000
,
00110000
00000000
00010000
01000000
10000000
01000000
00010000
00000000
,
00100000
00000000
00001000
00000000
00010000
00000000
01000000
00000000
00100000
00000000
00001000
00000000
00010000
00001000
00000000
00000000
,
00020000
00000000
00000000
00032000
00000000
00000000
00003020
00000000
00000031
00000000
00001000
00000000
00000100
00001000
00000100
00010000
,
00001000
00000000
00000000
00001000
00100000
00000000
00010000
00000000
01000000
00000000
00100000
00000000
10100000
00000000
00000000
00000000
,
20000000
32000000
03020000
00032000
00003010
00000100
00000110
00000000
,
00000010
00000000
00000000
00000010
00000001
00000000
00001000
00000100
00001000
00000000
00000100
00000000
00010000
00001000
00000000
00000000
,
00011000
00000000
00000000
00000000
01000000
00010000
01000000
00010000
10000000
00100000
01000000
00010000
20000000
00000000
00000000
00000000
,
31000000
00010000
00001000
00100000
00001000
00010000
00000100
00010000
,
00001000
00000000
00000010
00000000
00000001
00000000
00000100
00000000
00000001
00001000
00000010
00000000
00000100
00000000
00000000
00000000
,
00000001
00000000
00000010
00000000
00001000
00000000
00010000
00000000
00000000
00000000
00011000
00000000
00000000
00001000
00010000
00000000
,
00200000
02300000
03020000
00230000
00000000
01300000
00010000
00001000
,
00000000
00000000
00000110
00000000
00000001
00000100
00001000
00000100
,
00000010
00001000
00000010
00000000
00010000
00000000
00001000
00000000
01000000
00000000
00010000
00000000
00110000
00000000
00000000
00000000
,
00100000
01000000
00100000
01000000
10000000
00010000
00100000
00010000
00100000
00001000
00010000
00000100
,
00002000
00000000
00000000
00003001
00000100
00000010
00001000
00000000
00000000
00001001
00000000
00000000
,
00000001
00000000
00000000
00000100
00000000
00000000
00001000
00000000
00000000
00010000
00000000
00000000
00100000
00000000
00000000
00000000
,
01000000
00000000
01000000
00000000
00010000
01000000
00000000
00000000
00100000
00000000
10000000
00000000
00010000
00000000
00000000
00000000
,
10000000
01000000
00000000
00000000
00100000
01000000
00000000
00000000
00100000
00000000
00000000
00101000
00000000
00000000
00001000
00000000
,
00010000
00000010
00000100
00001000
00000100
00000010
00010000
00000000
,
00001000
00000000
00000000
00000010
00000000
00000000
00000001
00000000
00000000
00000100
00000000
00000000
00001000
00000000
00000000
00000000
,
00010000
00000000
00010000
00000000
00001000
00010000
00000000
00000000
00001000
00000000
01000000
00000000
00010000
00000000
01000000
00000000
,
00100000
10000000
00000000
00000000
01000000
10000000
00000000
00000000
01000000
00000000
00000000
01100000
00000000
00000000
00100000
00000000
,
00001000
00000000
00010000
00000000
00001000
00000000
00010000
00000000
00000100
00000000
00001000
00000000
00000100
00000000
00000000
00000010
00000000
00000000
00000110
00000000
00000000
00000000
00000000
00000000
,
00002001
00000100
00000001
00000010
,
00023000
01000000
10000000
00100000
,
00032000
00000100
00000001
00000010
,
00003000
00000000
00000000
00000000
00001000
00000100
00001000
00000100
00010000
00001000
00010000
00001000
00100000
00000000
00000000
00000000
,
00001000
00010000
00000100
00010000
00001000
00000000
00000010
00000000
00000001
00000000
00000100
00000000
00001000
00000000
00001100
00000000
,
00000000
00000100
00000001
00000010
00001000
00010000
01000000
00000000
,
00100000
00000000
00001000
00000000
00010000
00001000
00010000
00000000
00001000
00000000
01000000
00000000
00010000
00000000
00110000
00000000
,
00000000
00000000
00100000
00000000
01000000
00000000
10000000
00000000
01000000
00100000
00010000
00000000
00100000
00001000
00010000
00000000
,
00000010
00001000
00000001
00001000
00000010
00000000
00000100
00000000
00000001
00000000
00000010
00000000
00001000
00000000
00020000
00000000
,
00000000
00000000
00030100
00001000
00000100
00000000
00010000
00000000
00001000
00000000
00100000
00000000
00110000
00000000
00000000
00000000
,
00010000
00000000
01000000
00000000
10000000
01000000
10000000
01000000
00010000
00000000
10000000
00000000
00100000
00000000
10100000
00000000
,
00000000
10000000
01000000
00000000
00010000
00000000
00001000
00000000
00000010
00000000
00000010
00000000
00000110
00000000
00000000
00000000
,
00000100
00001000
00000001
00000010
00000100
00000000
00001000
00000000
00000010
00000000
00010000
00000000
00001000
00000000
00021000
00000000
,
00000000
00130000
10000000
01000000
00010000
00001000
00100000
00000000
,
00001000
00000000
00010000
00000000
00000100
00001000
00000100
00001000
00000001
00000000
00000010
00000000
00000001
00000000
00000101
00000000
,
00000000
00000000
00000100
00000000
00001000
00000000
00010000
00000000
00100000
00000000
00010000
00000000
00001000
00010000
00001000
00000000
,
00100000
00000000
00010200
00000000
00000310
00000001
00000100
00000102
,
00000000
00000000
00000013
00000100
00001000
00000000
00000100
00000000
00010000
00000000
00001000
00000000
00101000
00000000
00000000
00000000
,
00100000
00000000
00010000
00000000
10000000
00100000
01000000
00100000
10000000
00000000
01000000
00000000
00010000
00000000
00011000
00000000
,
00000000
01001000
00000000
00010010
00000000
00000100
00001001
00000000
,
00000010
00000000
00000010
00000000
00000010
00000000
00000000
00000000
00000001
00001000
00000001
00000000
00001001
00000000
00000000
00000000
,
00000001
00000100
00000000
00000010
00000100
00000000
00000010
00001000
00000000
00000010
00010000
00000000
00001000
00010000
00001000
00000000
,
01000000
00000000
00010000
00000000
00100000
00010000
00100000
00000000
01000000
00100000
01000000
00000000
10000000
01000000
10000000
00000000
,
01000000
00100000
00000000
00010000
00100000
00000000
00001000
00010000
00000000
00000100
00001000
00000000
00000100
00000010
00000100
00000000
,
00001000
00000001
00000200
00002300
00023000
00230000
01300000
00000000
,
00100000
10000000
00000000
01000000
10000000
00000000
01000000
00100000
00000000
00010000
00100000
00000000
00010000
00000000
01000000
00000000
,
00001000
00000000
00010000
00000000
00000010
00001000
00000010
00000000
00000100
00000010
00000100
00000000
00000001
00000000
00001000
00000000
,
00000100
00001000
00000000
00000100
00010000
00000000
00001000
01000000
00000000
00010000
01000000
00000000
00001000
00010000
00001000
00000000
,
00100000
00000000
00010000
00000000
00001000
00000000
00000100
00000000
00000010
00000001
00001000
00000100
00000010
00000000
00000000
00000000
;
