#VERSION:0.83;
#TITLE:眠りの国のステラ;
#SUBTITLE:;
#ARTIST:BEMANI Sound Team "DJ TOTTO";
#TITLETRANSLIT:Nemuri no kuni no Stella;
#SUBTITLETRANSLIT:;
#ARTISTTRANSLIT:DJ TOTTO;
#GENRE:;
#CREDIT:;
#MUSIC:Nemuri no kuni no Stella.ogg;
#BANNER:Nemuri no kuni no Stella.png;
#BACKGROUND:Nemuri no kuni no Stella-bg.png;
#CDTITLE:./CDTitles/GITADORA EXCHAIN.png;
#SAMPLESTART:63.300;
#SAMPLELENGTH:15.000;
#SELECTABLE:YES;
#OFFSET:1.661;
#BPMS:0.000=193.000;
#STOPS:;
#TIMESIGNATURES:0.000=4=4,
8.000=6=4,
206.000=3=4,
209.000=6=4
;
#BGCHANGES:0.000=../BGAs/27em.mp4=1.000=0=0=0=StretchNoLoop====,
99999.000=-nosongbg-=1.000=0=0=0=StretchNoLoop====
;
#FGCHANGES:;

//--------------- dance-single - forcednature ----------------
#NOTEDATA:;
#STEPSTYPE:dance-single;
#DESCRIPTION:forcednature;
#DIFFICULTY:Beginner;
#METER:3;
#RADARVALUES:0,0,0,0,0;
#CREDIT:forcednature;
#NOTES:
0000
0000
0000
0000
,
0000
0000
0000
0000
,
0000
0000
0000
0000
,
0000
0000
0000
0000
,
0000
0000
0000
0000
,
0000
0000
0000
0000
,
0000
0000
0000
0000
,
0000
0000
0000
0000
,
1000
0000
0000
0000
,
0000
0000
0100
0000
,
0000
0000
0000
0000
,
1000
0000
0000
0000
,
0000
0000
0010
0000
,
0000
0000
0000
0000
,
0100
0000
0000
0000
,
0000
0000
1001
0000
,
0000
0000
0000
0000
,
0001
0000
0000
0000
,
0000
0000
0010
0000
,
0000
0000
0000
0000
,
0001
0000
0000
0000
,
0000
0000
0100
0000
,
0000
0000
0000
0000
,
0010
0000
0000
0000
,
0000
0000
1000
0000
,
0000
0000
0000
0000
,
0001
0000
0000
0000
,
0000
0000
0010
0000
,
0000
0000
0000
0000
,
0100
0000
0000
0000
,
0000
0000
1000
0000
,
0000
0000
0000
0000
,
0001
0000
0000
0000
,
0000
0000
0100
0000
,
0000
0000
0000
0000
,
0010
0000
0000
0000
,
0000
0000
1000
0000
,
0000
0000
0000
0000
,
0001
0000
0000
0000
,
0000
0000
0010
0000
,
0000
0000
0000
0000
,
0000
0000
0000
0000
,
0000
0000
0100
0000
,
0000
0000
0000
0000
,
0000
0000
0000
0000
,
0000
0000
1000
0000
,
0000
0000
0000
0000
,
0000
0000
0000
0000
,
0000
0000
0001
0000
,
0000
0000
0000
0000
,
0100
0000
0000
0000
,
0000
0000
0000
0000
,
0000
1001
0000
0000
,
0000
0000
0000
1000
,
0000
0000
0001
0000
,
0000
1000
0000
0000
,
0000
0000
0000
0010
,
0000
0000
0100
0000
,
0000
0001
0000
0000
,
0000
0000
0000
0001
,
0000
0000
1000
0000
,
0000
0001
0000
0000
,
0000
0000
0000
0010
,
0000
0000
0100
0000
,
0000
1000
0000
1000
,
0000
1000
0000
0001
,
0000
0000
0100
0000
,
0000
1001
0000
0000
,
0000
0000
0000
0001
,
0000
0000
0010
0000
,
0000
0100
0000
0000
,
0000
0000
0000
1000
,
0000
0000
0010
0000
,
0000
0100
0000
0000
,
0000
0000
0000
0001
,
0000
1000
0000
0001
,
0000
2002
0000
0000
,
0000
0000
0000
0000
,
0000
0000
0000
0000
,
0000
3003
0000
0000
,
0000
0000
0000
0000
,
0000
0000
0000
0000
,
0000
1000
0000
0000
,
0100
0000
0000
1000
,
0000
0000
0010
0000
,
0000
0100
0000
0000
,
0001
0000
0000
0010
,
0000
0000
0001
0000
,
0000
0100
0100
0000
,
0010
0010
0000
1000
,
1000
0000
0001
0001
,
0000
0010
0010
0000
,
0100
0100
0000
1000
,
1000
0000
0001
0001
,
0000
2002
0000
0000
,
0000
0000
0000
0000
,
0000
0000
0000
0000
,
3003
0000
0000
0000
;

//--------------- dance-single - forcednature ----------------
#NOTEDATA:;
#STEPSTYPE:dance-single;
#DESCRIPTION:forcednature;
#DIFFICULTY:Easy;
#METER:8;
#RADARVALUES:0,0,0,0,0;
#CREDIT:forcednature;
#NOTES:
0000
0000
0000
0000
,
0000
0000
0000
0000
,
0000
0000
0000
0000
,
0000
0000
0000
0000
,
0000
0000
0000
0000
,
0000
0000
0000
0000
,
0000
0000
0000
0000
,
0000
0000
0000
0000
,
0001
0000
0000
0001
0000
0000
0100
0000
,
0000
0001
0000
0000
1000
0000
0000
1000
,
0000
0000
0100
0000
0000
1000
0000
0000
,
0010
0000
0000
0010
0000
0000
0100
0000
,
0000
0001
0000
0000
0010
0000
0000
0010
,
0000
0200
2300
3002
,
0013
0000
0000
0000
,
0000
0000
0001
0100
,
0001
1000
0010
0000
,
1000
0100
1000
0001
,
0010
0000
0100
1000
,
0010
1000
0100
0000
,
0010
0001
1000
0010
,
0100
0000
1001
0000
,
0001
0100
0010
1000
,
0001
0000
0010
0100
,
1000
0010
0100
0000
,
0001
1000
0100
1000
,
0002
0000
0003
0020
,
0000
0030
0001
0001
,
0001
0100
0010
0000
,
1000
1000
1000
0100
,
0010
0000
0001
0100
,
0001
1000
0010
0000
,
1000
0100
1000
0001
,
0010
0000
0100
0100
,
0100
1000
0001
0000
,
0010
0010
0010
0001
,
1000
0000
0010
0010
,
0100
0001
0001
0100
,
0010
1000
0001
1000
,
0100
0010
0002
0000
,
0000
0000
0003
0000
,
0200
0000
0000
0000
,
0300
0000
0020
0000
,
0030
2000
0000
3000
,
0002
0000
0003
0020
,
0000
0030
0000
0001
,
0100
0010
1000
0010
,
0200
0000
0300
0001
,
1000
0100
0020
0030
,
0001
0200
0000
0300
,
0020
2030
3002
0203
,
0302
2003
3000
0000
,
0000
0000
0001
0000
0010
0000
0001
1000
,
0002
0000
0003
0100
,
0010
1000
0001
0010
,
0100
0000
1000
0000
0010
0000
1000
0001
,
2000
0000
3000
0100
,
0010
0001
0200
0000
,
0300
0010
1000
0010
,
0100
0001
0010
0100
,
0010
0001
1000
0010
,
0000
0100
0001
0100
,
0010
1000
0010
0200
,
0000
0300
0002
0000
,
0003
0000
0010
0000
0100
0000
0010
0100
,
0010
0100
0010
0220
,
0000
0330
2002
0000
,
3003
0000
1000
0000
0100
0000
1000
0001
,
2000
0000
3010
0100
,
0001
0010
0200
0000
,
0310
0000
0001
0000
0100
0000
0001
1000
,
0001
2000
0000
3010
,
1000
0000
0010
0100
0010
0000
0100
0000
,
0001
0000
2000
0000
0000
3000
0001
1000
,
0001
0010
0001
2000
,
3000
0200
0000
0300
0020
0000
0032
0000
,
2003
3020
0000
0000
,
0000
0000
0000
0100
,
0000
0000
0000
0000
,
0030
1000
1000
1000
,
0001
0000
0001
0100
,
0100
0100
0020
0000
,
0030
1000
1000
1000
,
0100
0010
0001
0100
,
0100
0100
0010
1000
,
0001
0010
0010
0010
,
0100
1000
0001
0010
,
0010
0010
0001
1000
,
0010
0100
0100
0100
,
0001
0010
0100
1000
,
1000
1000
0001
0100
,
0010
1000
1000
1000
,
0001
0010
0100
0010
,
0010
0010
0001
1000
,
0010
2002
0000
0000
,
0000
0000
0000
0000
,
0000
0000
0000
0000
,
3003
0000
0000
0000
;

//--------------- dance-single - forcednature ----------------
#NOTEDATA:;
#STEPSTYPE:dance-single;
#DESCRIPTION:forcednature;
#DIFFICULTY:Medium;
#METER:12;
#RADARVALUES:0,0,0,0,0;
#CREDIT:forcednature;
#NOTES:
0000
0000
0000
0000
,
0000
0000
0000
0000
,
0000
0000
0000
0000
,
0000
0000
0000
0000
,
0000
0000
0000
0000
,
0000
0000
0000
0000
,
0000
0000
0000
0000
,
0000
0000
0000
0000
,
0001
1000
0000
1000
0001
0000
0010
0100
,
0000
0100
0010
0000
0001
0100
0000
0100
,
0001
0000
1000
0010
0000
0010
1000
0000
,
0001
0010
0000
0100
0010
0000
0100
1000
,
0000
0001
1000
0000
0010
0100
0000
0001
,
0100
0010
2000
0000
3001
0010
0001
1000
,
0100
0000
0000
0000
,
0000
0000
0110
0001
,
1000
0010
0100
0000
0001
0000
1000
0100
,
0010
0100
1000
0000
0001
0010
0200
0000
,
1000
0300
0010
0001
2000
0000
3010
0100
,
0001
0100
0020
0000
2030
0000
3002
0000
,
0023
0000
0130
1000
0001
0000
0201
0000
,
0010
0300
0001
1000
0010
0000
0100
0001
,
1000
0001
0100
0000
0010
1000
0001
1000
,
0010
0000
1000
0100
0010
0001
0010
0000
,
0100
1000
0001
0100
0010
0000
0100
0001
,
0010
0100
0010
0000
0100
1000
0001
0100
,
0010
0010
0000
1000
0001
0010
0200
0000
,
1000
0000
1300
0000
0001
0010
0100
0010
,
0001
1000
0020
0000
0130
0001
2000
0000
,
3010
0100
0001
0100
0010
1000
0002
0000
,
0013
0100
2000
0000
3001
0001
0100
0001
,
0010
0000
0100
0100
1000
0010
1000
0001
,
0200
0000
0310
1000
0100
0010
0002
0000
,
0203
0000
0310
0000
1000
1000
0100
1000
,
0010
1000
0100
0000
0010
0001
2000
0000
,
3001
0001
0100
0001
0010
0001
0100
0000
,
0010
1000
0002
0000
0013
0100
0100
1000
,
0100
0000
0010
0001
0001
1000
0010
0000
,
0100
0001
1000
0010
1000
0001
0020
0000
,
0230
2300
3002
0000
,
0000
0100
2003
3200
,
0320
0000
0000
0001
0000
0000
0130
0000
,
1000
0001
0200
0320
,
2030
3002
0023
0130
,
2002
0000
3003
0001
0100
0001
2000
0000
,
0010
0010
3010
0000
0110
0000
0200
0000
,
0302
0023
0230
2300
,
3020
0000
0000
0100
0000
0000
1030
0001
,
1000
0100
0010
0000
0001
0001
0002
0000
,
0103
0220
0000
0330
,
0001
0000
0100
0000
0010
0000
1000
0000
0100
0000
0010
0000
,
0001
0000
1000
0001
1000
0010
0000
0000
0000
0000
0000
0000
,
0000
0000
0100
0001
0100
0010
0010
1000
,
0002
0000
0000
0013
0100
1000
0200
0000
,
0310
0001
1000
0001
0100
0000
0110
0000
,
1010
0000
0001
0100
0010
1000
1000
0001
,
0020
0000
0031
0100
0010
1000
0001
0000
,
0010
0000
0001
0100
2000
0000
3000
0100
,
0001
1000
0020
0000
0000
1030
0100
0010
,
0100
1000
0001
0010
0100
0000
1000
0010
,
1000
0000
0000
0001
0000
0000
0100
0000
0000
0000
0000
0000
0001
0000
0010
0000
0100
0000
0020
0000
0000
0000
0000
0000
,
0000
0030
0100
1000
1000
0010
1000
1000
,
0001
0000
0100
0010
1000
0000
0001
0020
,
0000
0230
0000
2300
0000
3002
0000
0203
,
0000
0300
0110
0000
1010
0000
0101
0000
,
1001
0110
1010
2001
,
0010
0010
3010
0000
1002
0000
0010
0010
,
0013
0000
0110
0000
0100
1000
0001
0010
,
0200
0000
0310
0001
0001
1000
0010
0100
,
0001
0100
0010
1000
0002
0000
0000
0013
,
0100
1000
0020
0000
0000
0130
0001
0100
,
0010
1000
0001
0010
0001
1000
0200
0000
,
0000
0310
0010
0001
1000
0010
0100
0001
,
0100
0010
2000
0000
0000
3100
0001
0100
,
1000
0001
0010
0001
1000
0000
0010
0020
,
0000
0130
0200
0000
0301
0001
1000
1000
,
0010
2002
0000
0000
,
0000
0000
0000
0000
,
0000
0000
0000
0000
,
3003
1000
1000
0100
,
1000
0010
1000
0001
,
0001
0100
0001
0020
,
0230
0000
0000
1300
0000
0001
1000
0000
0001
1000
0000
0000
,
0010
0000
0100
0010
0000
0100
0010
0000
0000
1000
0000
0001
,
1000
0000
0001
1000
0000
0000
0100
0000
0010
0100
0000
0010
,
0100
0000
0000
0001
0000
1000
0001
0000
1000
0001
0000
0000
,
0100
0000
0010
0100
0000
0010
0100
0000
0000
0001
0000
1000
,
0001
0000
1000
0001
0000
0000
0010
0000
0100
0010
0000
0100
,
0010
0000
0000
0001
0000
0100
0001
0000
0100
0001
0000
0000
,
1000
0000
0010
1000
0000
0010
1000
0000
0000
0001
0000
0010
,
0001
0000
0010
0001
0000
0000
1000
0000
0100
1000
0000
0100
,
1000
0000
0000
0010
0000
0100
0001
0000
0100
0010
0000
0000
,
1000
0000
0001
0100
0000
0001
1000
0000
0000
0100
0000
0010
,
0001
0000
0010
0100
0000
0000
1000
0000
0001
0100
0000
0001
,
1000
2002
0000
0000
,
0000
0000
0000
0000
,
0000
0000
0000
0000
,
3003
0000
0000
0000
;

//--------------- dance-single - forcednature ----------------
#NOTEDATA:;
#STEPSTYPE:dance-single;
#DESCRIPTION:forcednature;
#DIFFICULTY:Hard;
#METER:16;
#RADARVALUES:0,0,0,0,0;
#CREDIT:forcednature;
#NOTES:
0000
0000
0000
0000
,
0000
0000
0000
0000
,
0000
0000
0000
0000
,
0000
0000
0000
0000
,
0000
0000
0000
0000
,
0000
0000
0000
0000
,
0000
0000
0000
0000
,
0000
0000
0000
0000
,
1000
0100
0000
0001
0100
0000
1000
1010
,
0000
0001
0011
0000
1000
1000
0000
0001
,
0001
0000
0100
0110
0000
0001
0010
0100
,
1000
1010
0000
0001
0101
0000
1000
1100
,
0000
0001
0011
0000
0100
0110
0000
0002
,
2003
3020
0230
0000
0301
0010
0100
1000
,
1001
0000
0000
0000
,
0000
0000
0000
0000
1100
0000
0100
0010
,
0001
0000
0100
0000
0001
1000
0002
0000
0000
0000
0013
0000
0100
0000
1000
0000
,
0010
0100
0001
0100
0010
1000
0002
0000
,
0010
0000
0003
0000
1000
0000
0100
1000
0200
0000
0000
0000
0310
0000
0001
0000
,
1000
0000
0000
0001
0000
0000
0100
0000
0000
0000
0010
0000
0100
0000
0000
0000
0010
0000
1000
0000
0000
0001
0000
0000
,
0010
0000
0000
0000
0100
0000
1000
0100
0010
0000
0001
0000
0200
0000
0000
0000
,
0010
0000
0310
0000
0010
0000
1000
0001
0100
0000
0000
0000
0010
0000
1000
0000
,
0100
0000
1000
0000
0001
0100
0001
0000
0100
0000
0010
0000
1000
0000
0001
0000
,
0010
0100
1000
0010
0100
0001
2000
0000
,
3100
0001
0100
1000
0001
0010
0001
0100
,
0010
1000
0001
0100
1000
0100
0001
0010
,
0001
0100
0100
1000
0100
0100
0020
0000
,
1000
0000
1030
0000
1000
0000
0000
0000
0001
0000
0100
0001
0100
0000
0010
0000
,
0100
0010
2000
0000
3001
0010
0001
0000
,
1000
0000
0100
1000
0100
0000
0010
0000
0100
0000
0010
0000
0002
0000
0000
0000
,
1003
0000
0010
0000
1000
0000
0000
0000
0100
0000
0010
0100
0010
0000
0001
0000
,
1000
0000
0000
0000
0010
0000
0100
0010
0100
0000
0001
0000
1000
0000
0001
0000
,
0010
0100
1000
0010
0100
0001
0020
0000
,
0031
0000
1000
0000
0010
0000
0000
0000
0100
0000
0010
0100
0010
0000
1000
0000
,
0001
0010
0001
0100
1000
0100
0002
0000
,
0013
0000
0100
0010
0100
0000
1000
0000
0010
0000
0100
0000
0001
0000
0010
0000
,
1000
0001
0100
1000
0002
0000
0103
0010
,
0110
0000
1000
0001
0010
0100
0020
0000
,
0031
0000
0100
0000
0010
0000
0100
0010
1000
0000
0001
0000
0010
0001
0010
0000
,
0100
0010
0100
0000
1000
0100
1000
0000
0002
0000
0000
0000
0000
0000
0000
0000
,
0000
0000
0100
0000
0013
0001
0100
0010
,
2000
0000
0000
0100
0000
0000
3010
1000
,
0001
0010
0100
1000
0200
0000
0302
0000
,
2003
3020
0032
0103
,
0110
0000
0000
0000
0010
0000
1000
0010
1000
0000
0001
0000
0200
0000
0000
0000
,
0010
0310
0010
0000
1001
0000
2000
0000
,
3200
0320
0032
0203
,
0320
0000
0000
1000
0000
0000
0230
0000
,
0301
0000
0000
0010
0000
0000
0100
0000
0000
1000
0000
0000
0001
0000
0100
0000
0010
0000
0100
0000
0000
0000
0000
0000
,
0010
2002
0000
3003
,
1000
0100
1000
0001
0010
0001
1000
0010
1000
0001
0010
0100
,
1000
0010
0100
0001
1000
0010
0000
0000
0000
0000
0000
0000
,
0000
0000
0000
0000
1000
0000
0100
0000
0001
0000
0100
1000
0001
0000
0010
0000
,
0012
0000
0000
0000
0103
0001
0100
0001
0100
0000
0010
0000
2000
0000
0000
0000
,
3001
0010
1000
0010
0001
0001
0100
0010
,
0110
0000
0000
0000
0001
0000
0100
0000
1000
0000
0100
0001
1000
0000
0010
0000
,
2010
0000
0000
0000
3100
1000
0100
1000
0100
0000
0010
0000
0001
0000
0100
0000
,
1000
0100
0001
0010
2000
0000
3010
0001
,
1000
0000
0001
0000
0200
0000
0000
0000
0310
0000
0100
0010
1000
0000
0001
0000
,
0010
0000
0000
0100
0000
0000
1000
0000
0000
0100
0000
0000
0010
0000
0001
0000
1000
0000
0001
0000
0000
0100
0000
0000
,
0010
0000
0000
1000
0000
0000
0001
0000
0000
0010
0000
0000
0100
0000
1000
0000
0100
0000
0020
0000
0000
0000
0000
0000
,
0001
0000
0000
0000
0130
0000
1000
0100
1000
0000
0010
0000
0100
0010
0100
0000
,
0001
0000
0010
0001
0010
0000
0100
0000
1000
0000
0001
0000
0100
0000
0010
1000
,
0010
0000
0100
0010
0100
0000
0001
0100
0001
0000
0020
0000
0000
0000
0230
0000
,
0000
0000
0300
0000
0010
0000
0001
0000
0100
0000
0010
1000
0100
0000
0010
0000
,
0002
0000
0000
0000
0103
0010
0100
0010
0100
0000
0001
0000
2000
0000
0000
0000
,
3100
1000
0100
1000
0001
0000
0010
0000
0001
0000
0100
0001
0100
0000
0010
0100
,
0010
1000
0001
0000
0010
0000
0100
0000
0010
0000
0001
1000
0100
0000
1000
0000
,
0020
0000
0000
0000
1030
0001
1000
0001
1000
0000
0001
0000
0100
0000
0010
0000
,
1000
0100
1000
0001
0200
0000
0301
0010
,
0100
0000
1000
0010
1000
0000
0001
0000
0010
0000
0001
0010
0100
0000
1000
0000
,
0001
0000
0100
0000
0010
0000
1000
0001
0100
0000
0010
0000
2000
0000
0000
0000
,
3100
0000
1000
0001
0010
0000
0001
0010
0100
0000
1000
0100
0010
0000
0001
1000
,
0001
0000
0100
0000
0020
0000
0000
0000
0030
0000
0100
0001
1000
0000
0010
0100
,
0010
0000
0100
0000
0001
0000
0010
0000
0100
0000
1000
0000
0010
0100
0010
0100
,
0001
0000
0010
0100
0010
0100
1000
0000
0001
0100
0001
0000
1000
0010
1000
0000
,
0100
0010
0100
0000
0020
0000
0000
0000
0000
0000
0000
0000
0000
0000
0000
0000
,
0000
0000
0000
0001
,
0000
0000
0230
2300
,
3010
0100
0002
0000
0010
0000
0100
0000
,
2003
0010
0100
3002
,
0100
0000
0000
0013
0000
0000
1001
0000
0000
1000
0000
1000
,
0100
0000
0000
0010
0001
0010
0001
0010
0001
0010
0000
0000
,
0100
1000
0100
1000
0100
1000
0100
0000
0000
1000
0010
1000
,
0010
1000
0010
1000
0000
0000
0001
0100
0001
0100
0001
0100
,
0001
0000
0000
0010
0100
1000
0100
0010
0100
1000
0000
0000
,
0010
0100
0001
0100
0010
0100
0001
0000
0000
0010
0001
0100
,
0010
1000
0100
0010
0000
0000
0100
1000
0010
0100
0001
0010
,
0100
0000
0000
0010
0001
0100
0010
0100
0001
0010
0000
0010
,
0100
1000
0010
0100
0010
1000
0100
0000
0100
0010
0001
1000
,
0010
1000
0001
0010
0000
0010
0100
1000
0001
0100
0001
1000
,
0010
0100
0010
0100
0001
0010
0001
0100
0001
0010
0000
0010
,
0100
1000
0010
1000
0100
1000
0010
0000
0010
0100
0001
0010
,
0100
1000
0010
0100
0000
0000
0010
1000
0100
0010
0001
0100
,
0010
1000
0001
0020
0000
0000
0000
0000
0000
0000
0000
0000
,
0000
0000
0000
0000
,
0000
0000
0000
0000
,
0030
0000
0000
0000
;

//--------------- dance-double - forcednature ----------------
#NOTEDATA:;
#STEPSTYPE:dance-double;
#DESCRIPTION:forcednature;
#DIFFICULTY:Easy;
#METER:8;
#RADARVALUES:0,0,0,0,0;
#CREDIT:forcednature;
#NOTES:
00000000
00000000
00000000
00000000
,
00000000
00000000
00000000
00000000
,
00000000
00000000
00000000
00000000
,
00000000
00000000
00000000
00000000
,
00000000
00000000
00000000
00000000
,
00000000
00000000
00000000
00000000
,
00000000
00000000
00000000
00000000
,
00000000
00000000
00000000
00000000
,
00010000
00000000
00000000
00010000
00000000
00000000
00001000
00000000
,
00000000
00010000
00000000
00000000
00000100
00000000
00000000
00000100
,
00000000
00000000
00001000
00000000
00000000
00000001
00000000
00000000
,
00000010
00000000
00000000
00000010
00000000
00000000
00000001
00000000
,
00000000
00001000
00000000
00000000
00000100
00000000
00000000
00000100
,
00000000
00020000
00032000
00203000
,
00310000
00000000
00000000
00000000
,
00000000
00000000
10000000
00100000
,
10000000
00010000
01000000
00000000
,
00001000
00010000
00000100
00001000
,
00000100
00000000
00000010
00000001
,
00000100
00000001
00000010
00000000
,
00000100
00010000
00001000
00100000
,
00010000
00000000
10010000
00000000
,
10000000
00100000
10000000
01000000
,
00010000
00000000
00001000
00100000
,
00001000
00010000
00000100
00000000
,
00001000
00000001
00000100
00000001
,
00000020
00000000
00000030
00000200
,
00000000
00000300
00001000
00001000
,
00001000
00000100
00010000
00000000
,
00001000
00001000
00001000
01000000
,
00010000
00000000
10000000
00100000
,
10000000
00010000
00100000
00000000
,
00001000
00010000
00000010
00001000
,
00000010
00000000
00000100
00000100
,
00000100
00000001
00001000
00000000
,
00000010
00000010
00000010
00010000
,
00001000
00000000
00100000
00100000
,
00010000
01000000
01000000
00010000
,
10000000
00100000
10000000
01000000
,
00010000
00001000
00020000
00000000
,
00000000
00000000
00030000
00000000
,
00002000
00000000
00000000
00000000
,
00003000
00000000
00000020
00000000
,
00000030
00000002
00000000
00000003
,
00000200
00000000
00000300
00002000
,
00000000
00003000
00000000
00010000
,
00001000
00100000
00010000
00100000
,
00002000
00000000
00003000
00010000
,
01000000
10000000
02000000
03000000
,
00010000
00002000
00000000
00003000
,
00200000
00320000
00230000
00302000
,
00023000
00030020
00000030
00000000
,
00000000
00000000
00001000
00000000
00000001
00000000
00000100
00000001
,
00000200
00000000
00000300
00000010
,
00001000
00000010
00010000
00001000
,
00000000
00000000
00100000
00000000
00010000
00000000
10000000
01000000
,
20000000
00000000
30000000
00010000
,
01000000
00001000
00020000
00000000
,
00030000
00000100
00001000
00000100
,
00000010
00000001
00001000
00000010
,
00010000
00001000
00010000
00000100
,
00000000
00010000
00001000
00100000
,
00001000
00010000
00001000
02000000
,
00000000
03000000
00020000
00000000
,
00030000
00000000
00100000
00000000
01000000
00000000
00100000
01000000
,
00100000
01000000
00100000
02200000
,
00000000
03300000
20020000
00000000
,
30030000
00000000
00010000
00000000
01000000
00000000
00001000
00010000
,
00002000
00000000
00003000
00010000
,
00000100
00001000
00000002
00000000
,
00000003
00000000
00000010
00000000
00000001
00000000
00001000
00000100
,
00001000
00000020
00000000
00000030
,
00001000
00000000
00000100
00001000
00000100
00000000
00010000
00000000
,
00001000
00000000
00200000
00000000
00000000
00000000
00310000
10000000
,
00010000
00100000
00010000
20000000
,
30000000
02000000
00000000
03000000
00200000
00000000
00320000
00000000
,
00230000
00302000
00000000
00000000
,
00000000
00000000
00000000
00010000
,
00000000
00000000
00000000
00000000
,
00003000
00010000
00000000
00010000
,
00000100
00000000
00000100
00001000
,
00000000
00001000
00000002
00000000
,
00000003
00000100
00000100
00000100
,
00001000
00001000
00001000
00010000
,
00010000
00010000
00100000
10000000
,
00100000
10000000
10000000
10000000
,
01000000
01000000
01000000
00010000
,
00010000
00010000
00001000
00010000
,
00001000
00000010
00000010
00000010
,
00000100
00000100
00000100
00001000
,
00001000
00001000
00000001
00000100
,
00000001
00000100
00000100
00000100
,
00001000
00001000
00001000
00010000
,
00010000
00010000
00100000
10000000
,
00100000
20020000
00000000
00000000
,
00000000
00000000
00000000
00000000
,
00000000
00000000
00000000
00000000
,
30030000
00000000
00000000
00000000
;

//--------------- dance-double - forcednature ----------------
#NOTEDATA:;
#STEPSTYPE:dance-double;
#DESCRIPTION:forcednature;
#DIFFICULTY:Medium;
#METER:13;
#RADARVALUES:0,0,0,0,0;
#CREDIT:forcednature;
#NOTES:
00000000
00000000
00000000
00000000
,
00000000
00000000
00000000
00000000
,
00000000
00000000
00000000
00000000
,
00000000
00000000
00000000
00000000
,
00000000
00000000
00000000
00000000
,
00000000
00000000
00000000
00000000
,
00000000
00000000
00000000
00000000
,
00000000
00000000
00000000
00000000
,
00001000
00010000
00000000
00010000
00001000
00000000
00100000
00010000
,
00000000
00010000
00100000
00000000
01000000
10000000
00000000
10000000
,
01000000
00000000
00010000
00001000
00000000
00001000
00010000
00000000
,
00000100
00001000
00000000
00000100
00000010
00000000
00000001
00000100
,
00000000
00000010
00000100
00000000
00000001
00001000
00000000
00000010
,
00001000
00000010
00020000
00000000
00031000
00010000
00001000
00100000
,
00010000
00000000
00000000
00000000
,
00000000
00000000
10010000
10000000
,
01000000
00010000
00001000
00000000
00010000
00000000
00001000
00000010
,
00000001
00000000
00001000
00000000
00000100
00010000
00002000
00000000
,
00100000
00003000
00010000
00001000
02000000
00000000
03010000
10000000
,
00100000
01000000
00020000
00000000
00230000
00000000
00302000
00000000
,
00023000
00000000
00030100
00001000
00000010
00000000
00000210
00000000
,
00000001
00000300
00001000
00000010
00000100
00000000
00000001
00001000
,
00000100
00010000
00001000
00000000
00100000
00010000
10000000
00100000
,
01000000
00000000
00010000
10000000
01000000
00010000
00001000
00000000
,
00100000
00010000
00100000
00001000
00010000
00000000
00000010
00001000
,
00000100
00000010
00000001
00000000
00000100
00000001
00000010
00000100
,
00001000
00001000
00000000
00000100
00010000
00001000
00200000
00000000
,
00010000
00000000
00310000
00000000
00100000
01000000
10000000
01000000
,
00100000
00010000
00200000
00000000
00301000
00010000
00000100
00000000
,
00001000
00000010
00000100
00000010
00001000
00000001
00000200
00000000
,
00000310
00001000
00000001
00000000
00000010
00000010
00000100
00010000
,
00001000
00000000
00100000
00100000
00010000
10000000
00100000
10000000
,
00020000
00000000
00130000
01000000
10000000
01000000
00020000
00000000
,
00032000
00000000
00103000
00000000
00001000
00001000
00010000
00000100
,
00001000
00000100
00010000
00000000
00001000
00000010
00000002
00000000
,
00001003
00001000
00000100
00010000
00001000
00100000
00001000
00000000
,
00010000
00100000
20000000
00000000
30010000
01000000
01000000
00001000
,
00010000
00000000
00001000
00100000
00100000
00010000
01000000
00000000
,
00001000
00010000
00000010
00001000
00000010
00010000
00002000
00000000
,
00003020
00000032
00000203
00000000
,
00000000
00000000
00002300
00023000
,
00230000
00000000
00000000
01000000
00000000
00000000
10300000
00000000
,
00010000
00100000
00002000
00023000
,
00030020
00002030
00003200
00010300
,
00022000
00000000
00033000
00010000
00001000
00100000
00020000
00000000
,
01000000
01000000
01030000
00000000
01100000
00000000
20000000
00000000
,
32000000
03020000
00032000
00003200
,
00000302
00000000
00000000
00000000
00000000
00000000
00000013
00000001
,
00000010
00000100
00001000
00000000
00000100
00010000
00001000
00000000
,
00100000
00022000
00000000
00033000
,
00020000
02030000
23000000
30200000
,
00320000
00032000
00003000
00000000
,
00000000
00000000
00010000
00000100
00001000
00000001
00000010
00000001
,
00002000
00000000
00000000
00003010
00000100
00000001
00000200
00000000
,
00000310
00001000
00000010
00010000
00001000
00000000
00011000
00000000
,
00101000
00000000
00100000
00010000
01000000
00010000
10000000
00100000
,
02000000
00000000
03010000
00100000
00001000
00010000
00000100
00000000
,
00001000
00000000
00000001
00000100
00002000
00000000
00003000
00010000
,
00001000
01000000
00020000
00000000
00000000
10030000
01000000
00100000
,
01000000
10000000
01000000
00010000
00001000
00000000
00100000
00010000
,
00100000
00000000
00000000
00001000
00000000
00000000
00010000
00000000
00000000
00000000
00000000
00000000
00000010
00000000
00001000
00000000
00000010
00000000
00000200
00000000
00000000
00000000
00000000
00000000
,
00000000
00000300
00000001
00000100
00000100
00001000
00000100
00000100
,
00001000
00000000
00010000
00001000
00010000
00100000
00000000
20000000
,
00000000
32000000
00000000
03020000
00000000
00032000
00000000
00003020
,
00000000
00000030
00000110
00000000
00000110
00000000
00010100
00000000
,
00010100
00101000
00110000
20010000
,
00100000
00100000
30100000
00000000
00012000
00000000
00100000
00100000
,
00103000
00000000
00011000
00000000
00000100
00001000
00000100
00000010
,
00000002
00000000
00000103
00000001
00001000
00000010
00001000
00000001
,
00000010
00000100
00001000
00000010
00020000
00000000
00000000
00031000
,
00100000
00010000
20000000
00000000
00000000
30100000
01000000
10000000
,
01000000
00010000
01000000
00001000
00010000
00000010
00002000
00000000
,
00000000
00003100
00000010
00000100
00001000
00000001
00000100
00000010
,
00000100
00001000
00020000
00000000
00000000
00031000
00100000
00010000
,
00100000
00001000
00010000
00001000
01000000
00010000
20000000
00000000
,
31000000
02000000
00000000
03010000
00020000
00000000
00032000
00000000
,
00003010
00000220
00000000
00000000
,
00000000
00000000
00000000
00000000
,
00000000
00000000
00000000
00000000
,
00000330
00000001
00000001
00000100
,
00001000
00010000
01000000
10000000
,
10000000
01000000
00010000
00002000
,
00003020
00000000
00000000
00000031
00000000
00000010
00000001
00000000
00000010
00000001
00000000
00000000
,
00001000
00000000
00000100
00001000
00000000
00000100
00001000
00000000
00000000
00000100
00000000
00010000
,
00000100
00000000
00010000
00000100
00000000
00000000
00010000
00000000
00001000
00010000
00000000
00001000
,
00010000
00000000
00000000
00100000
00000000
01000000
00100000
00000000
01000000
00100000
00000000
00000000
,
10000000
00000000
00010000
10000000
00000000
00010000
10000000
00000000
00000000
01000000
00000000
00100000
,
01000000
00000000
00100000
01000000
00000000
00000000
00010000
00000000
00001000
00010000
00000000
00001000
,
00010000
00000000
00000000
00000100
00000000
00001000
00000100
00000000
00000010
00000001
00000000
00000000
,
00001000
00000000
00000010
00001000
00000000
00000010
00010000
00000000
00000000
00001000
00000000
00100000
,
00010000
00000000
10000000
01000000
00000000
00000000
00100000
00000000
00010000
00100000
00000000
00001000
,
00010000
00000000
00000000
00000010
00000000
00001000
00000001
00000000
00001000
00000010
00000000
00000000
,
00010000
00000000
00001000
00100000
00000000
00001000
00010000
00000000
00000000
00100000
00000000
01000000
,
00010000
00000000
01000000
00100000
00000000
00000000
10000000
00000000
01000000
10000000
00000000
01000000
,
00010000
00022000
00000000
00000000
,
00000000
00000000
00000000
00000000
,
00000000
00000000
00000000
00000000
,
00033000
00000000
00000000
00000000
;

//--------------- dance-double - forcednature ----------------
#NOTEDATA:;
#STEPSTYPE:dance-double;
#DESCRIPTION:forcednature;
#DIFFICULTY:Hard;
#METER:17;
#RADARVALUES:0,0,0,0,0;
#CREDIT:forcednature;
#NOTES:
00000000
00000000
00000000
00000000
,
00000000
00000000
00000000
00000000
,
00000000
00000000
00000000
00000000
,
00000000
00000000
00000000
00000000
,
00000000
00000000
00000000
00000000
,
00000000
00000000
00000000
00000000
,
00000000
00000000
00000000
00000000
,
00000000
00000000
00000000
00000000
,
00001000
00010000
00000000
00100000
00010000
00000000
00100000
10000000
,
00000000
01000000
10000000
00000000
01000000
00010000
00000000
00001000
,
00010000
00000000
00001000
00000010
00000000
00000001
00000010
00000001
,
00000100
00001000
00000000
00010000
00001000
00000000
00010000
00100000
,
00000000
10000000
00100000
00000000
10000000
01000000
00000000
00020000
,
02030000
03020000
00032000
00000000
00003010
00000100
00001000
00000001
,
00000200
00000000
00000000
00000000
,
00000000
00000000
00000300
00000000
00000110
00000000
00000001
00001000
,
00000010
00000000
00001000
00000000
00000010
00010000
00002000
00000000
00000000
00000000
00103000
00000000
00010000
00000000
00100000
00000000
,
01000000
10000000
01000000
00010000
00001000
00100000
00020000
00000000
,
01000000
00000000
00030000
00000000
00001000
00000000
00010000
00001000
00020000
00000000
00000000
00000000
00031000
00000000
00000010
00000000
,
00000001
00000000
00000000
00001000
00000000
00000000
00000100
00000000
00000000
00000000
00001000
00000000
00000100
00000000
00000000
00000000
00010000
00000000
00001000
00000000
00000000
00100000
00000000
00000000
,
00010000
00000000
00000000
00000000
01000000
00000000
00100000
10000000
00010000
00000000
00100000
00000000
02000000
00000000
00000000
00000000
,
10000000
00000000
13000000
00000000
10000000
00000000
01000000
00100000
00010000
00000000
00000000
00000000
00100000
00000000
00001000
00000000
,
00010000
00000000
00000100
00000000
00010000
00001000
00010000
00000000
00000010
00000000
00001000
00000000
00000010
00000000
00000100
00000000
,
00000001
00000010
00000100
00001000
00000100
00010000
00002000
00000000
,
00103000
00010000
00100000
01000000
10000000
00000000
01000000
00010000
,
00001000
00100000
00001000
00010000
00000100
00001000
00000001
00000100
,
00002000
00000000
00100000
00000000
00013000
01000000
20000000
00000000
,
00100000
00000000
00100000
00000000
30100000
00000000
00000000
00000000
10000000
00000000
01000000
10000000
01000000
00000000
00100000
00000000
,
00010000
00100000
00002000
00000000
00013000
00000100
00001000
00000000
,
00000001
00000000
00000100
00000001
00000100
00000000
00000010
00000000
00001000
00000000
00000010
00000000
00020000
00000000
00000000
00000000
,
00031000
00000000
01000000
00000000
00010000
00000000
00000000
00000000
10000000
00000000
00100000
10000000
00100000
00000000
01000000
00000000
,
00010000
00000000
00000000
00000000
00100000
00000000
01000000
00100000
01000000
00000000
00010000
00000000
00001000
00000000
00100000
00000000
,
00010000
00100000
00001000
00000010
00000100
00001000
00000002
00000000
,
00000103
00000000
00001000
00000000
00010000
00000000
00000000
00000000
00001000
00000000
00010000
00001000
00010000
00000000
00100000
00000000
,
01000000
00010000
10000000
00100000
10000000
01000000
00020000
00000000
,
00031000
00000000
00010000
00001000
00010000
00000000
00000010
00000000
00001000
00000000
00000001
00000000
00000010
00000000
00001000
00000000
,
00000001
00000100
00020000
00000000
00031000
00000000
00100000
00010000
,
00110000
00000000
10000000
00100000
10000000
01000000
00020000
00000000
,
00031000
00000000
00100000
00000000
00010000
00000000
00100000
00001000
00010000
00000000
00001000
00000000
00010000
00001000
00010000
00000000
,
00000100
00001000
00000100
00000000
00001000
00000001
00000010
00000000
00000200
00000000
00000000
00000000
00000000
00000000
00000000
00000000
,
00000000
00000000
00000301
00000100
00001000
00000100
00010000
00001000
,
00200000
00000000
00000000
00010000
00000000
00000000
01300000
10000000
,
00010000
10000000
00100000
01000000
20000000
00000000
32000000
00000000
,
03002000
00023000
00030200
00000302
,
00000203
00000000
00000000
00000000
00000300
00000000
00001000
00000100
00001000
00000000
00000001
00000000
00000020
00000000
00000000
00000000
,
00000100
00000100
00000130
00000000
00001001
00000000
00000002
00000000
,
00000203
00002300
00023000
02030000
,
23000000
00000000
00000000
00100000
00000000
00000000
31000000
10000000
,
01000000
00000000
00000000
00010000
00000000
00000000
00001000
00000000
00000000
00010000
00000000
00000000
00000100
00000000
00001000
00000000
00000001
00000000
00000010
00000000
00000000
00000000
00000000
00000000
,
00000100
00002002
00000000
00003003
,
00000001
00000100
00000001
00000100
00000010
00000100
00000010
00001000
00000010
00010000
00001000
00010000
,
00000100
00001000
00000100
00010000
00001000
00100000
00000000
00000000
00000000
00000000
00000000
00000000
,
00000000
00000000
00000000
00000000
00001000
00000000
00010000
00000000
00001000
00000000
01000000
00010000
10000000
00000000
00100000
00000000
,
02000000
00000000
00000000
00000000
03010000
10000000
00010000
10000000
00010000
00000000
00100000
00000000
02000000
00000000
00000000
00000000
,
03010000
00001000
00000010
00000100
00010000
00001000
00100000
00010000
,
00101000
00000000
00000000
00000000
00010000
00000000
00001000
00000000
00010000
00000000
00000100
00001000
00000001
00000000
00000010
00000000
,
00000200
00000000
00000000
00000000
00001300
00000001
00001000
00000001
00001000
00000000
00000010
00000000
00000100
00000000
00001000
00000000
,
00010000
00100000
01000000
00100000
00020000
00000000
00000000
00031000
,
00010000
00000000
00001000
00000000
00000020
00000000
00000000
00000000
00000130
00000000
00000010
00000001
00001000
00000000
00000001
00000000
,
00000100
00000000
00000000
00001000
00000000
00000000
00010000
00000000
00000000
00001000
00000000
00000000
00010000
00000000
00100000
00000000
10000000
00000000
00010000
00000000
00000000
00100000
00000000
00000000
,
01000000
00000000
00000000
00010000
00000000
00000000
01000000
00000000
00000000
00100000
00000000
00000000
00001000
00000000
00010000
00000000
00000100
00000000
00002000
00000000
00000000
00000000
00000000
00000000
,
00000010
00000000
00000000
00000000
00003001
00000000
00001000
00000100
00001000
00000000
00000100
00000000
00001000
00000100
00010000
00000000
,
00001000
00000000
00010000
00001000
00100000
00000000
00010000
00000000
01000000
00000000
00100000
00000000
10000000
00000000
01000000
10000000
,
01000000
00000000
00100000
01000000
00100000
00000000
00010000
00100000
00010000
00000000
00200000
00000000
00000000
00000000
00302000
00000000
,
00000000
00003000
00000010
00000100
00001000
00000100
00000001
00000100
,
00020000
00000000
00000000
00000000
00031000
00000000
00010000
00001000
00010000
00000000
00001000
00000000
00200000
00000000
00000000
00000000
,
00310000
10000000
00010000
10000000
00010000
00000000
01000000
00000000
00001000
00000000
00010000
00001000
00010000
00000000
00000100
00001000
,
00000100
00000000
00000010
00000000
00000001
00000000
00000100
00000000
00000010
00000000
00000100
00000001
00001000
00000000
00000010
00000000
,
00020000
00000000
00000000
00000000
00031000
00010000
00001000
00010000
00001000
00000000
00010000
00000000
01000000
00000000
00100000
00000000
,
00001000
00010000
01000000
10000000
00020000
00000000
00130000
00001000
,
00010000
00000000
00001000
00010000
00000100
00000000
00001000
00000000
00000001
00000000
00000100
00000001
00000100
00000000
00001000
00000000
,
00010000
00000000
00001000
00000000
00100000
00000000
00010000
00100000
01000000
00000000
10000000
00000000
00200000
00000000
00000000
00000000
,
01300000
00000000
00010000
01000000
00010000
00000000
01000000
00001000
00010000
00000000
00001000
00010000
00001000
00000000
00010000
00000100
,
00001000
00000000
00000001
00000000
00000020
00000000
00000000
00000000
00000030
00000000
00000100
00001000
00000001
00000000
00000100
00000001
,
00000100
00000000
00000010
00000000
00001000
00000000
00000010
00000000
00010000
00000000
00000000
00000000
00001000
00010000
00001000
00010000
,
00001000
00000000
00100000
00010000
00100000
00010000
00100000
00000000
01000000
10000000
01000000
00000000
10000000
00010000
00100000
00000000
,
00001000
00010000
00022000
00000000
00000000
00000000
00000000
00000000
,
00000000
00000000
00000000
00000000
,
00000000
00000000
00000000
00000000
,
00033000
00000000
00010000
01000000
10000000
00000000
01000000
00000000
,
00010000
00001000
00000100
00000000
00000001
00000000
00000100
00001000
,
00010000
00001000
00100000
00000000
10010000
00000000
20000000
00000000
,
32000000
00000000
00000000
03100000
00010000
00100000
00010000
00100000
00010000
00100000
00000000
00000000
,
00001000
00010000
00001000
00010000
00001000
00010000
00001000
00000000
00000000
00000010
00000100
00000010
,
00000100
00000010
00000100
00000010
00000000
00000000
00000001
00001000
00000001
00001000
00000001
00001000
,
00000001
00000000
00000000
00000010
00000100
00001000
00000100
00000010
00000100
00001000
00000000
00000000
,
00000100
00010000
00001000
00100000
00001000
00010000
00000100
00000000
00000000
00010000
00001000
01000000
,
00010000
01000000
00001000
00010000
00000000
00000000
00100000
01000000
00010000
10000000
00010000
01000000
,
00100000
00000000
00000000
10000000
01000000
00100000
00010000
00100000
01000000
10000000
00000000
00000000
,
00010000
01000000
00001000
00010000
00001000
00100000
00010000
00000000
00000000
00001000
00000100
00000010
,
00000001
00000010
00000100
00001000
00000000
00000000
00000010
00010000
00001000
01000000
00001000
00010000
,
00000010
00000000
00000000
00001000
00000100
00010000
00001000
00100000
00010000
01000000
00001000
00010000
,
00000010
00001000
00000100
00010000
00001000
01000000
00010000
00100000
00010000
01000000
00001000
00010000
,
00000100
00001000
00000010
00000200
00000000
00000000
00000301
00000010
00001000
00010000
00001000
00010000
,
01000000
10000000
00010000
00200000
00000000
00000000
00000000
00000000
00000000
00000000
00000000
00000000
,
00000000
00000000
00000000
00000000
,
00000000
00000000
00000000
00000000
,
00300000
00000000
00000000
00000000
;
