#VERSION:0.83;
#TITLE:Necroxis Girl;
#SUBTITLE:;
#ARTIST:BEMANI Sound Team "HuΣeR";
#TITLETRANSLIT:;
#SUBTITLETRANSLIT:;
#ARTISTTRANSLIT:HuΣeR;
#GENRE:GLITCH DUBSTEP;
#CREDIT:;
#MUSIC:Necroxis Girl.ogg;
#BANNER:Necroxis Girl.png;
#BACKGROUND:Necroxis Girl-bg.png;
#CDTITLE:./CDTitles/jb clan.png;
#SAMPLESTART:80.972;
#SAMPLELENGTH:15.000;
#SELECTABLE:YES;
#OFFSET:0.620;
#BPMS:0.000=150.000
,215.000=300.000
,217.000=150.000
,231.000=75.000
,231.250=150.000
,231.500=300.000
,232.000=150.000
,282.000=37.500
,283.000=150.000
;
#STOPS:186.000=0.400
,215.000=0.100
,215.500=0.100
,216.000=0.100
,216.500=0.500
;
#TIMESIGNATURES:0.000=4=4,
184.000=3=4,
187.000=4=4,
215.000=3=4,
218.000=4=4,
282.000=1=4,
283.000=4=4
;
#DISPLAYBPM:150.000;
#BGCHANGES:0.000=../BGAs/26he.mp4=1.000=0=0=0=StretchNoLoop====,
99999.000=-nosongbg-=1.000=0=0=0=StretchNoLoop====
;
#FGCHANGES:;

//--------------- dance-single - forcednature ----------------
#NOTEDATA:;
#STEPSTYPE:dance-single;
#DESCRIPTION:forcednature;
#CREDIT:forcednature;
#DIFFICULTY:Beginner;
#METER:6;
#RADARVALUES:0,0,0,0,0;
#NOTES:
0000
0000
0000
0000
,
0000
0000
0000
0000
,
0000
0000
0000
0000
,
0000
0000
0000
0000
,
0000
0000
0000
0000
,
0000
0000
0000
0000
,
0000
0000
0000
0000
,
2002
0000
0000
0000
,
0000
0000
0000
0000
,
0000
0000
0000
0000
,
0000
0000
3003
0000
,
0220
0000
0000
0000
,
0000
0000
0000
0000
,
0000
0000
0000
0000
,
0000
0000
0330
0000
,
0001
0000
0001
0000
,
0001
0000
0001
0000
,
1000
0000
1000
0000
,
1000
0000
1000
0000
,
0010
0000
0010
0010
,
0100
0000
0100
0100
,
0010
0000
0100
0000
,
0010
0100
0010
0000
,
1001
0000
0000
0000
,
1000
1000
0100
0000
,
1001
0000
0001
0000
,
0010
0010
0001
0000
,
1001
0000
0000
0000
,
0001
0000
0100
0000
,
1001
0000
0001
0001
,
1000
0000
0010
0000
,
0100
0100
0100
0000
,
0001
0000
0100
0000
,
0001
0001
0001
0000
,
0010
0000
0001
0000
,
1000
1000
1000
0000
,
0010
0000
1000
0000
,
0100
0100
0100
0000
,
1000
0000
0001
0001
,
2002
0000
0000
0000
,
0000
0000
0000
0000
,
0000
0000
0000
0000
,
0000
0000
3003
0000
,
0220
0000
0000
0000
,
0000
0000
0000
0000
,
0000
0000
0000
0000
,
0000
0000
0330
0001
,
0000
0001
0000
0001
,
0000
1000
1000
0010
,
0000
0010
0000
0010
,
0000
0100
0000
0001
,
0000
0001
0000
1000
,
0000
1000
0000
1001
,
0000
0110
0000
1000
,
0001
0000
1000
1000
,
1000
0000
0100
0000
,
1000
0000
0001
0010
,
0001
0000
0100
0000
,
0010
0000
1000
1000
,
0001
0000
0100
0000
,
0001
0000
0010
0010
,
0100
0000
1000
0000
,
0010
0000
1001
0000
,
1000
1000
1000
0000
,
1000
0000
0110
0000
,
0001
0001
0001
0000
,
0001
0000
1001
0000
,
0010
0010
0010
0000
,
0010
0000
0110
0000
,
0100
0100
0100
0000
,
0010
0000
1001
0110
;

//--------------- dance-single - forcednature ----------------
#NOTEDATA:;
#STEPSTYPE:dance-single;
#DESCRIPTION:forcednature;
#CREDIT:forcednature;
#DIFFICULTY:Easy;
#METER:10;
#RADARVALUES:0,0,0,0,0;
#NOTES:
0000
0000
0000
0000
,
0000
0000
0000
0000
,
0000
0000
0000
0000
,
0000
0000
0000
0000
,
0000
0000
0000
0000
,
0000
0000
0000
0000
,
0000
0000
0000
0000
,
0002
0000
0000
0003
,
0200
0000
0000
0300
,
0020
0000
0000
0030
,
2000
0000
0000
3000
,
0002
0000
0000
0003
,
0020
0000
0000
0030
,
0200
0000
0000
0300
,
2000
0001
0001
3010
,
0210
0000
0010
0000
,
0001
0001
0001
0001
,
0320
0000
0100
0000
,
1000
1000
1000
1030
,
1001
0001
0010
0100
,
1001
1000
0010
0100
,
1001
0010
1001
0100
,
0220
0000
0330
0000
,
1001
0000
1000
0000
0100
0010
0100
0000
,
1000
0100
1000
0000
0100
0010
0100
0000
,
1000
1000
0002
0000
,
0103
0010
0100
0000
0010
0000
1000
0000
,
1001
0000
0001
0000
0010
0010
0000
0001
,
0001
0000
0010
0000
0001
1000
0001
0000
,
1001
1000
1100
0001
,
0100
0010
0100
0000
0010
1000
0001
0000
,
2001
0000
0100
0000
,
0010
0000
0010
3000
,
1002
1000
0100
0000
,
1000
0000
0010
0003
,
2001
0001
0010
0000
,
0100
0000
0010
3000
,
1002
1000
0010
0003
,
0100
0001
0100
0000
0001
1000
0010
0000
,
2002
0000
0000
0000
,
0000
0000
0000
0000
,
0000
0000
0000
0000
,
0000
0000
0000
3003
,
0220
0000
0000
0000
,
0000
0000
0000
0000
,
0000
0000
0000
0330
,
0001
1000
0001
0000
1001
0000
1000
0000
,
1000
0100
0100
1000
,
0010
0000
1000
0000
0001
1000
0001
0000
,
0001
0100
0100
0001
,
0010
0000
0000
0000
0001
0000
1000
0000
0000
1000
0000
0000
0010
0000
0000
0000
,
0010
0100
0010
0000
0010
0100
0001
0000
,
0001
1000
0001
0000
0001
0010
0100
0000
,
1000
0100
1000
0000
0010
1000
0020
0000
,
0230
0000
0000
0300
0000
0000
0000
0000
0001
0000
1000
0000
0001
0000
1000
0000
,
0001
0000
0001
0010
0000
0010
0100
0000
,
1000
0001
1000
0000
0010
0000
0100
0000
,
0110
0000
0001
1000
0001
0000
0020
0000
,
0130
1000
0000
1000
0100
0000
0010
0000
,
0001
1000
0001
0000
0100
0010
0000
0010
,
1000
0001
1001
0110
,
0001
1000
0001
0000
0020
0000
0100
0000
,
0001
0001
0031
0000
1000
0100
0010
0000
,
0001
0100
0010
0000
1000
0100
0010
0000
,
0001
0100
0010
0000
1000
0001
0010
0000
,
0001
1000
0010
0000
1000
0001
0010
0000
,
0001
1000
0010
0000
0100
0001
0010
0000
,
0100
1000
0010
0000
0100
0001
0010
0000
,
0100
1000
0010
0000
0100
0001
1000
0000
,
0100
1000
0001
0000
1001
0000
0110
0000
,
1000
0001
0010
0000
0110
0000
1001
0000
;

//--------------- dance-single - forcednature ----------------
#NOTEDATA:;
#STEPSTYPE:dance-single;
#DESCRIPTION:forcednature;
#CREDIT:forcednature;
#DIFFICULTY:Medium;
#METER:14;
#RADARVALUES:0,0,0,0,0;
#NOTES:
0000
0000
0000
0000
,
0000
0000
0000
0000
,
0000
0000
0000
0000
,
0000
0000
0000
0000
,
0000
0000
0000
0000
,
0000
0000
0000
0000
,
0000
0000
0000
0000
,
0002
0000
0000
0003
,
0200
0000
0000
0300
,
0020
0000
0000
0030
,
2000
0000
0000
3000
,
0002
0000
0000
0003
,
0020
0000
0000
0030
,
0200
0000
0000
0300
,
2000
0000
0001
0000
0001
0001
3001
0000
,
1002
0100
1000
0010
,
1000
0000
0100
0000
1000
0000
0013
0100
,
2000
0001
0010
0001
,
0100
0000
0000
0000
0001
0000
0000
0000
3010
0000
0100
0000
0000
0100
0000
0000
,
1001
0000
0000
0001
0000
0000
0010
0000
0000
0001
0000
0000
0100
0000
0100
0000
,
1001
0000
0000
1000
0000
0000
0010
0000
0000
1000
0000
0000
0100
0000
0000
0000
,
1001
0000
0000
0001
0010
0000
0100
0000
1001
0000
0000
1000
0010
0000
0100
0000
,
0001
0010
0100
1000
0020
0000
0030
0000
,
2002
0000
0003
0000
3100
0001
0001
0100
,
1000
0000
1000
0000
0100
0000
0001
0000
0001
0000
0100
0000
1000
0001
1000
0000
,
0010
0000
0000
0010
0100
0000
0100
0000
0002
0000
0000
0000
0013
0000
0100
0000
,
1000
0010
0200
0000
1300
0100
0001
0000
,
1000
0010
2010
0000
3001
0010
1000
0010
,
0001
0000
0000
0100
0001
0000
1000
0000
0010
0000
0100
0000
0010
0100
0000
0000
,
0002
1000
1000
1003
1001
0000
0010
0000
,
1000
0100
0100
1000
0001
0010
0011
0000
,
0001
0000
0000
0001
0000
0000
1000
0000
0001
0000
1000
0000
0020
0000
0000
0100
0000
0000
0100
0000
0000
1030
0000
0000
,
0020
0100
0100
1030
0020
0100
0130
0001
,
1000
0000
0100
0000
1000
0000
0001
0000
0010
0000
0001
0000
2000
0000
0000
0100
0000
0000
0100
0000
0000
3001
0000
0000
,
2000
0000
0000
0100
0000
0000
0100
0000
0000
3001
0000
0000
1000
0000
0000
0100
0000
0000
1000
0000
0001
0000
1000
0000
,
0010
0000
0100
0000
0001
0000
0020
0000
0000
0000
0000
0000
0032
0000
0000
0100
0000
0000
0100
0000
0000
1003
0000
0000
,
0002
0100
0100
1003
0002
0103
0001
1000
,
0010
0010
0100
0010
2000
0010
0010
3001
,
1000
0000
0000
0100
0010
0000
0001
0000
1000
0000
0010
0000
0100
0000
0000
0000
,
1002
0000
0000
0003
,
0020
0000
0000
0030
,
0200
0000
0000
0300
,
2000
0000
0000
0000
0000
0000
3000
0010
,
2001
0000
0000
3000
,
0020
0000
0000
0030
,
0200
0000
0000
0300
,
0001
1000
0001
1000
0001
1000
0001
1000
0001
0000
0000
0000
0010
0000
0000
0100
,
1000
0000
0000
0000
0010
0000
0000
0100
1000
0000
0000
0000
0010
0000
0000
0100
,
1000
0000
0001
0000
0100
0000
0000
0000
0001
0000
1000
0000
0010
0000
0000
0100
,
0001
0000
0000
0000
0010
0000
0000
0100
0001
0000
0000
0000
0010
0000
0000
0100
,
0001
0000
1000
0000
0010
0000
0100
0000
0000
0110
0000
0000
1001
0000
0000
1000
,
0100
0000
0010
0000
0000
0100
1000
0000
0001
0000
0010
0000
1001
0000
0000
0001
,
0100
0000
0010
0000
0000
0100
0001
0000
1000
0000
0010
0000
1000
0000
0100
1000
,
0100
0000
0010
0000
0001
0000
0100
0001
0100
0000
0010
0000
2000
0000
3002
0000
,
2003
0000
3002
0003
0000
0000
0000
0000
0010
0000
0100
0010
0100
0000
0010
0000
,
0010
0000
0001
1000
0001
1000
0000
0000
0010
1000
0010
1000
0000
0000
0001
0100
,
0001
0100
0000
0000
0020
0000
2030
0000
3001
0010
0001
0000
0010
0100
0010
0100
,
2000
0000
0000
0000
3002
0000
0000
0000
0103
0010
1000
0010
0200
0000
0000
0000
,
0301
1000
0001
0001
0010
0100
0120
0000
,
0031
0000
1000
0001
1000
0000
0010
0000
0100
0001
0000
0001
0100
0000
0010
0000
,
2000
0000
0000
0000
3001
0000
0010
0001
0010
0000
0010
0000
0110
0000
1000
0000
,
0010
0000
0000
1000
0001
0000
1000
0100
0010
0000
0001
0000
0010
0001
0010
0000
,
0100
0000
0000
1000
0000
0000
1001
0000
0000
0000
0000
0000
0001
0000
0000
0001
0000
0000
0100
0000
0010
0000
1000
0000
,
0001
0000
0010
0100
1000
0000
0100
0010
0001
0000
0010
0100
1000
0000
0100
0010
,
0001
0000
0000
0000
0000
0000
0010
0000
0000
0100
0000
0000
1000
0000
0000
0000
0000
0000
1000
0000
0000
0000
0000
0000
0010
0000
0000
0000
0100
0000
0000
0000
0001
0000
0000
0000
0010
0000
0000
0000
0100
0000
0000
0000
1000
0000
0000
0000
,
0001
0000
0100
0010
1000
0000
0010
0100
0001
0000
0100
0010
1000
0000
0010
0100
,
0001
0000
0100
0010
1000
0000
1000
0000
0001
0010
0001
0000
0010
0100
1000
0000
,
0001
0000
0100
0010
1000
0000
0100
0010
0001
0000
0100
0010
1000
0000
0100
0010
,
0001
0000
0100
0010
1000
0000
1000
0000
0001
0010
0001
0000
0010
0100
0010
0000
,
0100
0000
1000
0001
0100
0000
0100
0000
0020
0000
0000
0000
1030
0000
0001
0000
,
1000
0000
0100
0000
0010
0100
0010
0000
2001
0000
0000
0000
3010
0000
0000
0000
;

//--------------- dance-single - forcednature ----------------
#NOTEDATA:;
#STEPSTYPE:dance-single;
#DESCRIPTION:forcednature;
#CREDIT:forcednature;
#DIFFICULTY:Hard;
#METER:17;
#RADARVALUES:0,0,0,0,0;
#NOTES:
0000
0000
0000
0000
,
0000
0000
0000
0000
,
0000
0000
0000
0000
,
0000
0000
0000
0000
,
0000
0000
0000
0000
,
0000
0000
0000
0000
,
0000
0000
0000
0000
,
2001
0000
0000
0000
,
0200
0000
3000
0000
,
0020
0000
0300
0000
,
0002
0000
0000
0033
,
2002
0000
0000
3000
,
0200
0000
0000
0003
,
0020
0000
0000
0330
,
1000
0100
1000
0100
0010
0001
0010
0001
1000
0010
0100
0001
0010
0000
0000
0000
,
0012
0010
1000
1000
,
0100
0000
0000
0000
0100
0000
0000
0000
1000
0000
0000
0003
1000
0001
0100
0010
,
2000
0000
0100
0000
0001
0000
3001
0010
,
0200
0000
0000
0000
1000
0000
0000
0000
0310
0000
0110
0000
0000
0001
1000
0001
,
0100
0000
0010
1000
0000
0001
0010
0000
0100
0010
0000
0100
1000
0000
0001
1000
,
0001
0000
0010
0001
0000
1000
0010
0000
0100
0010
0000
0100
0001
0000
1000
0001
,
1000
0000
0100
1000
0000
0100
0010
0001
1000
0000
0010
0100
0000
0001
0100
0010
,
1000
0001
1000
0100
0010
0001
0100
0010
2000
0000
0000
0000
3000
0000
0000
0000
,
0012
0000
0203
0000
1300
0001
0010
1000
,
0001
0000
0100
0000
1000
0000
0001
0000
0010
0000
1000
0000
0001
0010
0100
1000
,
0001
0000
0000
0000
0000
0000
0000
0000
0000
0000
0000
0000
0001
0000
0000
0000
0020
0030
0000
0000
0000
0000
0000
0000
0020
0030
0000
0000
0000
0000
0000
0000
2000
0000
0000
0000
0000
0000
0000
0000
0000
0000
0000
0000
0000
0000
0000
0000
3001
0000
0000
0000
0010
0000
0000
0000
0100
0000
0000
0000
1000
0000
0000
0000
,
0100
0010
0001
1000
0020
0000
0000
0000
0130
0001
1000
0000
0010
0000
0000
0000
,
1100
0000
0110
0000
0011
0000
0000
0000
0001
0000
0100
0001
0010
0000
0100
1000
,
0010
1000
0000
0001
0100
0010
0100
0000
0001
0000
0010
0100
1000
0100
0010
0000
,
0001
0000
0101
0000
0110
0000
1010
0000
1000
0000
0001
0010
0000
0100
0010
0100
,
1000
0000
0010
0000
0100
0001
0100
0001
1000
0010
0100
0001
2000
0000
0000
0000
,
3001
0000
0000
0000
0000
0000
0000
0000
0000
0000
0000
0000
0000
0000
0000
0000
0000
0000
0000
0000
0000
0000
0000
0000
0010
0000
0000
0000
0000
0000
0000
0000
0000
0000
0000
0000
0000
0000
0000
0000
0000
0000
0000
0000
0000
0000
0000
0000
0001
0000
0000
0000
0000
0000
0000
0000
0000
0000
0000
0000
0000
0000
0000
0000
0200
0000
0000
0300
0000
0000
0000
0000
0000
0000
0000
0000
0000
0000
0000
0000
0200
0000
0000
0300
0000
0000
0000
0000
0000
0000
0000
0000
0000
0000
0000
0000
1000
0000
0000
0000
0000
0000
0000
0000
0000
0000
0000
0000
0000
0000
0000
0000
0001
0000
0000
0000
0000
0000
0000
0000
0000
0000
0000
0000
0000
0000
0000
0000
0010
0000
0000
0000
0000
0000
0000
0000
0000
0000
0000
0000
0000
0000
0000
0000
1000
0000
0000
0000
0000
0000
0000
0000
0000
0000
0000
0000
0000
0000
0000
0000
0001
0000
0000
0000
0000
0000
0000
0000
0000
0000
0000
0000
0000
0000
0000
0000
0100
0000
0000
0000
0000
0000
0000
0000
0000
0000
0000
0000
0000
0000
0000
0000
,
1000
0000
0000
0000
0001
0000
0000
0000
0010
0000
0000
0000
1000
0000
0000
0000
0001
0000
0000
0000
0100
0000
0000
0000
1000
0000
0000
0000
0001
0000
0000
0000
0010
0000
0000
0000
0001
0000
0000
0100
0000
0000
0010
0000
0000
1000
0000
0000
,
0001
0000
0000
0000
0000
0000
0000
0000
0000
0000
0000
0000
0000
0000
0000
0000
0020
0000
0000
0030
0000
0000
0000
0000
0000
0000
0000
0000
0000
0000
0000
0000
0020
0000
0000
0030
0000
0000
0000
0000
0000
0000
0000
0000
0000
0000
0000
0000
1000
0000
0000
0000
0000
0000
0000
0000
0000
0000
0000
0000
0000
0000
0000
0000
0200
0000
0000
0300
0000
0000
0000
0000
0000
0000
0000
0000
0000
0000
0000
0000
0200
0000
0000
0300
0000
0000
0000
0000
0000
0000
0000
0000
0000
0000
0000
0000
0001
0000
0000
0000
0000
0000
0000
0000
0000
0000
0000
0000
0000
0000
0000
0000
1000
0000
0000
0000
0000
0000
0000
0000
0000
0000
0000
0000
0000
0000
0000
0000
0010
0000
0000
0000
0000
0000
0000
0000
0000
0000
0000
0000
0000
0000
0000
0000
0001
0000
0000
0000
0000
0000
0000
0000
0000
0000
0000
0000
0000
0000
0000
0000
1000
0000
0000
0000
0000
0000
0000
0000
0000
0000
0000
0000
0000
0000
0000
0000
0100
0000
0000
0000
0000
0000
0000
0000
0000
0000
0000
0000
0000
0000
0000
0000
,
0001
1000
0010
0001
1000
0100
0001
1000
0010
0001
0010
0100
,
0001
0000
0000
0000
0000
0000
0000
0000
0000
0000
0000
0000
0000
0000
0000
0000
0020
0000
0000
0030
0000
0000
0000
0000
0000
0000
0000
0000
0000
0000
0000
0000
0020
0000
0000
0030
0000
0000
0000
0000
0000
0000
0000
0000
0000
0000
0000
0000
1000
0000
0000
0000
0000
0000
0000
0000
0000
0000
0000
0000
0100
0000
0000
0000
0000
0000
0000
0000
0000
0000
0000
0000
0010
0000
0000
0000
0000
0000
0000
0000
0000
0000
0000
0000
0001
0000
0000
0000
0000
0000
0000
0000
0000
0000
0000
0000
1000
0000
0000
0000
0000
0000
0000
0000
0000
0000
0000
0000
0000
0000
0000
0000
0100
0000
0000
0000
0000
0000
0000
0000
0000
0000
0000
0000
0000
0000
0000
0000
0001
0000
0000
0000
0000
0000
0000
0000
0000
0000
0000
0000
0000
0000
0000
0000
1000
0000
0000
0000
0000
0000
0000
0000
0000
0000
0000
0000
0000
0000
0000
0000
0010
0000
0000
0000
0000
0000
0000
0000
0000
0000
0000
0000
0000
0000
0000
0000
0001
0000
0000
0000
0000
0000
0000
0000
0000
0000
0000
0000
0000
0000
0000
0000
,
1000
0000
0000
0000
0100
0000
0000
0000
0001
0000
0000
0000
1000
0000
0000
0000
0010
0000
0000
0000
0001
0000
0000
0000
1000
0000
0000
0000
0100
0000
0000
0000
0001
0000
0000
0000
0100
0000
0000
1000
0000
0000
0100
0000
0000
0010
0000
0000
,
0001
0000
0000
1000
0000
0000
0010
0000
0000
1000
0000
0000
0001
0000
0000
0100
0000
0000
0010
0000
0000
0100
0000
0000
0001
0000
0000
0000
0010
0000
0000
0000
1000
0000
0000
0000
0001
0000
0000
0000
0000
0000
0100
0000
0000
1000
0000
0000
,
0001
0000
0100
0010
0100
0010
1000
0001
0100
0000
0010
0000
1000
0100
0010
0001
,
0200
0000
0000
0300
,
0020
0000
0000
0030
,
2000
0000
0000
3000
,
0002
0000
0000
0000
0000
0000
0003
0010
,
2001
0000
0000
3000
,
0200
0000
0000
0300
,
0020
0000
0000
0030
,
0001
0100
0001
0100
0010
1000
0001
0100
0010
0000
0000
0000
2001
0000
0000
0000
,
0001
0100
0100
0001
,
0001
0000
0000
0000
0010
0000
0000
3000
0010
1000
0100
0010
0002
0000
0000
0000
,
1000
0100
0100
1000
,
1000
0000
0000
0000
0013
0000
0011
0000
0000
0001
1000
0100
1000
0000
0010
0100
,
0000
0001
0010
0000
0100
0010
0000
0001
0100
0000
0010
1000
0001
0000
0010
0100
,
0000
1000
0010
0000
0100
0010
0000
1000
0100
0000
0010
0001
1000
0000
0010
0000
,
0100
0000
0001
0010
0100
0000
0010
0001
1000
0000
0001
0100
2000
0000
3002
0000
,
0023
0000
2030
3000
0000
0000
0000
0000
0001
0010
0001
0100
0010
1000
0100
1000
,
0010
0000
1000
0100
0001
0100
0010
0000
0001
0100
1000
0100
0010
0000
1000
0001
,
0010
1000
0010
0000
0002
0000
2003
0000
3010
0100
1000
0000
0100
0001
1000
0010
,
1000
0000
0110
0000
0102
0000
0000
0013
0100
1000
0010
0100
0002
0000
0000
0000
,
0023
0000
2030
0000
3010
0001
1000
0100
0010
0000
0110
0000
2001
0000
0000
0000
,
3020
0000
0031
0010
1000
0010
0100
0000
1000
0100
0001
0000
0010
0001
0010
0100
,
2000
0000
0000
0000
3010
0100
0001
0010
0100
0000
1100
0000
0110
0000
1100
0000
,
0001
1000
0010
0000
0100
0000
0001
0010
0100
0000
1000
0001
0010
0001
0010
0000
,
0100
0000
0000
1000
0000
0000
0001
0000
0000
1000
0000
0000
0010
0000
0000
0000
0000
0000
0000
0000
0000
0000
0000
0000
0110
0000
0000
0000
0000
0000
0101
0000
0000
0000
0000
0000
0001
0000
0000
0000
0001
0000
0000
0000
0010
0000
0000
0000
,
0001
0100
0010
1000
0001
0010
0100
1000
0001
0100
0010
1000
0001
0010
0100
1000
,
0001
0000
0000
0000
0000
0000
0000
0000
0000
0000
0000
0000
0100
0000
0000
0000
0000
0000
0000
0000
0000
0000
0000
0000
0010
0000
0000
0000
0000
0000
0000
0000
0000
0000
0000
0000
1000
0000
0000
0000
0000
0000
0000
0000
0000
0000
0000
0000
0001
0000
0000
0000
0000
0000
0000
0000
0000
0000
0000
0000
0010
0000
0000
0000
0000
0000
0000
0000
0000
0000
0000
0000
0001
0000
0000
0000
0000
0000
0000
0000
0000
0000
0000
0000
1000
0000
0000
0000
0000
0000
0000
0000
0000
0000
0000
0000
0020
0000
0000
0030
0000
0000
0000
0000
0000
0000
0000
0000
0000
0000
0000
0000
0020
0000
0000
0030
0000
0000
0000
0000
0000
0000
0000
0000
0000
0000
0000
0000
0001
0000
0000
0000
0000
0000
0000
0000
0000
0000
0000
0000
0000
0000
0000
0000
0200
0000
0000
0300
0000
0000
0000
0000
0000
0000
0000
0000
0000
0000
0000
0000
0200
0000
0000
0300
0000
0000
0000
0000
0000
0000
0000
0000
0000
0000
0000
0000
1000
0000
0000
0000
0000
0000
0000
0000
0000
0000
0000
0000
0000
0000
0000
0000
,
0001
0010
0100
1000
0001
0100
0010
1000
0001
0010
0100
1000
0001
0100
0010
1000
,
0001
0010
0100
1000
0001
0100
0010
0100
0001
0010
1000
0010
0001
1000
0100
1000
,
0010
0100
0001
0010
0100
1000
0010
0100
0001
0010
0100
1000
0010
0100
0001
0010
,
0100
1000
0010
0100
0001
0010
0001
1000
0010
0100
1000
0100
0001
0100
0010
0100
,
0001
1000
0010
0200
0000
0301
0010
0001
1000
0000
0100
0001
0100
1000
0100
0010
,
0001
1000
0010
1000
0001
0100
1000
0100
0020
0000
0000
0000
1030
0000
0000
0000
;

//--------------- dance-double - forcednature ----------------
#NOTEDATA:;
#STEPSTYPE:dance-double;
#DESCRIPTION:forcednature;
#CREDIT:forcednature;
#DIFFICULTY:Easy;
#METER:9;
#RADARVALUES:0,0,0,0,0;
#NOTES:
00000000
00000000
00000000
00000000
,
00000000
00000000
00000000
00000000
,
00000000
00000000
00000000
00000000
,
00000000
00000000
00000000
00000000
,
00000000
00000000
00000000
00000000
,
00000000
00000000
00000000
00000000
,
00000000
00000000
00000000
00000000
,
00002000
00000000
00000000
00003000
,
00020000
00000000
00000000
00030000
,
00000200
00000000
00000000
00000300
,
00002000
00000000
00000000
00003000
,
00000002
00000000
00000000
00000003
,
00000020
00000000
00000000
00000030
,
00000002
00000000
00000000
00000003
,
00000200
00000010
00000010
00000301
,
00002001
00000000
00000100
00000000
,
00000001
00000001
00003001
00000000
,
00020000
00000000
00001000
00000000
,
00000100
00000100
00030100
00000000
,
00011000
00000000
00100000
00010000
,
10010000
00000000
10000000
00100000
,
10010000
00000000
01100000
00000000
,
00022000
00000000
00033000
00000000
,
00011000
00000000
00000000
00000000
00001000
00010000
00001000
00000000
,
00010000
00000000
00000100
00000000
00001000
00000100
00001000
00000000
,
00000010
00000010
00000200
00000000
,
00000301
00000010
00000001
00000000
00000010
00000000
00001000
00000000
,
00011000
00000000
00100000
00000000
00010000
00010000
00000000
01000000
,
01000000
00000000
00010000
00000000
10000000
00100000
10000000
00000000
,
10010000
01000000
01100000
00010000
,
00100000
00010000
00100000
00000000
00001000
00000000
00010000
00000000
,
00012000
00000000
01000000
00000000
,
00010000
00000000
00100000
00003000
,
00021000
00001000
00000100
00000000
,
00001000
00000000
00000010
00030000
,
00012000
00010000
00100000
00000000
,
00010000
00000000
01000000
00003000
,
00021000
00001000
00000010
00030000
,
00010000
00001000
00010000
00000000
00000100
00000000
00001000
00000000
,
00000220
00000000
00000000
00000000
,
00000000
00000000
00000000
00000000
,
00000000
00000000
00000000
00000000
,
00000000
00000000
00000000
00000330
,
00022000
00000000
00000000
00000000
,
00000000
00000000
00000000
00000000
,
00000000
00000000
00000000
00033000
,
00010000
00001000
00010000
00000000
00011000
00000000
01000000
00000000
,
01000000
00010000
00010000
00100000
,
00010000
00000000
01000000
00000000
00001000
00010000
00001000
00000000
,
00001000
00010000
00010000
00000100
,
00001000
00000000
00000000
00000000
00000010
00000000
00000100
00000000
00000000
00000100
00000000
00000000
00000001
00000000
00000000
00000000
,
00000001
00000010
00000001
00000000
00000001
00000100
00000010
00000000
,
00000010
00001000
00000100
00000000
00010000
00000000
00011000
00000000
,
00001000
00010000
00001000
00000000
01000000
00010000
02000000
00000000
,
03200000
00300000
00000000
00000000
10000000
00010000
10000000
00010000
,
10000000
00000000
01000000
00100000
00000000
00100000
00010000
00000000
,
00010000
01000000
00000000
00000000
00001000
00000000
00010000
00000000
,
00011000
00000000
00000000
00000000
00000100
00001000
00000200
00000000
,
00000310
00000001
00000000
00000001
00000100
00000000
00000010
00000000
,
00001000
00000001
00001000
00000000
00000100
00000000
00010000
00001000
,
00010000
00001000
00011000
00100000
,
00010000
10000000
00010000
00000000
02000000
00000000
00100000
00000000
,
00010000
00010000
03010000
00000000
10000000
01000000
00100000
00000000
,
00010000
00100000
00001000
00000000
00010000
00000100
00001000
00000000
,
00000100
00000010
00000001
00000000
00000001
00000100
00000010
00000000
,
00001000
00000010
00010000
00000000
00001000
01000000
00010000
00000000
,
01000000
00100000
10000000
00000000
10000000
01000000
00100000
00000000
,
00010000
00100000
00001000
00000000
00010000
00000100
00001000
00000000
,
00000100
00000010
00000001
00000000
00000001
00000100
00000010
00000000
,
00001000
00000010
00010000
00000000
00011000
00000000
00100000
00000000
,
00010000
01000000
00100000
00000000
10010000
00000000
00001000
00000000
;

//--------------- dance-double - forcednature ----------------
#NOTEDATA:;
#STEPSTYPE:dance-double;
#DESCRIPTION:forcednature;
#CREDIT:forcednature;
#DIFFICULTY:Medium;
#METER:14;
#RADARVALUES:0,0,0,0,0;
#NOTES:
00000000
00000000
00000000
00000000
,
00000000
00000000
00000000
00000000
,
00000000
00000000
00000000
00000000
,
00000000
00000000
00000000
00000000
,
00000000
00000000
00000000
00000000
,
00000000
00000000
00000000
00000000
,
00000000
00000000
00000000
00000000
,
00002000
00000000
00000000
00003000
,
00020000
00000000
00000000
00030000
,
00200000
00000000
00000000
00300000
,
20000000
00000000
00000000
30000000
,
02000000
00000000
00000000
03000000
,
00020000
00000000
00000000
00030000
,
00002000
00000000
00000000
00003000
,
00000020
00000000
00000100
00000000
00000100
00000100
00000130
00000000
,
00002001
00000100
00000001
00000010
,
00000001
00000100
00000001
00000010
,
00023000
01000000
10000000
00100000
,
00032000
00000000
00000000
00000000
00000100
00000000
00000000
00000000
00003001
00000000
00000010
00000000
00000000
00000010
00000000
00000000
,
00001001
00000000
00000000
00000001
00000000
00000000
00000100
00000000
00000000
00001000
00000000
00000000
00010000
00000000
00001000
00000000
,
00011000
00000000
00000000
00001000
00000000
00000000
00010000
00000000
00000000
00100000
00000000
00000000
10000000
00000000
00010000
00000000
,
10010000
00000000
00000000
10000000
01000000
00000000
00100000
00000000
10010000
00000000
00000000
00010000
01000000
00000000
00100000
00000000
,
00010000
00001000
00000100
00000010
00002000
00000000
00003000
00000000
,
00002002
00000000
00003000
00000000
00000013
00001000
00001000
00010000
,
00001000
00000000
00001000
00000000
00000100
00000000
00001000
00000000
00001000
00000000
00010000
00000000
00000000
00100000
00010000
00000000
,
00100000
00000000
00000000
00100000
10000000
00000000
10000000
00000000
00020000
00000000
00000000
00000000
00130000
00000000
01000000
00000000
,
10000000
01000000
00020000
00000000
00031000
00000010
00000001
00000000
,
00000100
00000100
00000102
00000000
00000013
00001000
00010000
00001000
,
00010000
00000000
00000000
01000000
10000000
00000000
00000000
00000000
00100000
00000000
01000000
00000000
00100000
01000000
00000000
00000000
,
00020000
10000000
10000000
10030000
10010000
00000000
00100000
00000000
,
10000000
01000000
01000000
00010000
00001000
00000010
00000002
00000000
,
00000103
00000000
00000000
00000100
00000000
00000000
00000001
00000000
00000100
00000000
00000001
00000000
00002000
00000000
00000000
00000010
00000000
00000000
00000010
00000000
00000000
00003001
00000000
00000000
,
00002000
00000010
00000010
00003001
00002000
00000010
00003010
00010000
,
00001000
00000000
00100000
00000000
00010000
00000000
01000000
00000000
00100000
00000000
10000000
00000000
02000000
00000000
00000000
00100000
00000000
00000000
00100000
00000000
00000000
13000000
00000000
00000000
,
02000000
00000000
00000000
00100000
00000000
00000000
00100000
00000000
00000000
13000000
00000000
00000000
01000000
00000000
00000000
00010000
00000000
00000000
00001000
00000000
00100000
00000000
00010000
00000000
,
01000000
00000000
00010000
00000000
00100000
00000000
00002000
00000000
00000000
00000000
00000000
00000000
00023000
00000000
00000000
00000010
00000000
00000000
00000010
00000000
00000000
00031000
00000000
00000000
,
00020000
00000010
00000010
00031000
00020000
00030010
00001000
00000100
,
00000010
00000010
00001000
00000010
00002000
00010000
00010000
00103000
,
00001000
00000000
00000000
00010000
01000000
00000000
10000000
00000000
00100000
00000000
01000000
00000000
00010000
00000000
00000000
00000000
,
10020000
00000000
00000000
00030000
,
00002000
00000000
00000000
00003000
,
00000020
00000000
00000000
00000030
,
00000200
00000000
00000000
00000000
00000000
00000000
00000300
00000010
,
00001002
00000000
00000000
00000003
,
00000020
00000000
00000000
00000030
,
00002000
00000000
00000000
00003000
,
01000000
00010000
01000000
00010000
01000000
00010000
01000000
00010000
10000000
00000000
00000000
00000000
00100000
00000000
00000000
01000000
,
00001000
00000000
00000000
00000000
00100000
00000000
00000000
01000000
00001000
00000000
00000000
00000000
00100000
00000000
00000000
01000000
,
00001000
00000000
00010000
00000000
00000010
00000000
00000000
00000000
00001000
00000000
00000100
00000000
00000010
00000000
00000000
00000100
,
00010000
00000000
00000000
00000000
00000010
00000000
00000000
00000100
00010000
00000000
00000000
00000000
00000010
00000000
00000000
00000100
,
00010000
00000000
00001000
00000000
00100000
00000000
00010000
00000000
00000000
00110000
00000000
00000000
11000000
00000000
00000000
10000000
,
01000000
00000000
00100000
00000000
00000000
01000000
10000000
00000000
01000000
00000000
00010000
00000000
00011000
00000000
00000000
00000100
,
00001000
00000000
00000010
00000000
00000000
00001000
00000100
00000000
00000010
00000000
00000001
00000000
00000100
00000000
00000001
00000100
,
00000001
00000000
00001000
00000000
00000010
00000000
00001000
00000010
00001000
00000000
00000100
00000000
00020000
00000000
00032000
00000000
,
00023000
00000000
00031000
00000000
00000000
00000000
00000000
00000000
00100000
00000000
01000000
00100000
01000000
00000000
00100000
00000000
,
00010000
00000000
01000000
00010000
01000000
00010000
00000000
00000000
10000000
00100000
10000000
00100000
00000000
00000000
10000000
01000000
,
10000000
01000000
00000000
00000000
00020000
00000000
00032000
00000000
00003010
00000000
00000100
00000000
00001000
00000001
00001000
00000001
,
00000020
00000000
00000000
00000000
00000230
00000000
00000000
00000000
00001300
00000001
00000100
00000001
00002000
00000000
00000000
00000000
,
00003010
00010000
00001000
00001000
01000000
00010000
02010000
00000000
,
03100000
00000000
10000000
00100000
10000000
00000000
01000000
00000000
00100000
00010000
00000000
00010000
00100000
00000000
00001000
00000000
,
00020000
00000000
00000000
00000000
00030100
00000000
00001000
00000100
00001000
00000000
00001000
00000000
00001010
00000000
00000001
00000000
,
00000100
00000000
00000000
00000001
00000010
00000000
00000100
00001000
00000100
00000000
00010000
00000000
00001000
00010000
00001000
00000000
,
00010000
00000000
00000000
00100000
00000000
00000000
20000000
00000000
00000000
00000000
00000000
00000000
30010000
00000000
00000000
00010000
00000000
00000000
00100000
00000000
00010000
00000000
00100000
00000000
,
01000000
00000000
00000000
01000000
10000000
00000000
01000000
00100000
00010000
00000000
00000000
00010000
00100000
00000000
00001000
00010000
,
00001000
00000000
00000000
00000000
00000000
00000000
00000000
00000000
00000000
00001000
00000000
00000000
00000010
00000000
00000000
00000000
00000000
00000000
00000001
00000000
00000000
00000000
00000000
00000000
00000100
00000000
00000000
00000000
00000010
00000000
00000000
00000000
00001000
00000000
00000000
00000000
00000100
00000000
00000000
00000000
00000010
00000000
00000000
00000000
00000001
00000000
00000000
00000000
,
00000100
00000000
00000000
00000100
00001000
00000000
00010000
00001000
00010000
00000000
00000000
00010000
00100000
00000000
01000000
00100000
,
10000000
00000000
10000000
00000000
01000000
00100000
01000000
00000000
00010000
00000000
00001000
00010000
00001000
00010000
00001000
00000000
,
00000010
00000000
00000000
00000010
00000001
00000000
00000100
00000001
00000100
00000000
00000000
00000100
00001000
00000000
00010000
00001000
,
00010000
00000000
00000000
00010000
01000000
00000000
01000000
00000000
10000000
01000000
10000000
00000000
00100000
10000000
00100000
00000000
,
01000000
00000000
00000000
01000000
00010000
00000000
00100000
00000000
02000000
00000000
00000000
00000000
03010000
00000000
00001000
00000000
,
00000010
00000000
00000001
00000000
00000100
00000001
00000100
00000000
00000020
00000000
00000000
00000000
01000030
00000000
00000000
00000000
;

//--------------- dance-double - forcednature ----------------
#NOTEDATA:;
#STEPSTYPE:dance-double;
#DESCRIPTION:forcednature;
#CREDIT:forcednature;
#DIFFICULTY:Hard;
#METER:17;
#RADARVALUES:0,0,0,0,0;
#NOTES:
00000000
00000000
00000000
00000000
,
00000000
00000000
00000000
00000000
,
00000000
00000000
00000000
00000000
,
00000000
00000000
00000000
00000000
,
00000000
00000000
00000000
00000000
,
00000000
00000000
00000000
00000000
,
00000000
00000000
00000000
00000000
,
00022000
00000000
00000000
00030000
,
00000020
00000000
00000000
00003000
,
00000002
00000000
00000000
00000030
,
00000200
00000000
00000000
00000303
,
00002020
00000000
00000000
00000030
,
00020000
00000000
00000000
00003000
,
02000000
00000000
00000000
03030000
,
10000000
00100000
10000000
00100000
01000000
00010000
01000000
00001000
00010000
00000010
00001000
00000010
00000100
00000000
00000000
00000000
,
00002001
00000001
00000100
00000100
,
00000001
00000000
00000000
00000000
00000001
00000000
00000000
00000000
00003010
00000000
00001000
00000000
00010000
01000000
00100000
10000000
,
00020000
00000000
01000000
00000000
00130000
00010000
00001000
00000100
,
00002000
00000000
00000000
00000000
00000001
00000000
00000000
00000000
00003010
00000000
00001000
00000000
00010000
01000000
00010000
10000000
,
00100000
00000000
10000000
01000000
00000000
00100000
01000000
00000000
00100000
00001000
00000000
00010000
00000100
00000000
00010000
00001000
,
00000010
00000000
00000001
00000100
00000000
00000010
00000100
00000000
00000010
00001000
00000000
00010000
01000000
00000000
00010000
10000000
,
00010000
00000000
00100000
01000000
00000000
10000000
01000000
10000000
00010000
00000000
00100000
00001000
00000000
00010000
00001000
00010000
,
00000100
00001000
00000010
00000100
00000001
00000010
00000100
00001000
00000020
00000000
00000000
00000000
00000030
00000000
00000000
00000000
,
00002001
00000000
00003200
00000000
00000301
00000100
00010000
00001000
,
00100000
00000000
10000000
00000000
00100000
00000000
00001000
00000000
00010000
00000000
00100000
00000000
10000000
00010000
01000000
00100000
,
10000000
00000000
00000000
00000000
00000000
00000000
00000000
00000000
00000000
00000000
00000000
00000000
10000000
00000000
00000000
00000000
02000000
03000000
00000000
00000000
00000000
00000000
00000000
00000000
02000000
03000000
00000000
00000000
00000000
00000000
00000000
00000000
00020000
00000000
00000000
00000000
00000000
00000000
00000000
00000000
00000000
00000000
00000000
00000000
00030000
00000000
00000000
00000000
01000000
00000000
00000000
00000000
00010000
00000000
00000000
00000000
00100000
00000000
00000000
00000000
00001000
00000000
00000000
00000000
,
00010000
00000100
00001000
00000010
00000200
00000000
00000000
00000000
00000301
00000010
00001000
00000000
00000010
00000000
00000000
00000000
,
00001100
00000000
00011000
00000000
00110000
00000000
00000000
00000000
00010000
00000000
01000000
00010000
00100000
00000000
01000000
10000000
,
01000000
00010000
00000000
00001000
00010000
00001000
00000010
00000000
00000001
00000000
00000100
00000001
00001000
00000010
00000100
00000000
,
00001010
00000000
00011000
00000000
01010000
00000000
01100000
00000000
10010000
00000000
00010000
00100000
00000000
01000000
00100000
01000000
,
10000000
00000000
01000000
00000000
00010000
00001000
00010000
00001000
00010000
00000100
00001000
00000010
00000200
00000000
00000000
00000000
,
00000301
00000000
00000000
00000000
00000000
00000000
00000000
00000000
00000000
00000000
00000000
00000000
00000000
00000000
00000000
00000000
00000000
00000000
00000000
00000000
00000000
00000000
00000000
00000000
00000010
00000000
00000000
00000000
00000000
00000000
00000000
00000000
00000000
00000000
00000000
00000000
00000000
00000000
00000000
00000000
00000000
00000000
00000000
00000000
00000000
00000000
00000000
00000000
00000001
00000000
00000000
00000000
00000000
00000000
00000000
00000000
00000000
00000000
00000000
00000000
00000000
00000000
00000000
00000000
00000200
00000000
00000000
00000300
00000000
00000000
00000000
00000000
00000000
00000000
00000000
00000000
00000000
00000000
00000000
00000000
00000200
00000000
00000000
00000300
00000000
00000000
00000000
00000000
00000000
00000000
00000000
00000000
00000000
00000000
00000000
00000000
00001000
00000000
00000000
00000000
00000000
00000000
00000000
00000000
00000000
00000000
00000000
00000000
00000000
00000000
00000000
00000000
00000010
00000000
00000000
00000000
00000000
00000000
00000000
00000000
00000000
00000000
00000000
00000000
00000000
00000000
00000000
00000000
00000100
00000000
00000000
00000000
00000000
00000000
00000000
00000000
00000000
00000000
00000000
00000000
00000000
00000000
00000000
00000000
00001000
00000000
00000000
00000000
00000000
00000000
00000000
00000000
00000000
00000000
00000000
00000000
00000000
00000000
00000000
00000000
00010000
00000000
00000000
00000000
00000000
00000000
00000000
00000000
00000000
00000000
00000000
00000000
00000000
00000000
00000000
00000000
00000100
00000000
00000000
00000000
00000000
00000000
00000000
00000000
00000000
00000000
00000000
00000000
00000000
00000000
00000000
00000000
,
00001000
00000000
00000000
00000000
00010000
00000000
00000000
00000000
00100000
00000000
00000000
00000000
00001000
00000000
00000000
00000000
00010000
00000000
00000000
00000000
00100000
00000000
00000000
00000000
01000000
00000000
00000000
00000000
00010000
00000000
00000000
00000000
00100000
00000000
00000000
00000000
01000000
00000000
00000000
10000000
00000000
00000000
00100000
00000000
00000000
10000000
00000000
00000000
,
01000000
00000000
00000000
00000000
00000000
00000000
00000000
00000000
00000000
00000000
00000000
00000000
00000000
00000000
00000000
00000000
00020000
00000000
00000000
00030000
00000000
00000000
00000000
00000000
00000000
00000000
00000000
00000000
00000000
00000000
00000000
00000000
00020000
00000000
00000000
00030000
00000000
00000000
00000000
00000000
00000000
00000000
00000000
00000000
00000000
00000000
00000000
00000000
00100000
00000000
00000000
00000000
00000000
00000000
00000000
00000000
00000000
00000000
00000000
00000000
00000000
00000000
00000000
00000000
00020000
00000000
00000000
00030000
00000000
00000000
00000000
00000000
00000000
00000000
00000000
00000000
00000000
00000000
00000000
00000000
00020000
00000000
00000000
00030000
00000000
00000000
00000000
00000000
00000000
00000000
00000000
00000000
00000000
00000000
00000000
00000000
00001000
00000000
00000000
00000000
00000000
00000000
00000000
00000000
00000000
00000000
00000000
00000000
00000000
00000000
00000000
00000000
00000010
00000000
00000000
00000000
00000000
00000000
00000000
00000000
00000000
00000000
00000000
00000000
00000000
00000000
00000000
00000000
00000001
00000000
00000000
00000000
00000000
00000000
00000000
00000000
00000000
00000000
00000000
00000000
00000000
00000000
00000000
00000000
00000100
00000000
00000000
00000000
00000000
00000000
00000000
00000000
00000000
00000000
00000000
00000000
00000000
00000000
00000000
00000000
00001000
00000000
00000000
00000000
00000000
00000000
00000000
00000000
00000000
00000000
00000000
00000000
00000000
00000000
00000000
00000000
00010000
00000000
00000000
00000000
00000000
00000000
00000000
00000000
00000000
00000000
00000000
00000000
00000000
00000000
00000000
00000000
,
00100000
10000000
01000000
00010000
00001000
00000010
00000001
00000100
00001000
00010000
00100000
10000000
,
00010000
00000000
00000000
00000000
00000000
00000000
00000000
00000000
00000000
00000000
00000000
00000000
00000000
00000000
00000000
00000000
00200000
00000000
00000000
00300000
00000000
00000000
00000000
00000000
00000000
00000000
00000000
00000000
00000000
00000000
00000000
00000000
00200000
00000000
00000000
00300000
00000000
00000000
00000000
00000000
00000000
00000000
00000000
00000000
00000000
00000000
00000000
00000000
10000000
00000000
00000000
00000000
00000000
00000000
00000000
00000000
00000000
00000000
00000000
00000000
01000000
00000000
00000000
00000000
00000000
00000000
00000000
00000000
00000000
00000000
00000000
00000000
00100000
00000000
00000000
00000000
00000000
00000000
00000000
00000000
00000000
00000000
00000000
00000000
00010000
00000000
00000000
00000000
00000000
00000000
00000000
00000000
00000000
00000000
00000000
00000000
10000000
00000000
00000000
00000000
00000000
00000000
00000000
00000000
00000000
00000000
00000000
00000000
00000000
00000000
00000000
00000000
01000000
00000000
00000000
00000000
00000000
00000000
00000000
00000000
00000000
00000000
00000000
00000000
00000000
00000000
00000000
00000000
00100000
00000000
00000000
00000000
00000000
00000000
00000000
00000000
00000000
00000000
00000000
00000000
00000000
00000000
00000000
00000000
00010000
00000000
00000000
00000000
00000000
00000000
00000000
00000000
00000000
00000000
00000000
00000000
00000000
00000000
00000000
00000000
01000000
00000000
00000000
00000000
00000000
00000000
00000000
00000000
00000000
00000000
00000000
00000000
00000000
00000000
00000000
00000000
00100000
00000000
00000000
00000000
00000000
00000000
00000000
00000000
00000000
00000000
00000000
00000000
00000000
00000000
00000000
00000000
,
00010000
00000000
00000000
00000000
00001000
00000000
00000000
00000000
00100000
00000000
00000000
00000000
00010000
00000000
00000000
00000000
00001000
00000000
00000000
00000000
00000100
00000000
00000000
00000000
00010000
00000000
00000000
00000000
00001000
00000000
00000000
00000000
00000100
00000000
00000000
00000000
00000010
00000000
00000000
00001000
00000000
00000000
00000001
00000000
00000000
00000100
00000000
00000000
,
00001000
00000000
00000000
00010000
00000000
00000000
00001000
00000000
00000000
00010000
00000000
00000000
00100000
00000000
00000000
01000000
00000000
00000000
00010000
00000000
00000000
10000000
00000000
00000000
01000000
00000000
00000000
00000000
00010000
00000000
00000000
00000000
00001000
00000000
00000000
00000000
00010000
00000000
00000000
00000000
00000000
00000000
00001000
00000000
00000000
00000010
00000000
00000000
,
00000001
00000000
00000100
00000001
00001000
00000010
00001000
00000001
00000010
00000000
00001000
00000000
00010000
01000000
00100000
01000000
,
20000000
00000000
00000000
30000000
,
00200000
00000000
00000000
00300000
,
00020000
00000000
00000000
00030000
,
00002000
00000000
00000000
00000000
00000000
00000000
00003000
00000010
,
00001002
00000000
00000000
00000003
,
00000200
00000000
00000000
00000300
,
00002000
00000000
00000000
00003000
,
00010000
00100000
00010000
00100000
10000000
00010000
01000000
00100000
10000000
00000000
00000000
00000000
10020000
00000000
00000000
00000000
,
10000000
01000000
01000000
10000000
,
10000000
00000000
00000000
00000000
00130000
00000000
00010000
00000000
00001000
00000100
00000010
00000001
00002000
00000000
00000000
00000000
,
00000001
00000100
00000100
00000001
,
00000001
00000000
00000000
00000000
00003010
00000000
00001000
00000000
00000000
00010000
01000000
00010000
10000000
00000000
01000000
00010000
,
00000000
00001000
00010000
00000000
00001000
00000010
00000000
00000001
00001000
00000000
00000100
00000010
00000001
00000000
00000100
00001000
,
00000000
00010000
00001000
00000000
00010000
00100000
00000000
10000000
00010000
00000000
10000000
01000000
00010000
00000000
00001000
00000000
,
00100000
00000000
00010000
00100000
00001000
00000000
00000010
00000100
00001000
00000000
00000010
00000100
00000002
00000000
00002003
00000000
,
00023000
00000000
10030000
00000000
00000000
00000000
00000000
00000000
10000000
01000000
00100000
00010000
00001000
00000100
00000010
00000001
,
00001000
00000000
00000010
00000100
00001000
00010000
00001000
00000000
00100000
01000000
00010000
00001000
00010000
00000000
00000100
00000010
,
00001000
00010000
00001000
00000000
02000000
00000000
03020000
00000000
10030000
01000000
00010000
00000000
00001000
00010000
00001000
00000010
,
00000001
00000000
00000100
00000000
00000201
00000000
00000000
00001300
00010000
00001000
00010000
00100000
20000000
00000000
00000000
00000000
,
32000000
00000000
03020000
00000000
00031000
00100000
00010000
00000000
01000000
00000000
01100000
00000000
10020000
00000000
00000000
00000000
,
00032000
00000000
00003100
00001000
00000100
00000010
00000001
00000000
00000100
00000001
00000100
00000000
00001000
00010000
00001000
00010000
,
00200000
00000000
00000000
00000000
01300000
00010000
10000000
00100000
01000000
00000000
01100000
00000000
01100000
00000000
01100000
00000000
,
00010000
10000000
00100000
10000000
01000000
00000000
01000000
00010000
00001000
00000000
00100000
00010000
00100000
00001000
00010000
00000000
,
00000010
00000000
00000000
00001000
00000000
00000000
00000100
00000000
00000000
00000010
00000000
00000000
00000002
00000000
00000000
00000000
00000000
00000000
00000000
00000000
00000000
00000000
00000000
00000000
00000103
00000000
00000000
00000000
00000000
00000000
00000110
00000000
00000000
00000000
00000000
00000000
00001000
00000000
00000000
00000000
00001000
00000000
00000000
00000000
00000001
00000000
00000000
00000000
,
00001001
00000000
00000001
00000100
00001000
00000000
00010000
00100000
10000000
00000000
10000000
01000000
00010000
00000000
00001000
00000010
,
00000001
00000000
00000000
00000000
00000000
00000000
00000001
00000000
00000000
00000100
00000000
00000000
00001000
00000000
00000000
00000000
00000000
00000000
00010000
00000000
00000000
00100000
00000000
00000000
10000000
00000000
00000000
00000000
10000000
00000000
00000000
00000000
00010000
00000000
00000000
00000000
00010000
00000000
00000000
00000000
10000000
00000000
00000000
00000000
00010000
00000000
00000000
00000000
,
10010000
00000000
10000000
01000000
00010000
00000000
00001000
00000100
00000001
00000000
00000001
00000010
00001000
00000000
00010000
00100000
,
10000000
00000000
10000000
01000000
00010000
00000000
00001000
00000100
00000001
00001000
00000001
00001000
00000010
00000100
00000000
00000100
,
00000001
00000000
00000001
00000100
00001000
00010000
00100000
10000000
00010000
00000000
10000000
01000000
00010000
00001000
00000010
00000001
,
00001000
00000000
00000001
00000100
00001000
00010000
00100000
10000000
00010000
00100000
00010000
01000000
00010000
10000000
00010000
01000000
,
00010000
00000000
10000000
01000000
00010000
00001000
00000100
00000001
00000010
00000000
00000100
00001000
00000100
00001000
00000001
00000010
,
00001000
00000000
00010000
00001000
00010000
00100000
01000000
00100000
10000000
00000000
00000000
00000000
00000001
00000000
00000000
00000000
;
