#VERSION:0.83;
#TITLE:ナナイロ;
#SUBTITLE:;
#ARTIST:otetsu;
#TITLETRANSLIT:Nanairo;
#SUBTITLETRANSLIT:;
#ARTISTTRANSLIT:;
#GENRE:;
#CREDIT:;
#MUSIC:Nanairo.ogg;
#BANNER:Nanairo.png;
#BACKGROUND:Nanairo-bg.png;
#CDTITLE:./CDTitles/SDVX BOOTH.png;
#SAMPLESTART:54.962;
#SAMPLELENGTH:15.000;
#SELECTABLE:YES;
#OFFSET:0.028;
#BPMS:0.000=230.000;
#STOPS:;
#TIMESIGNATURES:0.000=4=4;
#BGCHANGES:0.000=../BGAs/19po.mp4=1.000=0=0=0=StretchNoLoop====,
99999.000=-nosongbg-=1.000=0=0=0=StretchNoLoop====
;
#FGCHANGES:;

//--------------- dance-single - forcednature ----------------
#NOTEDATA:;
#STEPSTYPE:dance-single;
#DESCRIPTION:forcednature;
#DIFFICULTY:Beginner;
#METER:1;
#RADARVALUES:0,0,0,0,0;
#CREDIT:forcednature;
#NOTES:
0000
0000
0000
0000
,
0000
0000
0000
0000
,
0000
0000
0000
0000
,
0000
0000
0000
0000
,
0000
0000
0000
0000
,
0000
0000
0000
0000
,
0000
0000
0000
0000
,
0000
0000
0000
0000
,
0000
0000
0000
0000
,
0000
0000
0000
0000
,
0000
0000
0000
0000
,
1000
0000
0000
0000
,
0000
0000
0000
0000
,
0000
0000
0000
0000
,
0000
0000
0000
0000
,
0001
0000
0000
0000
,
0000
0000
0000
0000
,
0000
0000
0000
0000
,
0000
0000
0000
0000
,
0100
0000
0000
0000
,
0000
0000
0000
0000
,
0000
0000
0000
0000
,
0000
0000
0000
0000
,
0010
0000
0000
0000
,
0000
0000
0000
0000
,
0000
0000
0000
0000
,
0000
0000
0000
0000
,
1000
0000
0000
0000
,
0000
0000
0000
0000
,
0001
0000
0000
0000
,
0000
0000
0000
0000
,
1000
0000
0000
0000
,
0000
0000
0000
0000
,
0000
0000
0000
0000
,
0000
0000
0000
0000
,
0100
0000
0000
0000
,
0000
0000
0000
0000
,
0000
0000
0000
0000
,
0000
0000
0000
0000
,
0010
0000
0000
0000
,
0000
0000
0000
0000
,
0001
0000
0000
0000
,
0000
0000
0000
0000
,
1000
0000
0000
0000
,
0000
0000
0000
0000
,
0000
0000
0000
0000
,
0000
0000
0000
0000
,
0010
0000
0000
0000
,
0000
0000
0000
0000
,
0100
0000
0000
0000
,
0000
0000
0000
0000
,
0001
0000
0000
0000
,
0000
0000
0000
0000
,
1001
0000
0000
0000
,
0000
0000
0000
0000
,
1000
0000
0000
0000
,
0000
0000
0000
0000
,
0100
0000
0000
0000
,
0000
0000
0000
0000
,
1000
0000
0000
0000
,
0000
0000
0000
0000
,
0001
0000
0000
0000
,
0000
0000
0000
0000
,
0100
0000
0000
0000
,
0000
0000
0000
0000
,
0001
0000
0000
0000
,
0000
0000
0000
0000
,
0010
0000
0000
0000
,
0000
0000
0000
0000
,
1001
0000
0000
0000
,
0000
0000
0000
0000
,
0001
0000
0000
0000
,
0000
0000
0000
0000
,
0100
0000
0000
0000
,
0000
0000
0000
0000
,
0001
0000
0000
0000
,
0000
0000
0000
0000
,
1000
0000
0000
0000
,
0000
0000
0000
0000
,
0100
0000
0000
0000
,
0000
0000
0000
0000
,
1000
0000
0000
0000
,
0000
0000
0000
0000
,
0010
0000
0000
0000
,
0000
0000
0000
0000
,
1001
0000
0000
0000
,
0000
0000
0000
0000
,
0000
0000
0000
0000
,
0000
0000
0000
0000
,
0001
0000
0000
0000
,
0000
0000
0000
0000
,
0000
0000
0000
0000
,
0000
0000
0000
0000
,
0010
0000
0000
0000
,
0000
0000
0000
0000
,
0100
0000
0000
0000
,
0000
0000
0000
0000
,
1000
0000
0000
0000
,
0000
0000
0000
0000
,
0001
0000
0000
0000
;

//--------------- dance-single - forcednature ----------------
#NOTEDATA:;
#STEPSTYPE:dance-single;
#DESCRIPTION:forcednature;
#DIFFICULTY:Easy;
#METER:5;
#RADARVALUES:0,0,0,0,0;
#CREDIT:forcednature;
#NOTES:
0000
0000
0000
0000
,
0000
0000
0000
0000
,
0000
0000
0000
0000
,
0000
0000
0000
0000
,
0000
0000
0000
0000
,
0000
0000
0000
0000
,
0000
0000
0000
0000
,
0000
0000
0000
0000
,
0000
0000
0000
0000
,
0000
0000
0000
0000
,
0000
0000
0000
0000
,
1001
0000
0000
0000
,
0001
0000
0100
0000
,
0010
0000
1000
0000
,
0001
0000
0000
0000
,
1001
0000
0000
0000
,
1000
0000
0100
0000
,
0010
0000
0001
0000
,
1000
0000
0000
0000
,
0001
0000
0100
0000
,
0001
0000
0000
0000
,
0001
0000
0010
0000
,
0001
0000
0000
0000
,
1000
0000
0100
0000
,
1000
0000
0000
0000
,
1000
0000
0010
0000
,
1000
0000
0000
0000
,
2002
0000
0000
0000
0000
3003
0000
0000
,
0110
0000
0000
0000
,
0001
0000
0010
0000
,
0001
0000
0000
0000
,
1000
0000
0010
0000
,
1000
0000
0000
0000
,
0100
0000
0010
0000
,
0100
0000
0000
0000
,
1000
0000
1000
0000
,
0010
0000
0100
0000
,
0001
0000
0001
0000
,
0010
0000
0100
0000
,
1000
0000
1000
0000
,
0001
0000
0100
0000
,
0001
0000
0010
0000
,
0001
0000
0000
0000
,
0100
0000
0100
0000
,
0010
0000
1000
0000
,
0100
0000
0100
0000
,
0010
0000
0001
0000
,
0100
0000
0001
0000
,
0010
0000
0001
0000
,
0100
0000
0000
0000
0100
0000
0000
0100
,
0000
0000
0000
0100
0000
0000
0000
0000
,
0010
0000
0000
1000
0000
1000
0000
1000
,
0000
0000
0001
0000
,
1001
0000
1000
0100
,
1000
0000
0001
0000
,
0010
0000
0001
0100
,
0001
0000
0010
0000
,
0110
0000
0100
1000
,
0100
0000
0010
0000
,
0001
0000
0100
0000
,
0010
0000
1000
0000
,
1001
0000
0001
0010
,
0001
0000
0100
0000
,
0001
0000
1000
0010
,
1000
0000
0100
0000
,
0110
0000
0010
0001
,
0010
0000
0100
0000
,
1000
0000
0001
0000
,
0100
0010
0100
0000
,
1001
0000
0001
0100
,
0001
0000
0010
0000
,
0100
0000
0010
0001
,
0010
0000
0100
0000
,
1000
0000
0010
0100
,
0010
0000
1000
0000
,
0001
0000
0110
0000
,
1001
0000
1000
0000
,
1001
0000
0001
0100
,
0001
0000
1000
0000
,
0010
0000
1000
0100
,
1000
0000
0010
0000
,
0110
0000
0100
0000
,
0001
0010
0001
0000
,
1001
0000
0110
0000
,
1000
1000
0001
0000
,
0100
0000
0001
0000
,
0100
0000
0010
0000
,
1000
0000
0001
0000
,
0010
0000
0000
0000
,
0100
0000
1000
0000
,
0010
0000
1000
0000
,
0100
0000
0010
0000
,
0001
0000
0000
0000
,
1001
0000
0000
0000
,
0000
0000
0000
0000
,
0110
0000
0000
0000
,
0000
0000
0000
0000
,
1001
0000
0000
0000
,
0000
0000
0000
0000
,
0110
0000
0000
0000
,
0000
0000
0000
0000
2002
0000
0000
3003
;

//--------------- dance-single - forcednature ----------------
#NOTEDATA:;
#STEPSTYPE:dance-single;
#DESCRIPTION:forcednature;
#DIFFICULTY:Medium;
#METER:9;
#RADARVALUES:0,0,0,0,0;
#CREDIT:forcednature;
#NOTES:
0000
0000
0000
0000
,
0000
0000
0000
0000
,
0000
0000
0000
0000
,
0000
0000
0000
0000
,
0000
0000
0000
0000
,
0000
0000
0000
0000
,
0000
0000
0000
0000
,
0000
0000
0000
0000
,
0000
0000
0000
0000
,
0000
0000
0000
0000
,
0000
0000
0000
0000
,
1000
0001
0100
0001
,
0100
0010
1000
0000
,
0100
0010
0100
1000
,
0001
0000
0100
0000
0010
1000
0010
0000
,
0100
0001
1000
0100
,
0010
0001
0100
0000
,
0010
1000
0001
0010
,
0100
0000
1000
0000
0010
0100
0010
0000
,
1000
0001
0010
0001
,
0100
0000
0001
0000
0020
0000
0000
0030
,
0001
1000
0010
1000
,
0100
0000
1000
0000
0020
0000
0000
0030
,
1000
0001
0100
0001
,
0010
0000
0001
0000
0200
0000
0000
0300
,
0001
1000
0100
1000
,
0010
1000
0200
0300
,
0220
0000
0000
0330
,
0100
0000
1000
0000
0002
0000
0000
0003
,
0100
0001
0100
1000
,
0100
0000
0010
0000
2000
0000
0000
3000
,
0100
0001
0100
1000
,
0100
0000
0010
0000
0002
0000
0000
0003
,
0100
0010
1000
0001
,
0020
0000
0130
1000
,
1001
0000
0001
0001
,
0100
0010
1000
0001
,
0010
0000
0100
0100
,
1000
0010
0100
0001
,
1000
0000
0100
0100
,
1000
0010
0100
0001
,
1001
0000
1000
0010
,
0100
0001
0100
0000
0010
0000
1000
0000
,
0001
0001
0010
0001
,
0100
0010
1000
0100
,
1000
1000
0010
0100
,
0001
1000
0100
0000
,
0110
0000
0010
0001
,
0100
0010
1000
0001
,
1000
0000
1000
0000
0001
0100
0000
0010
,
0000
1000
0000
2002
0000
0000
3003
0000
,
0001
1000
0000
0100
0000
0010
0000
0002
,
0000
0103
0110
0000
,
1002
0000
1003
0010
,
1000
0000
0000
0001
0000
0000
0010
0000
,
0210
0000
0310
0001
,
1000
0000
0000
0010
0000
0000
0100
0000
,
0001
0010
0100
0010
,
0100
1000
0001
1000
,
0010
0000
0000
0100
0000
0000
0001
0000
,
1002
0000
1003
0100
,
0210
0000
0310
0001
,
0100
0000
0000
0010
0000
0000
1000
0000
,
2001
0000
3001
1000
,
0100
0000
0000
0010
0000
0000
0001
0000
,
1001
1000
0010
1000
,
0100
0010
0001
0100
,
0010
1000
0001
0010
,
0100
0010
0100
0000
1000
0000
0001
0000
,
1002
0000
1003
0010
,
0100
0000
0000
0001
0000
0000
0010
0000
,
0120
0000
0031
1000
,
0100
0000
0000
1000
0000
0000
0010
0000
,
0100
0000
0001
0100
0001
0000
0100
0000
,
0010
0000
1000
0010
1000
0000
0001
0000
,
0010
0000
0000
0110
0000
0000
0100
0000
,
2002
0000
3003
0110
,
1002
0000
1003
0010
,
1000
0000
0000
0100
0000
0000
0010
0000
,
0012
0000
1003
0001
,
0100
0000
0000
0010
0000
0000
1010
0000
,
0001
0000
1000
0000
0100
0010
0100
0000
,
1000
0000
0001
0000
0100
0010
0100
0000
,
0001
1000
0001
0010
,
0100
1000
0100
0000
0010
0000
0000
0000
,
0001
0000
0100
0000
0010
0000
0000
1000
,
0000
0001
0000
0100
0000
0000
0010
0000
,
1000
0000
0001
0000
0010
0000
0000
0100
,
0000
1000
0000
0100
0000
0000
0010
0000
,
0001
0000
1000
0000
0010
0000
0000
0100
,
0000
0001
0000
1000
0000
0000
0100
0000
,
0010
0000
0100
0000
1000
0000
0000
0001
,
0000
0100
0000
0010
0000
0000
1000
0000
,
1001
0000
0000
0000
0000
0010
0000
0010
,
0000
0000
0000
0000
,
1001
0000
0000
0000
0000
0100
0000
0100
,
0000
0000
0000
0000
,
1001
0000
0000
0000
0000
0010
0000
0110
,
0000
0000
0000
0000
,
1001
0000
0000
0000
0000
0100
0000
0110
,
0000
0000
0010
0000
2002
0000
0000
3003
;

//--------------- dance-single - forcednature ----------------
#NOTEDATA:;
#STEPSTYPE:dance-single;
#DESCRIPTION:forcednature;
#DIFFICULTY:Hard;
#METER:13;
#RADARVALUES:0,0,0,0,0;
#CREDIT:forcednature;
#NOTES:
0000
0000
0000
0000
,
0000
0000
0000
0000
,
0000
0000
0000
0000
,
0000
0000
0000
0000
,
0000
0000
0000
0000
,
0000
0000
0000
0000
,
0000
0000
0000
0000
,
0000
0000
0000
0000
,
0000
0000
0000
0000
,
0000
0000
0000
0000
,
0000
0000
0000
0000
0000
0000
1000
0100
,
1000
0000
0001
0000
0100
0010
0000
1000
,
0000
0001
0010
0001
0000
0100
0010
1000
,
0001
0000
0010
0000
0100
0000
1000
0001
,
0000
0100
0010
1000
0000
0001
0010
0100
,
0010
0000
0001
0000
1000
0010
0000
0100
,
0000
0001
1000
0100
0000
1000
0001
0010
,
0001
0000
0100
0000
0010
0000
1000
0001
,
0000
0010
0100
0000
1000
0100
0010
0001
,
0000
0000
0100
0001
0100
0001
0100
0010
,
0100
0010
1000
0010
1000
0000
0001
0000
,
0000
0000
0001
0010
0001
0000
0010
0100
,
0010
0100
1000
0100
1000
0000
0001
0000
,
0000
0000
1000
0010
1000
0010
0100
0010
,
0100
0010
0100
0001
0100
0000
0001
0000
,
0000
0000
0001
0010
0001
0010
0100
0010
,
0100
0010
0100
1000
0100
0000
1000
0000
,
2001
0010
0010
3010
,
1001
0000
0001
0100
0001
0000
0010
0000
,
0110
0000
0100
1000
0100
0000
0010
0001
,
0010
0001
1000
0010
1000
0000
0001
0000
,
0101
0000
0100
0010
0100
0010
1000
0001
,
1000
0001
0010
0100
0010
0000
0001
0000
,
0000
0000
1000
0010
1000
0000
0001
0000
,
0020
0000
0130
1000
,
1001
0000
0001
0000
0001
0100
0010
0000
,
0010
1000
0001
0000
0010
0000
0100
1000
,
0100
0000
1000
0000
1100
0000
1000
0010
,
0100
0000
0001
0010
0001
0000
0100
0000
,
0002
0010
0023
0100
,
0230
1000
2300
0001
,
3010
0000
0100
0000
0001
1000
0001
0000
,
0010
0000
0100
1000
0000
0001
0100
0000
,
0110
0000
0010
0000
0010
1000
0010
0000
,
0010
0100
0001
0000
0010
0000
0100
1000
,
0001
0000
0100
0000
0010
1000
0100
0000
,
0100
0010
0001
0100
0010
0000
1000
0000
,
1001
0000
0001
0000
0010
0100
0010
0000
,
0001
0000
1000
0000
0010
0010
0100
0000
,
1001
0000
1000
0000
0001
0010
0000
0110
,
0000
0100
0000
1001
0000
0001
0100
0001
,
1000
0010
0000
1100
0000
0101
0000
1001
,
0000
1000
0100
0010
0001
0000
0100
0000
,
0110
0000
0010
1000
0100
1000
0001
0000
,
0010
0000
0100
1000
0000
0100
0010
0000
,
0011
0000
0001
1000
0010
0100
0001
0000
,
1000
0000
0100
0010
0000
0100
1000
0010
,
1000
0000
1000
0100
0001
0000
0001
0100
,
0010
0000
0001
0100
1000
0000
0100
0000
,
0110
0000
0010
1000
0000
0001
0010
0000
,
0100
1000
0100
0000
0010
0001
0100
0001
,
1000
0000
0010
0100
0001
0000
0011
0000
,
0110
0000
0000
1100
0000
0000
1001
0000
,
0220
0000
0330
0101
,
1010
0000
0000
1001
0000
0000
0110
0000
,
1001
0000
0001
0100
1000
0000
1000
0100
,
0010
0000
1000
0001
0010
0000
0100
0000
,
0110
0000
0010
0000
0001
0100
0000
0010
,
1000
0001
0010
0100
0010
0001
1000
0010
,
0100
0000
0010
1000
0001
0010
0100
0000
,
0010
0000
0001
0100
0000
1000
0100
0000
,
0110
0000
0010
1000
0100
0010
0001
0000
,
0100
0000
1000
0100
0000
0001
0010
0001
,
0100
0000
0001
0010
1000
0000
1000
0010
,
0100
0000
0001
0100
1000
0000
0010
0000
,
0110
0000
0100
0001
0000
0010
0100
0000
,
1000
0010
1000
0000
0100
0001
0100
0010
,
0001
0000
0100
0010
1000
0000
1100
0000
,
0011
0000
0000
0101
0000
0000
1010
0000
,
1002
0010
0103
0011
,
1100
0000
0000
1010
0000
0000
0011
0000
,
1001
0000
1000
0100
0001
0000
0001
0100
,
0010
0000
0001
1000
0010
0000
0100
0000
,
0110
0000
0010
0000
1000
0001
0000
0010
,
0100
0010
0001
1000
0010
0000
0100
0001
,
1000
0000
1000
0000
0100
0010
0000
0001
,
0000
0100
1000
0100
0000
0010
1000
0001
,
0010
0000
0100
0000
0001
0000
0100
1000
,
0000
0001
0100
0010
0000
1000
0001
0010
,
0001
0000
0100
0000
0010
1000
0000
0001
,
0000
0100
1000
0100
0000
0010
1000
0001
,
0010
0000
0100
0000
0001
0000
0100
1000
,
0000
0010
0100
0001
1000
0100
1000
0010
,
0100
0000
0000
0000
0000
0011
0000
1100
,
0000
0000
0000
0000
,
1001
0000
0000
0000
0000
1010
0000
0101
,
0000
0000
0000
0000
,
0110
0000
0000
0000
0000
1100
0000
0101
,
0000
0000
0000
0000
,
1001
0000
0000
0000
0000
0011
0000
1010
,
0000
1000
0100
1000
0020
0000
0000
0030
;

//--------------- dance-double - forcednature ----------------
#NOTEDATA:;
#STEPSTYPE:dance-double;
#DESCRIPTION:forcednature;
#DIFFICULTY:Easy;
#METER:1;
#RADARVALUES:0,0,0,0,0;
#CREDIT:forcednature;
#NOTES:
00000000
00000000
00000000
00000000
,
00000000
00000000
00000000
00000000
,
00000000
00000000
00000000
00000000
,
00000000
00000000
00000000
00000000
,
00000000
00000000
00000000
00000000
,
00000000
00000000
00000000
00000000
,
00000000
00000000
00000000
00000000
,
00000000
00000000
00000000
00000000
,
00000000
00000000
00000000
00000000
,
00000000
00000000
00000000
00000000
,
00000000
00000000
00000000
00000000
,
00001000
00000000
00000000
00000000
,
00000000
00000000
00000000
00000000
,
00000000
00000000
00000000
00000000
,
00000000
00000000
00000000
00000000
,
01000000
00000000
00000000
00000000
,
00000000
00000000
00000000
00000000
,
00000000
00000000
00000000
00000000
,
00000000
00000000
00000000
00000000
,
00010000
00000000
00000000
00000000
,
00000000
00000000
00000000
00000000
,
00000000
00000000
00000000
00000000
,
00000000
00000000
00000000
00000000
,
10000000
00000000
00000000
00000000
,
00000000
00000000
00000000
00000000
,
00000000
00000000
00000000
00000000
,
00000000
00000000
00000000
00000000
,
00010000
00000000
00000000
00000000
,
00000000
00000000
00000000
00000000
,
00000000
00000000
00000000
00000000
,
00000000
00000000
00000000
00000000
,
00100000
00000000
00000000
00000000
,
00000000
00000000
00000000
00000000
,
00000000
00000000
00000000
00000000
,
00000000
00000000
00000000
00000000
,
00001000
00000000
00000000
00000000
,
00000000
00000000
00000000
00000000
,
00000000
00000000
00000000
00000000
,
00000000
00000000
00000000
00000000
,
00010000
00000000
00000000
00000000
,
00000000
00000000
00000000
00000000
,
00000000
00000000
00000000
00000000
,
00000000
00000000
00000000
00000000
,
00000010
00000000
00000000
00000000
,
00000000
00000000
00000000
00000000
,
00000000
00000000
00000000
00000000
,
00000000
00000000
00000000
00000000
,
00001000
00000000
00000000
00000000
,
00000000
00000000
00000000
00000000
,
00000000
00000000
00000000
00000000
,
00000000
00000000
00000000
00000000
,
00000000
00000000
00000000
00000000
,
00000000
00000000
00000000
00000000
,
00001001
00000000
00000000
00000000
,
00000000
00000000
00000000
00000000
,
00000000
00000000
00000000
00000000
,
00000000
00000000
00000000
00000000
,
00000001
00000000
00000000
00000000
,
00000000
00000000
00000000
00000000
,
00000000
00000000
00000000
00000000
,
00000000
00000000
00000000
00000000
,
00000010
00000000
00000000
00000000
,
00000000
00000000
00000000
00000000
,
00000000
00000000
00000000
00000000
,
00000000
00000000
00000000
00000000
,
00000100
00000000
00000000
00000000
,
00000000
00000000
00000000
00000000
,
00000000
00000000
00000000
00000000
,
00000000
00000000
00000000
00000000
,
00001000
00000000
00000000
00000000
,
00000000
00000000
00000000
00000000
,
00000000
00000000
00000000
00000000
,
00000000
00000000
00000000
00000000
,
00000100
00000000
00000000
00000000
,
00000000
00000000
00000000
00000000
,
00000000
00000000
00000000
00000000
,
00000000
00000000
00000000
00000000
,
00010000
00000000
00000000
00000000
,
00000000
00000000
00000000
00000000
,
00000000
00000000
00000000
00000000
,
00000000
00000000
00000000
00000000
,
00001000
00000000
00000000
00000000
,
00000000
00000000
00000000
00000000
,
00000000
00000000
00000000
00000000
,
00000000
00000000
00000000
00000000
,
00011000
00000000
00000000
00000000
,
00000000
00000000
00000000
00000000
,
00000000
00000000
00000000
00000000
,
00000000
00000000
00000000
00000000
,
00010000
00000000
00000000
00000000
,
00000000
00000000
00000000
00000000
,
00000000
00000000
00000000
00000000
,
00000000
00000000
00000000
00000000
,
00001000
00000000
00000000
00000000
,
00000000
00000000
00000000
00000000
,
00000000
00000000
00000000
00000000
,
00000000
00000000
00000000
00000000
,
01000000
00000000
00000000
00000000
,
00000000
00000000
00000000
00000000
,
00000000
00000000
00000000
00000000
,
00000000
00000000
10010000
00000000
;

//--------------- dance-double - forcednature ----------------
#NOTEDATA:;
#STEPSTYPE:dance-double;
#DESCRIPTION:forcednature;
#DIFFICULTY:Medium;
#METER:8;
#RADARVALUES:0,0,0,0,0;
#CREDIT:forcednature;
#NOTES:
00000000
00000000
00000000
00000000
,
00000000
00000000
00000000
00000000
,
00000000
00000000
00000000
00000000
,
00000000
00000000
00000000
00000000
,
00000000
00000000
00000000
00000000
,
00000000
00000000
00000000
00000000
,
00000000
00000000
00000000
00000000
,
00000000
00000000
00000000
00000000
,
00000000
00000000
00000000
00000000
,
00000000
00000000
00000000
00000000
,
00000000
00000000
00000000
00000000
,
00010000
00001000
01000000
00010000
,
01000000
00001000
00010000
00000000
,
00000100
00001000
00000100
00000000
,
00000010
00000001
00000010
00000000
,
00000100
00001000
00000100
00010000
,
00001000
00010000
00000100
00000000
,
00001000
00000010
00001000
00000000
,
00000001
00000010
00000001
00000000
,
00000100
00000001
00000100
00000010
,
00001000
00000000
00001001
00000000
,
00000001
00000010
00000100
00001000
,
00000100
00000000
00011000
00000000
,
00001000
01000000
00010000
01000000
,
00100000
00000000
10010000
00000000
,
10000000
01000000
10000000
00010000
,
00100000
00000000
00011000
00000000
,
00020020
00000000
00030000
00000000
,
00001000
00001000
00001030
00000000
,
00000001
00001000
00000100
00010000
,
00001000
00000000
00011000
00000000
,
01000000
00010000
10000000
00010000
,
00100000
00000000
01100000
00000000
,
01000000
10000000
00010000
10000000
,
00200000
00000000
00300000
00000000
,
01000000
00010000
01000000
00001000
,
00010000
00000010
00001000
00000000
,
00000100
00001000
00000100
00010000
,
00001000
00100000
00010000
00000000
,
01000000
00010000
01000000
00001000
,
00010000
00000100
00001000
00000100
,
00010000
00010000
00001000
00001000
,
00100000
00010000
01000000
00000000
,
00100000
00100000
10000000
10000000
,
00010000
01000000
00001000
00000000
,
00010000
00010000
00000100
00000100
,
00001000
00000001
00000010
00000000
,
00000110
00000000
00000100
00010000
,
00001000
00010000
00000010
00000000
,
00001000
00000000
00001000
00000000
00001000
00000000
00000000
00000001
,
00000000
00000001
00000000
00000001
00000000
00000000
00000100
00000000
,
00001000
00000000
00000000
00010000
00000000
00010000
00000000
00010000
,
00000000
00100000
01100000
00000000
,
01000000
00010000
10000000
00010000
,
00100000
01000000
00010000
00000000
,
00001000
00100000
00010000
00100000
,
00001000
00010000
00000010
00000000
,
00001000
00000100
00000001
00000100
,
00001000
00000001
00000010
00000001
,
00000100
00000000
00000000
00000100
00000000
00000000
00001000
00000000
,
00010000
00001000
00100000
00000000
,
00010000
01000000
00100000
10000000
,
00010000
00100000
01000000
00000000
,
00100000
00001000
00010000
00000010
,
00001000
00000001
00000010
00000000
,
00000100
00001000
00000100
00010000
,
00001000
00010000
00000010
00001000
,
00000001
00000010
00000100
00001000
,
00000010
00000010
00000010
00000000
,
00010000
00001000
01000000
00010000
,
00100000
00000000
01100000
00000000
,
01000000
10000000
00010000
01000000
,
00100000
00000000
01100000
00000000
,
01000000
00010000
01000000
00001000
,
00010000
00000100
00001000
00000100
,
00000010
00000000
00000000
00000010
00000000
00000000
00000001
00000000
,
00001000
00000000
00000010
00010000
,
00011000
00000000
00001000
00100000
,
00010000
01000000
00100000
00000000
,
01100000
00000000
01000000
00010000
,
10000000
00010000
00100000
00000000
,
01100000
00000000
01000000
10000000
,
00010000
00100000
00010000
00000000
,
01000000
00001000
00010000
00000010
,
00001000
00001000
00001000
00000000
,
00000001
00000010
00000100
00000010
,
00000001
00000100
00000010
00000000
,
00001000
00000100
00010000
00001000
,
00010000
00000010
00001000
00000000
,
00000001
00000100
00000010
00001000
,
00000010
00010000
00001000
00000000
,
00100000
00010000
10000000
01000000
,
10000000
00010000
01000000
00000000
,
01100000
00000000
00000000
00000000
00000000
00010000
00000000
00010000
,
00000000
00000000
00000000
00000000
,
00011000
00000000
00000000
00000000
00000000
00001000
00000000
00001000
,
00000000
00000000
00000000
00000000
,
00000110
00000000
00000000
00000000
00000000
00000001
00000000
00000001
,
00000000
00000000
00000000
00000000
,
00001001
00000000
00000000
00000000
00000000
00000100
00000000
00000100
,
00000000
00000000
00000010
00000000
00002002
00000000
00000000
00003003
;

//--------------- dance-double - forcednature ----------------
#NOTEDATA:;
#STEPSTYPE:dance-double;
#DESCRIPTION:forcednature;
#DIFFICULTY:Hard;
#METER:14;
#RADARVALUES:0,0,0,0,0;
#CREDIT:forcednature;
#NOTES:
00000000
00000000
00000000
00000000
,
00000000
00000000
00000000
00000000
,
00000000
00000000
00000000
00000000
,
00000000
00000000
00000000
00000000
,
00000000
00000000
00000000
00000000
,
00000000
00000000
00000000
00000000
,
00000000
00000000
00000000
00000000
,
00000000
00000000
00000000
00000000
,
00000000
00000000
00000000
00000000
,
00000000
00000000
00000000
00000000
,
00000000
00000000
00000000
00000000
00000000
00000000
00001000
00010000
,
00001000
00000000
01000000
00000000
00010000
00100000
00000000
01000000
,
00000000
00100000
00001000
00010000
00000000
00000100
00001000
00000001
,
00000100
00000000
00000010
00000000
00010000
00000000
00001000
01000000
,
00000000
00010000
00100000
00010000
00000000
10000000
00100000
10000000
,
01000000
00000000
00100000
00000000
00010000
01000000
00000000
00001000
,
00000000
00010000
00000100
00001000
00000000
00000001
00000010
00000100
,
00001000
00000000
00000010
00000000
00010000
00000000
00001000
00100000
,
00000000
00010000
00100000
00001000
00010000
00001000
01000000
00010000
,
00000000
00000000
00100000
00010000
00100000
00010000
00100000
01000000
,
00100000
01000000
00010000
01000000
00010000
00000000
00001000
00000000
,
00000010
00000000
00000100
00001000
00000100
00001000
00000001
00001000
,
00000001
00001000
00000010
00000100
00001000
00000000
00010000
00000000
,
00100000
00000000
01000000
00010000
01000000
00010000
10000000
00010000
,
10000000
00010000
00100000
01000000
00010000
00000000
00001000
00000000
,
00000010
00000000
00000100
00001000
00000100
00001000
00000001
00001000
,
00000001
00001000
00000010
00000100
00001000
00000000
00010000
00000000
,
00022000
00000000
00000000
00033000
,
01001000
00011000
00101000
00100000
,
01100000
00000000
01000000
10000000
01000000
10000000
01000000
00010000
,
01000000
00010000
00001000
00100000
00010000
00000000
01000000
00000000
,
00011000
00000000
00000100
00001000
00000100
00001000
00000010
00001000
,
00000010
00001000
00000100
00000010
00000001
00000000
00000100
00000000
,
00001000
00000000
00010000
00001000
01000000
00000000
00010000
00100000
,
02000000
10000000
03100000
01100000
,
01000000
10000000
00010000
00000000
00100000
00010000
10000000
00000000
,
00100000
00010000
00001000
00000000
00011000
00000000
00010000
00000000
,
00000100
00001000
00000001
00000000
00000100
00001000
00010000
00000000
,
00000100
00001000
00000010
00000000
00000110
00000000
00000100
00000000
,
00000002
00000023
00000230
00002300
,
00023000
00230000
02300000
23000000
,
30100000
01000000
10010000
00100000
,
10000000
01000000
00010000
00001000
00000000
00100000
00010000
00100000
,
00001000
00000000
00010000
00000000
00000010
00001000
00000100
00000000
,
00000010
00000001
00001000
00000001
00000100
00000000
00000010
00000000
,
00000110
00000000
00000100
00000000
00000001
00000010
00000100
00000000
,
00001000
00000100
00010000
00001000
00000000
00100000
00010000
00100000
,
00001000
00000000
00001000
00010000
00100000
00000000
00100000
10000000
,
01000000
00000000
01000000
00010000
00001000
00000000
00100000
00000000
,
10010000
00000000
10000000
00000000
01000000
00010000
00000000
00011000
,
00000000
00001000
00000000
00001010
00000000
00000010
00000100
00000000
,
00001000
00000010
00000000
00000110
00000000
00001100
00000000
00011000
,
00000000
00001000
00010000
00001000
00100000
00000000
00000000
00000000
,
00001000
01000000
00010000
01000000
00001000
00010000
00001000
00000000
,
00101000
00000000
00100000
00010000
00000000
01000000
00100000
00000000
,
10000000
01000000
10000000
00010000
01000000
00010000
00100000
00000000
,
01100000
00000000
01000000
00010000
00000000
00001000
00100000
00001000
,
00010000
00000000
00010000
00000010
00001000
00000000
00001000
00000100
,
00000001
00000000
00000001
00000100
00001000
00000000
00000010
00000000
,
00000110
00000000
00000100
00000001
00000000
00000010
00000001
00000000
,
00001000
00000010
00001000
00000000
00000100
00010000
00001000
00100000
,
00010000
00100000
00001000
00010000
00001000
01000000
00010000
00000000
,
00110000
00000000
00000000
01100000
00000000
00000000
11000000
00000000
,
10000000
01000000
10000000
00010000
01000000
00010000
00100000
00000000
,
00110000
00000000
00000000
00101000
00000000
00000000
00011000
00000000
,
00010000
00000010
00001000
00000000
00001000
00000100
00000001
00000000
,
00000001
00000100
00001000
00000000
00001000
00000001
00000010
00000000
,
00000110
00000000
00000100
00010000
00001000
00000000
00100000
00001000
,
00010000
00000010
00001000
00000010
00010000
00001000
00010000
00000000
,
00001000
01000000
00010000
01000000
00001000
00010000
00001000
00000000
,
00101000
00110000
01010000
01100000
,
00100000
10000000
00010000
01000000
00010000
10000000
01000000
00000000
,
01100000
00101000
00011000
00010100
,
00000100
00001000
00000001
00000000
00000001
00000100
00001000
00000000
,
00001000
00010000
00000010
00001000
00000010
00010000
00001000
00000000
,
00011000
00000000
00001000
00100000
00010000
00100000
01000000
00000000
,
10000000
01000000
00010000
00000000
00001000
00010000
00001000
00000000
,
00010000
00000100
00001000
00000100
00010000
00000010
00001000
00000000
,
00001100
00010100
00011000
01001000
,
01000000
00010000
00100000
01000000
00100000
00001000
00010000
00000000
,
00011000
00010010
00000110
00000101
,
00000001
00000010
00000100
00000000
00000100
00010000
00001000
00000000
,
00001000
01000000
00010000
01000000
00001000
00010000
00100000
00000000
,
01100000
00000000
01000000
00010000
10000000
00010000
00100000
01000000
,
00010000
00001000
00010000
00000010
00001000
00000000
00000001
00000010
,
00001000
00000000
00000010
00000000
00000001
00000100
00000000
00001000
,
00000000
00010000
01000000
10000000
00000000
00100000
10000000
01000000
,
00010000
00000000
00001000
00000000
00000010
00000000
00000100
00010000
,
00000000
00001000
00000100
00000001
00000000
00000010
00000100
00000010
,
00000001
00000000
00000100
00000000
00001000
00010000
00000000
01000000
,
00000000
10000000
00100000
00010000
00000000
00100000
10000000
01000000
,
00010000
00000000
00001000
00000000
00100000
00000000
00010000
01000000
,
00000000
00100000
00010000
00001000
00010000
00000100
00001000
00000100
,
00000110
00000000
00000000
00000000
00000000
00001100
00000000
00010100
,
00000000
00000000
00000000
00000000
,
00011000
00000000
00000000
00000000
00000000
01001000
00000000
01010000
,
00000000
00000000
00000000
00000000
,
10010000
00000000
00000000
00000000
00000000
11000000
00000000
01100000
,
00000000
00000000
00000000
00000000
,
00101000
00000000
00000000
00000000
00000000
00011000
00000000
00010100
,
00000000
00000100
00001000
00000010
00000002
00000000
00000000
00000003
;
