#VERSION:0.83;
#TITLE:涙のテ・エストラーニョ・ムーチョ;
#SUBTITLE:;
#ARTIST:LA BAILARINA☆Prim;
#TITLETRANSLIT:Namida no te extrano mucho;
#SUBTITLETRANSLIT:;
#ARTISTTRANSLIT:;
#GENRE:Hi-歌謡タンゴ;
#CREDIT:;
#MUSIC:Namida no te extrano mucho.ogg;
#BANNER:Namida no te extrano mucho.png;
#BACKGROUND:Namida no te extrano mucho-bg.png;
#CDTITLE:./CDTitles/bm IIDX 28 BISTROVER.png;
#SAMPLESTART:53.600;
#SAMPLELENGTH:15.000;
#SELECTABLE:YES;
#OFFSET:0.290;
#BPMS:0.000=187.000;
#STOPS:;
#TIMESIGNATURES:0.000=4=4;
#DISPLAYBPM:187.000;
#BGCHANGES:4.000=Namida no te extrano mucho.mp4=1.000=0=0=0=StretchNoLoop====,
99999.000=-nosongbg-=1.000=0=0=0=StretchNoLoop====
;
#FGCHANGES:;

//--------------- dance-single - forcednature ----------------
#NOTEDATA:;
#STEPSTYPE:dance-single;
#DESCRIPTION:forcednature;
#DIFFICULTY:Beginner;
#METER:3;
#RADARVALUES:0,0,0,0,0;
#CREDIT:forcednature;
#NOTES:
0000
0000
0000
0000
,
0000
0000
0000
0000
,
0000
0000
0000
0000
,
0000
0000
0000
0000
,
0000
0000
0000
0000
,
0000
0000
0000
0000
,
1000
0000
0000
0000
,
0001
0000
0000
0000
,
0100
0000
0000
0000
,
0001
0000
0000
0000
,
0010
0000
0000
0000
,
0100
0000
0000
0000
,
0000
0000
0000
0000
,
1000
0000
0000
0000
,
0000
0000
0000
0000
,
0001
0000
0000
0000
,
0000
0000
0000
0000
,
0100
0000
0000
0000
,
0010
0000
0000
0000
,
1000
0000
0000
0000
,
0100
0000
0000
0000
,
1000
0000
0000
0000
,
0010
0000
0000
0000
,
0100
0000
0000
0000
,
0001
0000
0000
0000
,
0010
0000
0000
0000
,
0001
0000
0000
0000
,
0100
0000
0000
0000
,
0010
0000
0000
0000
,
1000
0000
0000
0000
,
0001
0000
0000
0000
,
0010
0000
0000
0000
,
0001
0000
0000
0000
,
0100
0000
0000
0000
,
0001
0000
0000
0000
,
1000
0000
0000
0000
,
0010
0000
0000
0000
,
1000
0000
0000
0000
,
0100
0000
0000
0000
,
0110
0000
0000
0000
,
1001
0000
0000
0000
,
0010
0000
0010
0000
,
0100
0000
0000
0000
,
1001
0000
0000
0000
,
1000
0000
0000
0000
,
0100
0000
0000
0000
,
1000
0000
0000
0000
,
0001
0000
0000
0000
,
0100
0000
0000
0000
,
0001
0000
0000
0000
,
0010
0000
0000
0000
,
1001
0000
0000
0000
,
0001
0000
0000
0000
,
0100
0000
0000
0000
,
0010
0000
0000
0000
,
1001
0000
0000
0000
,
0110
0000
0000
0000
,
1000
0000
0000
0000
,
0001
0000
0000
0000
,
0010
0000
0000
0000
,
0100
0000
0000
0000
,
1000
0000
0000
0000
,
0001
0000
0000
0000
,
0100
0000
0100
0000
,
0100
0000
0000
0000
,
0010
0000
0000
0000
,
1000
0000
0000
0000
,
0001
0000
0000
0000
,
0010
0000
0000
0000
,
0100
0000
0000
0000
,
1000
0000
0000
0000
,
0010
0000
0000
0000
,
0100
0000
0000
0000
,
0001
0000
0000
0000
,
1000
0000
0000
0000
,
0000
0000
0000
0000
,
0100
0000
0000
0000
,
1001
0000
0000
0000
,
1000
0000
0000
0000
,
0010
0000
0000
0000
,
0100
0000
0000
0000
,
0001
0000
0000
0000
,
0010
0000
0000
0000
,
0100
0000
0000
0000
,
1000
0000
0000
0000
,
0001
0000
0000
0000
,
0100
0000
0000
0000
,
0010
0000
0000
0000
,
1000
0000
0000
0000
,
0100
0000
0000
0000
,
0110
0000
0000
0000
,
1000
0000
0000
0000
,
0001
0000
0000
0000
,
0000
0000
0000
0100
;

//--------------- dance-single - forcednature ----------------
#NOTEDATA:;
#STEPSTYPE:dance-single;
#DESCRIPTION:forcednature;
#DIFFICULTY:Easy;
#METER:8;
#RADARVALUES:0,0,0,0,0;
#CREDIT:forcednature;
#NOTES:
0000
0000
0000
0000
,
0000
0000
0000
0000
,
0000
0000
0000
0000
,
0000
0000
0000
0000
,
0000
0000
0000
0000
,
0000
0000
0000
0000
,
1001
0001
0100
0001
,
1001
1000
0100
1000
,
0110
0010
0110
0100
,
1001
0100
0001
1000
,
0110
0000
0000
0000
,
1000
0000
0000
0010
0000
0000
0100
0000
,
0001
0000
0000
0100
0000
0000
0010
0000
,
1000
0000
0000
0100
0000
0000
0010
0000
,
0001
0000
0000
0010
0000
0000
0100
0000
,
1000
0000
0000
0010
0000
0000
1000
0000
,
0001
0000
0000
0100
0000
0000
0001
0000
,
1000
0000
0000
0100
0000
0000
0010
0000
,
0002
0000
0000
0000
,
0103
0001
1000
0010
,
1000
0100
0010
0001
,
0010
1000
0010
0001
,
0100
0010
1000
0001
,
0100
1000
0100
0001
,
0110
0000
1000
0001
,
1000
1000
0001
0001
,
0110
0000
0000
0000
,
0001
0100
0001
0100
,
1000
0000
1000
0000
,
1000
0100
1000
0100
,
0001
0000
0001
0000
,
0010
0010
0010
0010
,
0010
0000
0010
0000
,
1000
0100
0010
0001
,
0100
0000
0000
0000
,
0010
1000
0001
1000
,
0010
0100
0001
0010
,
0100
1000
0100
0001
,
0100
1000
0010
0100
,
2002
0000
0000
3003
,
1000
0100
0010
0001
,
2002
0000
0000
3003
,
0220
0000
0000
0330
,
1001
0100
0001
0010
,
1000
0001
0100
1000
,
0110
1000
0010
1000
,
0100
0010
0001
1000
,
0101
1000
0010
0001
,
0100
0010
1000
0100
,
1100
0001
1000
0010
,
0100
0001
1000
0010
,
1001
0100
0001
1000
,
0100
0010
0001
1000
,
0110
1000
0001
1000
,
0010
0100
0001
0010
,
1001
0100
0010
0001
,
1001
0000
0000
1000
,
1001
1000
0100
0010
,
0100
1000
0010
0100
,
0110
0001
0100
0001
,
0100
0001
0100
0001
,
0100
1000
0100
1000
,
0100
1000
0100
1000
,
0010
1000
0010
1000
,
0010
0000
0000
0100
,
0001
0100
0001
0010
,
0001
0000
0000
0000
,
1000
0000
0000
0001
0000
0000
0100
0000
,
0001
0000
0000
1000
0000
0000
0100
0000
,
0010
0000
0000
0001
0000
0000
0100
0000
,
0010
0000
0000
1000
0000
0000
0100
0000
,
0010
0000
0000
0100
0000
0000
1000
0000
,
1001
0000
0000
1000
,
0001
0000
1000
0001
0000
0100
0000
0010
,
0100
0100
0100
0100
,
0000
0000
0020
0030
,
2002
0000
0000
3003
,
1001
0100
0001
1000
,
0010
1000
0001
0010
,
0110
0001
1000
0010
,
1000
0100
0010
0001
,
1001
0100
1000
0001
,
0100
0001
1000
0010
,
0110
0001
1000
0100
,
0010
0100
1000
0001
,
1010
0001
1000
0100
,
1000
0001
0010
0100
,
0011
0100
1000
0001
,
1000
0010
0100
0001
,
1001
1000
0100
0010
,
0110
0000
0000
0000
,
1001
1000
0010
0100
,
0001
0100
1000
0100
,
0000
0001
0000
0000
1000
0000
0001
1000
;

//--------------- dance-single - forcednature ----------------
#NOTEDATA:;
#STEPSTYPE:dance-single;
#DESCRIPTION:forcednature;
#DIFFICULTY:Medium;
#METER:12;
#RADARVALUES:0,0,0,0,0;
#CREDIT:forcednature;
#NOTES:
0000
0000
0000
0000
,
0000
0000
0000
0000
,
0000
0000
0000
0000
,
0000
0000
0000
0000
,
0000
0000
0000
0000
,
0000
0000
0000
0000
,
1001
0100
0001
0010
,
0100
0000
0000
1000
0000
0000
0100
0000
0010
0000
0000
0000
0001
0000
1000
0000
,
0001
0000
0100
0010
0100
0000
0001
1000
,
0001
0010
0001
0000
1000
0100
1000
0000
,
2002
0000
0000
3003
,
1001
0000
0000
0110
0000
0000
0001
0000
,
1100
0000
0000
0101
0000
0000
0010
0000
,
0101
0000
0000
1100
0000
0000
0001
0000
,
1010
0000
0000
0011
0000
0000
0100
0000
,
0110
0000
0000
1001
0000
0000
0001
0000
,
0110
0000
0000
1001
0000
0000
1000
0000
,
1001
0000
0001
0100
0000
0010
1000
0000
,
2002
0000
0000
0000
3003
0000
1000
0001
,
1000
0010
0100
0001
,
0010
0001
0010
0000
0100
1000
0100
0000
,
0020
0100
0100
0130
,
0010
0001
1000
0010
,
1000
0001
1000
0000
0001
0100
0001
0000
,
1001
0000
0000
0000
0000
0000
0000
0000
1000
0000
0000
0100
0000
0000
0010
0000
,
0001
0000
0100
0001
0100
0000
0010
0000
,
1001
1000
0001
0100
,
0010
0000
0000
1000
0000
0000
0001
0000
0010
0000
0000
0000
0100
0000
0000
0000
,
0010
0001
0010
0000
0001
1000
0001
0000
,
0200
0010
0010
0310
,
0100
0001
0100
0000
0001
1000
0001
0000
,
1001
0000
0000
1000
0000
0000
0010
0000
0100
0000
0000
0000
0001
0000
0000
0000
,
0100
0010
0100
0000
0001
1000
0001
0000
,
0010
0000
0100
1000
0100
0000
0010
0000
,
0100
1000
0100
0000
0010
0001
0010
0000
,
1001
0000
0000
0001
0000
0000
0100
0000
0010
0000
0000
0000
1000
0000
0000
0000
,
0001
0010
0001
0000
1000
0010
1000
0000
,
1001
0000
0000
0100
0000
0100
0000
0000
,
0001
1000
0001
0000
1000
0100
1000
0000
,
0120
0100
0100
0130
,
0001
1000
0001
0000
0010
0001
0010
0000
,
0001
1000
0001
0000
0100
0010
0100
0000
,
2002
0000
0000
3003
,
1001
0000
0001
0100
0001
0000
1000
0000
,
0010
1000
0100
0010
,
0001
0000
0100
0010
0100
0000
0001
0000
,
1000
0100
0010
0001
,
0210
0010
0010
0310
,
1002
1000
1000
1003
,
0001
0100
0001
0000
1000
0100
1000
0000
,
0010
0100
0010
0100
0010
0100
0010
0000
,
1001
0000
1000
0010
1000
0000
0001
0000
,
0010
0100
0010
0000
0001
1000
0001
0000
,
0200
0010
0010
0310
,
0100
0001
0100
0000
0010
1000
0010
0000
,
1002
0000
1003
0000
0001
1000
0001
1000
,
0001
0000
0000
0000
0000
0000
0100
0010
,
0100
0001
0100
1000
,
0100
0010
0100
0000
0001
1000
0001
0000
,
0110
1001
0100
1001
,
0100
1001
0100
1001
,
0010
1001
0010
1001
,
0010
1001
0010
1001
,
0110
0000
1001
0000
0100
0010
0100
0000
,
1001
0000
0000
0000
0000
0000
0001
1000
,
0001
0101
1000
1100
,
1001
1000
0001
0000
,
0110
0000
0000
0101
0000
0000
1000
0000
,
0110
0000
0000
1100
0000
0000
0001
0000
,
1010
0000
0000
0110
0000
0000
0001
0000
,
0011
0000
0000
0110
0000
0000
1000
0000
,
1001
0000
0000
0110
0000
0000
1001
0000
,
0220
0000
0000
0330
,
0001
0000
0100
0001
0000
1000
0100
0000
,
0010
0001
0010
0001
1000
0010
1000
0010
,
0000
0000
0200
0000
,
0020
0000
0000
0330
,
0110
0000
0001
0100
0010
0000
1000
0000
,
0001
0010
0001
0000
1000
0100
1000
0000
,
0020
0100
0100
0130
,
0010
1000
0010
0000
0100
0001
0100
0000
,
1002
1000
1000
1003
,
0100
0001
0100
0000
0100
1000
0100
0000
,
2001
0001
0001
3001
,
0010
0001
0010
0000
0010
1000
0010
0000
,
1001
0000
0100
0010
0100
0000
0001
0000
,
1000
0100
0010
0001
,
0120
0100
0100
0130
,
0001
1000
0001
0000
0010
0000
0100
0000
,
2001
0000
3001
0000
1000
0001
1000
0000
,
1001
0000
0000
0000
0000
0000
1000
0001
,
1000
0110
0001
0110
,
0001
0100
0001
0010
0100
1000
0010
1000
,
0000
0110
0000
0000
1001
0000
0100
0100
;

//--------------- dance-single - forcednature ----------------
#NOTEDATA:;
#STEPSTYPE:dance-single;
#DESCRIPTION:forcednature;
#DIFFICULTY:Hard;
#METER:14;
#RADARVALUES:0,0,0,0,0;
#CREDIT:forcednature;
#NOTES:
0000
0000
0000
0000
,
0000
0000
0000
0000
,
0000
0000
0000
0000
,
0000
0000
0000
0000
,
0000
0000
0000
0000
,
0000
0000
0000
0000
,
0001
0000
0100
0000
0001
0000
1000
0000
0010
0000
0000
0100
0000
0000
0001
0000
,
0010
0000
0000
0100
0000
0000
1000
0000
0001
0000
0000
0000
0010
0000
0001
0000
,
1000
0100
1000
0100
0010
0001
0010
0001
,
0100
0000
0001
0000
1000
0000
0010
0000
1000
0001
1000
0000
0001
0100
0001
0000
,
2002
0000
0000
0000
3003
0000
0001
1000
,
0001
0000
0000
0101
0000
0001
0010
0100
,
1000
0000
0000
1010
0000
1000
0001
0100
,
0001
0000
0000
0110
0000
1000
0010
1000
,
0100
0000
0000
1001
0000
0001
0010
0100
,
1000
0000
0000
0101
0000
0001
0100
1000
,
0100
0000
0000
0110
0000
1000
0100
0001
,
0100
0000
0010
0001
0000
1000
0001
0100
,
0002
0000
0000
0000
0000
0000
1003
0001
,
1000
0100
0010
0001
0000
0100
0010
0000
,
0100
0001
0100
0010
1000
0001
0010
0001
,
0100
0000
0010
1000
0100
0000
0010
0000
,
0100
1000
0001
0100
0001
1000
0100
0000
,
0010
0000
0001
0000
0000
0000
1000
0000
0001
0000
0100
0000
0010
0000
1000
0001
,
1000
0000
0000
0000
0000
0000
0000
0000
0001
0000
0000
0010
0000
0000
0100
0000
,
1000
0000
0010
0000
1000
0000
0010
0000
0100
0001
0100
0000
0001
1000
0001
0000
,
1001
0100
0100
0010
,
1001
0000
0000
0001
1000
0000
0100
0000
0020
0000
0000
0000
0001
0000
0000
0000
,
0130
0010
0001
1000
0001
0100
0001
0010
,
0100
2000
0010
0000
0100
0000
0001
0000
,
3100
1000
0001
0100
0001
1000
0010
1000
,
0001
0000
0000
0001
0010
0000
0100
0000
0020
0000
0000
0000
0001
0000
0000
0000
,
0130
0010
0001
1000
0010
0100
0010
0000
,
1000
0100
0001
0100
2000
0000
3010
0000
,
1000
0000
0100
0000
0010
0000
0001
0000
0100
0000
0010
1000
0010
0000
0100
0001
,
0100
0000
0000
0100
0010
0000
1000
0000
0002
0000
0000
0000
0013
0000
0000
0000
,
0001
0100
0010
1000
0100
0010
0001
1000
,
0002
0000
0003
0101
0000
1010
0000
1000
,
0001
0010
0001
0100
0010
1000
0100
0010
,
0002
0000
0100
0000
1000
0000
0010
0010
,
0013
0000
0001
0000
0100
0000
0010
0000
1000
0000
0001
0000
0010
0000
0100
1000
,
0100
0000
0010
0000
0001
0000
1000
0000
0001
0100
0001
0000
1000
0100
1000
0000
,
1001
0001
0100
0010
1000
0100
0010
0001
,
1001
0000
0001
0100
1000
0000
0110
0000
,
0001
1000
0100
0010
0001
1000
0010
0100
,
0001
0000
1000
0100
0001
0000
0110
0000
,
1000
0010
1000
0100
0001
0100
0010
0001
,
0200
0000
0010
0000
1000
0000
0001
0001
,
0301
0100
0010
1000
0001
0010
0100
1000
,
0010
0000
1000
0100
0000
0110
0000
0001
,
1000
0000
0010
0000
0100
0000
0001
0000
0010
0000
0100
0000
1000
0001
1000
0001
,
1000
0000
0001
0010
1000
0000
0110
0000
,
1000
0001
0100
0001
0010
0001
0100
0010
,
2000
0100
0001
0010
,
3001
0011
0110
1100
,
0001
0000
0100
0000
0010
0000
1000
0000
0001
1000
0001
0000
0010
0001
0010
0000
,
0100
1000
0010
0100
0001
0000
0010
0001
,
0100
0000
0110
0000
0001
0000
1000
0001
,
0100
0000
0010
0000
1000
0000
0001
0000
0010
0001
0010
0001
1000
0100
1000
0100
,
1000
0110
0001
0110
,
0100
1001
0010
1001
,
1000
0100
0010
0001
0100
0010
1000
0001
,
0020
0000
0100
0000
0130
0000
0010
0001
,
1000
0000
0010
0000
1000
0000
0001
0000
0100
0001
0100
0000
0001
1000
0001
0000
,
1001
0000
0000
0000
0000
0000
0001
0100
,
0001
0010
0100
1000
0010
0100
0001
1000
,
1001
0000
0000
0000
0001
0000
0000
0000
0100
0000
0000
0000
0000
0000
0010
1000
,
0010
0000
0000
0110
0000
0001
0100
1000
,
0100
0000
0000
0110
0000
1000
0100
0001
,
0100
0000
0000
0011
0000
1000
0010
0001
,
0010
0000
0000
1010
0000
0001
0010
1000
,
0010
0000
0100
1000
0000
0001
0100
0001
,
1000
0100
0010
0001
0100
0010
1000
0001
,
0011
0000
0100
1100
0000
1001
0000
0001
,
1000
0010
0001
0010
0100
1000
0100
0001
,
0000
0000
0010
0000
,
0220
0000
0000
0330
,
1001
0000
0001
0010
1000
0000
0110
0000
,
1000
0001
0100
0010
1000
0100
0010
0001
,
0200
0000
1000
0000
0001
0000
0010
0010
,
0310
0100
0001
1000
0001
0100
0010
1000
,
0200
0000
1000
0000
0001
0000
1000
1000
,
1300
0100
0010
0001
0100
0010
1000
0001
,
0010
0001
0100
1000
0100
0001
0010
0100
,
1000
0001
1000
0000
0001
0100
0001
0000
0010
0000
0100
1000
0100
0000
0010
0001
,
0010
0000
0100
1000
0010
0000
0110
0000
,
0001
0100
0010
1000
0001
0010
0100
1000
,
0020
0100
0001
1000
,
0130
0110
1001
1100
,
0001
0000
0010
0000
0001
0000
1000
0000
0001
0100
0001
0000
1000
0010
1000
0000
,
1001
0000
0001
0000
0100
0000
0010
1000
,
0001
0100
1000
0100
0001
0010
1000
0010
,
0100
0000
1000
0000
0001
0000
0100
0000
0001
1000
0001
1000
0100
1000
0100
1000
,
0000
1001
0000
0000
0110
0000
1000
0001
;

//--------------- dance-double - forcednature ----------------
#NOTEDATA:;
#STEPSTYPE:dance-double;
#DESCRIPTION:forcednature;
#DIFFICULTY:Easy;
#METER:8;
#RADARVALUES:0,0,0,0,0;
#CREDIT:forcednature;
#NOTES:
00000000
00000000
00000000
00000000
,
00000000
00000000
00000000
00000000
,
00000000
00000000
00000000
00000000
,
00000000
00000000
00000000
00000000
,
00000000
00000000
00000000
00000000
,
00000000
00000000
00000000
00000000
,
00011000
00000000
00010000
00000100
,
00001000
00001000
00000001
00000001
,
00000100
00001000
00010000
00100000
,
10000000
10000000
00010000
00010000
,
01100000
00000000
00000000
00000000
,
10010000
00000000
00000000
10000000
00000000
00000000
01000000
00000000
,
00100000
00000000
00000000
00001000
00000000
00000000
00010000
00000000
,
00000100
00000000
00000000
00000010
00000000
00000000
00000001
00000000
,
00000100
00000000
00000000
00000010
00000000
00000000
00010000
00000000
,
00001000
00000000
00000000
01000000
00000000
00000000
00100000
00000000
,
10000000
00000000
00000000
01000000
00000000
00000000
00010000
00000000
,
00001000
00000000
00000000
00000100
00000000
00000000
00000001
00000000
,
00001001
00000000
00000000
00000000
,
00000001
00000100
00000001
00000010
,
00000100
00010000
00001000
00100000
,
01000000
10000000
00100000
01000000
,
00001000
00010000
00000010
00000100
,
00000001
00001000
00000001
00001000
,
00000110
00000000
00010000
00001000
,
00010000
00100000
10000000
00010000
,
01100000
00000000
00000000
00000000
,
00010000
00010000
01000000
00001000
,
00010000
00000100
00001000
00000001
,
00000100
00000100
00000010
00001000
,
00000100
00000010
00000001
00000100
,
00001000
00001000
00010000
00100000
,
10000000
01000000
00100000
00010000
,
10000000
10000000
00100000
10000000
,
00010000
01000000
00010000
00100000
,
01100000
00010000
10000000
00100000
,
00010000
00001000
00000010
00000001
,
00000110
00000001
00000100
00000010
,
00001000
00000100
00010000
00001000
,
00110000
00010000
10000000
00100000
,
10100000
10000000
00010000
01000000
,
02100000
00100000
00100000
03100000
,
01100000
00000000
00000000
00000000
,
10010000
10000000
01000000
00100000
,
00010000
01000000
00001000
00010000
,
00000010
00001000
00000100
00000010
,
00000001
00000100
00000010
00001000
,
00000001
00000001
00000001
00000001
,
00001000
00000100
00000010
00000100
,
00010000
00001000
01000000
00010000
,
10000000
00100000
01000000
00010000
,
10010000
10000000
01000000
00100000
,
00001000
00010000
00000010
00000100
,
00000001
00000010
00000100
00010000
,
00001000
00100000
01000000
10000000
,
00010000
00010000
00010000
00010000
,
01100000
00000000
00010000
01000000
,
00001000
00010000
00000100
00001000
,
00000010
00000100
00000001
00001000
,
00001001
00000000
00001000
00000100
,
00010000
00001000
01000000
00000000
,
00200000
01000000
01000000
01300000
,
00100000
00000000
10000000
00010000
,
11000000
00010000
01000000
00001000
,
00011000
00000000
00000100
00001000
,
00000001
00000100
00000001
00001000
,
00000110
00000000
00000000
00000000
,
00001000
00000000
00000000
00000100
00000000
00000000
00010000
00000000
,
00001000
00000000
00000000
01000000
00000000
00000000
00010000
00000000
,
10000000
00000000
00000000
01000000
00000000
00000000
00010000
00000000
,
00001000
00000000
00000000
00000100
00000000
00000000
00000001
00000000
,
00000010
00000000
00000000
00000100
00000000
00000000
00001000
00000000
,
00010000
00000000
00000000
00001000
,
00010000
00000000
00000000
00001000
00000000
00100000
00000000
00010000
,
10000000
00010000
01000000
00010000
,
00000000
00000000
00002000
00003000
,
00000220
00000000
00000000
00000330
,
00001001
00000100
00000001
00000010
,
00000100
00010000
00001000
01000000
,
10010000
10000000
00100000
10000000
,
01000000
00100000
00010000
01000000
,
00011000
00000100
00001000
00000001
,
00000100
00000010
00001000
00000100
,
00011000
00100000
00010000
10000000
,
00100000
10000000
01000000
00100000
,
00011000
00000100
00000010
00000001
,
00000100
00000001
00001000
00000010
,
00011000
01000000
00010000
10000000
,
01000000
00100000
00010000
01000000
,
00011000
00000100
00001000
00000001
,
00000110
00000000
00000000
00000000
,
00001000
00000001
00001000
00000100
,
00010000
00001000
00100000
00010000
,
00000000
10000000
00000000
00000000
00010000
00000000
10000000
00010000
;

//--------------- dance-double - forcednature ----------------
#NOTEDATA:;
#STEPSTYPE:dance-double;
#DESCRIPTION:forcednature;
#DIFFICULTY:Medium;
#METER:12;
#RADARVALUES:0,0,0,0,0;
#CREDIT:forcednature;
#NOTES:
00000000
00000000
00000000
00000000
,
00000000
00000000
00000000
00000000
,
00000000
00000000
00000000
00000000
,
00000000
00000000
00000000
00000000
,
00000000
00000000
00000000
00000000
,
00000000
00000000
00000000
00000000
,
00001000
00010000
01000000
00000000
00100000
00000000
00010000
00000000
,
10010000
01000000
00100000
00010000
,
01000000
00001000
01000000
00001000
00010000
00000010
00010000
00000000
,
00000100
00010000
00000100
00010000
00001000
00100000
00001000
00000000
,
00022000
00000000
00000000
00033000
,
00010000
00000000
00000100
00001000
00000000
00000001
00000100
00000000
,
00000010
00000000
00001000
00000100
00000000
00010000
00001000
00000000
,
01000000
00000000
00010000
00100000
00000000
10000000
00100000
00000000
,
01000000
00000000
10000000
00010000
00000000
01000000
00001000
00000000
,
00010000
00000000
00000100
00001000
00000000
00000001
00000100
00000000
,
00001000
00000000
00010000
00000100
00000000
00010000
00001000
00000000
,
00100000
00000000
00010000
01000000
00000000
00100000
10000000
00010000
,
20000000
00000000
00000000
00000000
00000000
00000000
31000000
10000000
,
01000000
00000000
00100000
00010000
00100000
00001000
00010000
00000000
,
00000100
00001001
00000100
00001001
,
00000001
00000010
00000100
00000000
00001000
00000010
00000100
00000000
,
00001000
00010000
01000000
10000000
,
00010000
10000000
00010000
01000000
00010000
00000000
00100000
00000000
,
00011000
00000000
00000000
00000000
00000100
00000000
00001000
00000100
,
00000010
00000000
00000001
00000100
00000001
00000000
00001000
00000000
,
00000110
00000000
00000000
00000000
,
00010000
00000000
00001000
00100000
00010000
00000000
10000000
00000000
,
00100000
01000000
00100000
00000000
10000000
00000000
01000000
00000000
,
00100000
00010000
00100000
00000000
00001000
00010000
00001000
00000000
,
00000100
00000001
00000010
00000100
,
00001001
00000000
00000001
00000100
00000001
00000000
00000010
00000000
,
00000100
00001000
00000100
00000000
00010000
00001000
00010000
00000000
,
00100000
00000000
10000000
01000000
10000000
00000000
00010000
00000000
,
01000000
00100000
01000000
00000000
00010000
10000000
00010000
00000000
,
01100000
00000000
00010000
00100000
00001000
00000000
00010000
00000000
,
00000100
00001000
00000001
00000100
,
00001001
00000000
00000100
00010000
00001000
00000000
00100000
00000000
,
00010000
10000000
00100000
01000000
,
02010000
00001000
00010000
03001000
,
01000000
00010000
01000000
00000000
00001000
00010000
00001000
00000000
,
00000100
00000010
00000100
00000001
00000100
00000010
00000100
00000000
,
00002002
00000000
00000000
00000000
00003003
00000000
00001000
00000100
,
00001000
00000000
00000010
00010000
00001000
00000000
00100000
00000000
,
00010000
10000000
00010000
00000000
01000000
00100000
01000000
00000000
,
00010000
00000000
00100000
01000000
10000000
00000000
00010000
00000000
,
01000000
00001000
00010000
00000000
00000010
00010000
00001000
00000000
,
00101000
00010000
00101000
00010000
,
00000100
00001000
00000001
00000000
00000100
00000010
00001000
00000000
,
00010000
00000000
01000000
00100000
10000000
00000000
01000000
00000000
,
00100000
00010000
00100000
00001000
00010000
00000100
00001000
00000000
,
00000101
00000000
00000100
00000010
00001000
00000000
00000100
00000000
,
00000010
00000100
00010000
00000000
00001000
00100000
01000000
00000000
,
10000000
00000000
00100000
01000000
00010000
00000000
00100000
00000000
,
00001000
00010000
00000100
00000000
00001000
00000001
00000100
00000000
,
00010010
00000100
00010010
00000100
,
00022000
00000000
00000000
00000000
00033000
00000000
00100000
00010000
,
00100000
00000000
01000000
10000000
01000000
00000000
00100000
00000000
,
00001000
00010000
00001000
00000000
00000100
00000001
00000100
00000001
,
00000100
00001000
01000000
00010000
,
00000100
00001000
01000000
00010000
,
00100000
00010000
00000010
00001000
,
00100000
00010000
00000010
00001000
,
00011000
00000100
00010000
01000000
,
00022000
00000000
00000000
00000000
00033000
00000000
00100000
00010000
,
00100000
01000000
10000000
00010000
,
02200000
00000000
00000000
00000000
03300000
00000000
00000000
00010000
,
10000000
00000000
01000000
00010000
00000000
01000000
00100000
00000000
,
00001000
00000000
00010000
00000010
00000000
00000100
00001000
00000000
,
00000100
00000000
00000001
00000010
00000000
00000100
00000001
00000000
,
00000100
00000000
00010000
00001000
00000000
01000000
10000000
00000000
,
01000000
00000000
00010000
00100000
00000000
01000000
10000000
00010000
,
02000000
00000000
00000000
00000000
03000000
00000000
00100000
01000000
,
00010000
00000000
00100000
00001000
00000000
00010000
00000100
00010000
,
00001000
00000000
00000010
00000001
00000100
00000001
00001000
00000010
,
00000000
00000000
00000200
00000300
,
00022000
00000000
00000000
00033000
,
00010000
00000100
00010000
00001000
00100000
00000000
00010000
00000000
,
10000000
01010000
00010000
11000000
,
00100000
00001000
00010000
00000100
00001000
00000000
00000001
00000000
,
00000100
00000100
00000010
00000010
,
00001000
00000001
00001000
00000000
00000001
00000100
00000001
00000000
,
00000010
00000100
00010000
00001000
,
01000000
00010000
01000000
00000000
00100000
10000000
00100000
00000000
,
01000000
00010000
01000000
00001000
00010000
00000010
00001000
00000010
,
00000100
00000001
00000010
00000100
,
00001000
00000001
00001000
00000000
00000001
00000100
00000001
00000000
,
00000010
00000100
00010000
00001000
,
01000000
00010000
01000000
00000000
00100000
10000000
00100000
00000000
,
10000000
01000000
10000000
00000000
01000000
00100000
01000000
00000000
,
00220000
00000000
00000000
00000000
00330000
00000000
00001000
00010000
,
00001000
00000000
00000100
00000001
00000100
00000000
00000010
00000000
,
00001000
00000100
00001000
00000000
00000001
00000100
00000001
00000000
,
00000000
00010100
00000000
00000000
00101000
00000000
00001000
00010000
;

//--------------- dance-double - forcednature ----------------
#NOTEDATA:;
#STEPSTYPE:dance-double;
#DESCRIPTION:forcednature;
#DIFFICULTY:Hard;
#METER:15;
#RADARVALUES:0,0,0,0,0;
#CREDIT:forcednature;
#NOTES:
00000000
00000000
00000000
00000000
,
00000000
00000000
00000000
00000000
,
00000000
00000000
00000000
00000000
,
00000000
00000000
00000000
00000000
,
00000000
00000000
00000000
00000000
,
00000000
00000000
00000000
00000000
,
00011000
00000000
00000000
00000000
00010000
00000000
00001000
00000000
01000000
00000000
00000000
00010000
00000000
00000000
10000000
00000000
,
00100000
00000000
00000000
10000000
00000000
00000000
00010000
00000000
00100000
00000000
00000000
00000000
01000000
00000000
10000000
00000000
,
00000000
01000000
00010000
00001000
00010000
00001000
00000010
00000001
,
00001000
00000000
00000001
00000100
00001000
00000100
00000001
00000100
,
00002002
00000000
00000000
00003003
,
00000001
00000000
00000100
00001000
00010000
00000000
00100000
00010000
,
00001000
00000000
00010000
00100000
10000000
00010000
01000000
00010000
,
10000000
00000000
01000000
00010000
00001000
00000000
00000010
00001000
,
00010000
00000000
00001000
00000010
00000001
00001000
00000100
00001000
,
00000001
00000000
00000100
00001000
00010000
00000000
00100000
00010000
,
00001000
00000000
00010000
00100000
10000000
00010000
01000000
00010000
,
10010000
00000000
10000000
01000000
00010000
00001000
00100000
00000000
,
00220000
00000000
00000000
00330000
,
00010000
01000000
00001000
00010000
00001000
00100000
00010000
00100000
,
01000000
00000000
11000000
00000000
00010000
00100000
00001000
00010000
,
00000020
00000000
00001030
00000100
00020000
00000000
00031000
00000010
,
00000001
00000000
00000011
00000000
00000010
00000100
00001000
00000000
,
00001100
00000000
00000100
00010000
00001000
01000000
00010000
01000000
,
00200000
00000000
00300000
00000000
,
10010000
00000000
00000000
00000000
10000000
00000000
01000000
00000000
00010000
00000000
00001000
00010000
00001000
00000000
00010000
00001000
,
00020000
00000000
00000000
00030000
,
00001000
00000000
00000010
00000001
00000100
00000000
00000101
00000000
,
00000001
00000010
00000100
00000010
00000100
00010000
00001000
00000000
,
00100000
00000000
00010000
01000000
00100000
00000000
10100000
00000000
,
10000000
01000000
10000000
00010000
01000000
00010000
00100000
00000000
,
01100000
00000000
01000000
00010000
00001000
00000000
00011000
00000000
,
00010000
00000100
00001000
00000100
00010000
00001000
00010000
00000000
,
00000010
00001000
00000001
00000100
00000020
00000000
00010030
00000000
,
00000010
00000000
00000100
00000000
00000001
00000000
00000100
00000000
00001000
00000000
00010000
00001000
00010000
00000000
00001000
00010000
,
00001000
01000000
00010000
01000000
00100000
00000000
10100000
00000000
,
10000000
01000000
00010000
00000000
00001000
00010000
01000000
00000000
,
01100000
00000000
00100000
00001000
00010000
00000100
00001000
00000100
,
00010000
00000000
00001000
00000010
00000001
00000000
00001001
00000000
,
00000110
00000000
00000001
00000100
00001000
00010000
00100000
00000000
,
01100000
00000000
10000000
01000000
00010000
00001000
00000010
00000000
,
00000100
00000000
00001000
00000000
00000100
00000000
00010000
00000000
00001000
00010000
00001000
00000000
00010000
00001000
00100000
00000000
,
00220000
00000000
00000000
00330000
,
00010000
00000000
01000000
00000000
10000000
00000000
01000000
00000000
00010000
00000000
10000000
00000000
00100000
10000000
00100000
00000000
,
10000000
01000000
00010000
00001000
00000010
00000000
00000110
00000000
,
00001000
00000000
00000100
00000000
00000001
00000000
00000100
00000000
00001000
00000000
00000001
00000000
00000010
00000001
00000010
00000000
,
00000001
00000100
00001000
00010000
00100000
00000000
01100000
00000000
,
01000000
00010000
10000000
00010000
00100000
00010000
00001000
00000100
,
00001000
00000001
00001000
00000010
00001000
00010000
01000000
00010000
,
00200000
00000000
01300000
00010000
00000000
00011000
00000000
00001000
,
00000010
00000000
00000001
00000000
00001000
00000000
00000010
00000000
00000100
00000000
00000001
00000000
00001000
00000001
00001000
00000001
,
00001000
00000000
00000001
00000100
00001000
00000000
00011000
00000000
,
00010000
00100000
01000000
00100000
10000000
00010000
00100000
01000000
,
00020000
00000100
00001000
00030010
,
00010000
00000000
00001000
00000000
00000010
00000000
00000001
00000000
00000010
00000000
00000100
00000010
00000100
00000000
00000000
00000000
,
00001001
00000000
00000000
00000000
00000001
00000000
00000100
00000000
00001000
00000000
00010000
00001000
00010000
00001000
00010000
00001000
,
00020000
00000000
00000000
00030000
,
00011000
00000000
00001000
01000000
00010000
01000000
00001000
00010000
,
00001000
00000000
00100000
00000000
01000000
00000000
10000000
00000000
00010000
10000000
00010000
10000000
00010000
10000000
00010000
00000000
,
10000000
00000000
01000000
00010000
00001000
00000000
00000010
00000000
,
00000100
00010000
00000010
00000000
00001000
00000001
00000100
00000000
,
00000110
00000000
00000010
00001000
00000001
00000000
00000010
00001000
,
00020000
00000100
00031000
00010010
,
00010000
00000000
00001000
00000000
01000000
00000000
00010000
00000000
01000000
00010000
01000000
00010000
10000000
00100000
10000000
00100000
,
02000000
00000000
00000000
00000000
03000000
00000000
00010000
10000000
,
00010000
00000000
00100000
01000000
00010000
00000000
00011000
00000000
,
00000220
00000000
00000000
00000330
,
00000001
00000000
00000100
00001000
00010000
00100000
10000000
00010000
,
10000000
00000000
01000000
00010000
00001000
00000010
00000001
00001000
,
00000001
00000000
00000100
00001000
00010000
01000000
10000000
00010000
,
10000000
00000000
01000000
00010000
00001000
00000100
00000001
00001000
,
00000001
00000000
00000010
00001000
00010000
01000000
10000000
00010000
,
20020000
00000000
30030000
01000000
,
01100000
00000000
10000000
00010000
00000000
00100000
00001000
00010000
,
00000000
00000000
00000010
00000000
00001000
00000000
00000010
00000100
00000010
00000000
00000100
00000001
00000100
00000000
00000001
00000000
,
00000000
00000000
00000020
00000030
,
00002002
00000000
00000000
00003003
,
00001000
00000000
00000100
00000000
00000001
00000000
00000100
00000000
00001000
00000000
00000001
00000000
00000010
00000001
00000010
00000000
,
00000001
00000100
00001000
00010000
00100000
00000000
01100000
00000000
,
00010000
00000000
01000000
00000000
10000000
00000000
01000000
00000000
00010000
00000000
10000000
00000000
00100000
10000000
00100000
00000000
,
10000000
01000000
00010000
00001000
00000010
00000000
00000110
00000000
,
00000100
00001000
00000001
00001000
00000010
00001000
00010000
01000000
,
00010000
10000000
00010000
00100000
00010000
00001000
00000100
00001000
,
00000020
00000000
00000130
00001000
00010000
00010000
00001000
00001000
,
00010000
00001000
00010000
00001000
00010000
00000000
00001000
00000000
01000000
00000000
00010000
01000000
00010000
00000000
10000000
00100000
,
10000000
00000000
01000000
00010000
00001000
00000000
00011000
00000000
,
00001000
00000010
00000100
00000010
00000001
00001000
00000010
00000100
,
00002000
01000000
00010000
00103000
,
00001000
00010000
00100000
00000000
10100000
00000000
11000000
00000000
,
00110000
00000000
00000000
00000000
00100000
00000000
00001000
00000000
00010000
00001000
00010000
00001000
00010000
00001000
00010000
00000000
,
00002000
00000000
00000000
00000000
00000000
00000000
00013000
00010000
,
00011000
00000000
00010000
00000100
00001000
00000100
00010000
00001000
,
00010000
00000000
00000010
00000000
00000100
00000000
00000001
00000000
00001000
00000001
00001000
00000001
00001000
00000001
00001000
00000000
,
00000000
00000110
00000000
00000000
00011000
00000000
01000000
01100000
;
