#VERSION:0.83;
#TITLE:NZM;
#SUBTITLE:;
#ARTIST:The 4th;
#TITLETRANSLIT:;
#SUBTITLETRANSLIT:;
#ARTISTTRANSLIT:;
#GENRE:END ROLL;
#CREDIT:;
#MUSIC:NZM.ogg;
#BANNER:NZM.png;
#BACKGROUND:NZM-bg.png;
#CDTITLE:./CDTitles/bm IIDX 23 copula.png;
#SAMPLESTART:17.627;
#SAMPLELENGTH:15.000;
#SELECTABLE:YES;
#OFFSET:0.991;
#BPMS:0.000=95.000
,11.000=190.000
,140.000=95.000
,183.500=190.000
;
#STOPS:11.000=1.263
,183.500=0.157
;
#TIMESIGNATURES:0.000=4=4;
#BGCHANGES:1.350=NZM.mp4=1.000=0=0=0=StretchNoLoop====,
99999.000=-nosongbg-=1.000=0=0=0=StretchNoLoop====
;
#FGCHANGES:;

//--------------- dance-single - forcednature ----------------
#NOTEDATA:;
#STEPSTYPE:dance-single;
#DESCRIPTION:forcednature;
#DIFFICULTY:Beginner;
#METER:4;
#RADARVALUES:0,0,0,0,0;
#CREDIT:forcednature;
#NOTES:
0000
0000
0000
0000
,
0000
0000
0000
0000
,
0000
0000
0000
1000
,
0000
0000
0000
0000
,
0001
0000
0000
0000
,
0100
0000
0000
0000
,
0010
0000
0000
0000
,
1000
0000
0000
0000
,
0001
0000
0000
0000
,
0010
0000
0010
0000
,
0010
0000
0000
0000
,
1001
0000
0000
0000
,
1000
0000
0100
0000
,
1000
0000
0000
0000
,
0100
0000
0010
0000
,
0001
0000
0000
0000
,
0001
0000
0100
0000
,
0001
0000
0001
0000
,
0001
0000
0000
0000
,
1001
0000
0000
0000
,
1000
0000
0010
0000
,
1000
0000
0000
0000
,
0010
0000
0100
0000
,
0001
0000
0000
0000
,
0001
0000
0010
0000
,
0001
0000
0000
0000
,
0010
0000
0010
0000
,
0100
0000
0000
0000
,
1000
0000
0000
0000
,
0001
0000
0000
0000
,
0100
0000
0001
0000
,
0100
0000
0000
0000
,
0010
0000
1000
0000
,
0010
0000
0000
0000
,
1000
0000
0001
0000
,
1001
0000
0000
0000
,
1000
0000
0000
0000
,
0100
0000
0000
0000
,
0010
0000
0000
0000
,
0001
0000
0000
0000
,
0100
0000
0000
0000
,
0010
0000
0000
0000
,
1000
0000
0000
0000
,
0001
0000
0000
0000
,
0010
0000
0010
0000
,
0010
0000
0100
0000
,
1001
0000
0000
0000
,
1000
0000
0100
0000
,
1000
0000
0000
0000
,
0001
0000
0100
0000
,
0001
0000
0000
0000
,
0001
0000
0010
0000
,
0001
0000
0000
0000
,
1000
1000
1000
0000
,
0010
0000
0000
0000
,
0100
0000
0001
0000
,
0100
0000
0000
0000
,
0001
0000
0010
0000
,
0001
0000
0000
0000
,
1000
0000
0010
0000
,
1000
0000
0000
0000
,
1000
1000
1000
0000
,
0001
0000
0100
0000
,
0001
0000
0100
0000
,
0010
0000
1000
0000
,
0010
0010
0010
0000
,
1000
0000
0100
0000
,
1000
0000
0100
0000
,
0010
0000
0001
0000
,
0010
0010
0010
0000
,
0001
0000
0100
0000
,
0001
0000
1000
0000
,
0001
0000
0010
0000
,
0100
0100
0100
0000
,
1000
0001
1000
0000
,
0001
1000
0001
0000
,
0100
0010
0100
0000
,
0010
0010
0010
0000
,
1001
0000
0000
0000
;

//--------------- dance-single - forcednature ----------------
#NOTEDATA:;
#STEPSTYPE:dance-single;
#DESCRIPTION:forcednature;
#DIFFICULTY:Easy;
#METER:8;
#RADARVALUES:0,0,0,0,0;
#CREDIT:forcednature;
#NOTES:
0000
0000
0000
0000
,
0000
0000
0000
0000
,
0000
0000
0000
0000
,
1000
0001
0000
0001
,
0000
0100
0000
0100
,
0000
0010
0000
0010
,
0000
1000
0000
1000
,
0001
0010
0001
0000
,
1000
0010
1000
0000
,
0100
0010
0100
0010
,
0001
0000
0000
0001
0000
0000
1000
0000
,
0010
0100
0001
1000
,
0000
0001
0100
0010
,
1000
0100
0010
0001
,
0000
1000
0000
0001
,
0100
0010
1000
0010
,
0000
0100
0001
0001
,
1000
0000
1001
0000
,
0001
0010
0100
0000
,
1000
0010
0100
0000
,
0010
1000
0001
0000
,
1000
0100
0010
0000
,
0001
0000
0000
0001
0000
0000
0100
0000
,
0010
1000
0001
0000
,
0010
0100
1000
0000
,
1001
0000
0110
0000
,
0001
0001
0001
0000
,
0200
0000
0000
0000
,
0320
0000
2030
0000
,
3002
0000
0000
0000
,
0023
0000
0230
0000
,
1300
1000
1000
0000
,
0001
0001
0001
0000
,
0100
0010
0100
0000
,
0010
1000
0001
0000
,
1001
0000
0000
0000
,
1000
0000
0200
0010
,
0310
0000
0002
1000
,
1003
0000
0020
0100
,
0230
0000
0302
0000
,
1003
0000
0200
1000
,
1300
0000
0020
0100
,
0130
0000
0002
0010
,
0023
0000
0032
0000
,
0203
0310
0020
0130
,
0220
0000
0330
0000
2002
0000
0000
3003
,
1000
0100
0010
0000
,
0100
1000
0001
0000
,
0100
0010
1000
0000
,
0001
0001
0001
0000
,
0010
0100
1000
0000
,
0001
0100
0010
0000
,
1000
0001
0010
0000
,
0100
0100
0100
0100
,
1000
0010
1000
0010
,
0100
0001
0100
0000
,
0001
0010
0001
0010
,
0100
0100
0100
0000
,
1000
0001
1000
0001
,
0100
0010
0100
0000
,
0001
1000
0001
1000
,
0100
0100
0100
0000
,
0010
0001
0010
0000
,
0100
0010
0100
0000
,
1000
0100
1000
0000
,
0001
0001
0001
0000
,
0100
0001
0100
0000
,
0010
0100
0010
0000
,
0110
0000
1000
0000
,
0001
0001
0001
1000
,
0200
0000
0010
0000
,
0320
0000
0001
0000
,
0032
0000
1000
0000
,
2003
0000
3020
0000
,
0130
0001
0100
0000
,
0001
0010
0001
0000
,
1000
0010
0100
0001
,
1000
0100
0010
0001
,
2002
0000
0000
0000
,
0000
0000
0000
0000
,
3003
0000
0000
0000
;

//--------------- dance-single - forcednature ----------------
#NOTEDATA:;
#STEPSTYPE:dance-single;
#DESCRIPTION:forcednature;
#DIFFICULTY:Medium;
#METER:12;
#RADARVALUES:0,0,0,0,0;
#CREDIT:forcednature;
#NOTES:
0000
0000
0000
0000
,
0000
0000
0000
0000
,
0000
0000
0000
0000
,
1000
0000
0100
0000
0000
1000
0100
0000
,
0010
0000
0001
0000
0000
0010
0001
0000
,
1000
0000
0010
0000
0000
1000
0010
0000
,
0100
0000
0001
0000
0000
0100
0001
0000
,
1000
0100
1000
0000
0100
0000
0010
0000
,
0001
0100
0001
0000
0100
0000
0010
0000
,
1000
1000
1000
0000
0001
0001
0001
0000
,
0100
0000
0000
0000
0100
0000
0010
0000
0000
0010
0000
0000
1001
0000
0000
0000
,
1000
0100
0010
0001
0010
0000
0100
0000
,
1000
0001
0100
0000
0001
1000
0100
0000
,
0010
0001
1000
0001
0100
0000
0010
0000
,
1000
0100
0010
0000
0100
0010
0001
0000
,
1000
0010
0100
0010
1000
0000
0001
0000
,
0010
0100
1000
0000
0010
0100
0001
0000
,
0011
0100
1010
0100
,
0101
1100
1001
0010
,
0001
1000
0010
0100
0001
0000
0010
0000
,
0100
1000
0001
0000
0100
0001
1000
0000
,
0100
0010
0001
0100
0010
0000
1000
0000
,
0100
0010
0001
0000
0100
0010
1000
0000
,
0001
0010
0001
1000
0010
0000
0100
0000
,
0001
1000
0100
0000
0100
0010
0001
0000
,
0101
1000
1100
0001
,
1010
0000
0011
0000
1000
0010
0100
0001
,
2000
0000
0000
0000
,
3200
0000
0320
0032
,
2003
0000
0000
0000
,
3010
0100
0010
0100
0001
0100
0001
1000
,
0200
0010
0010
0010
,
2300
0001
3020
0230
,
0302
0010
0010
0010
,
1003
0001
0010
0100
1000
0001
0100
0000
,
2002
0000
0000
0000
0000
0000
0000
3003
,
0110
0000
0001
1000
0001
0100
0010
1000
,
0001
0000
1000
0001
1000
0100
0010
0001
,
1000
0000
0010
0100
0010
0100
0001
1000
,
0100
0010
0001
1000
,
1001
0000
0001
1000
0010
0100
0001
1000
,
0010
0000
1000
0001
0010
0100
1000
0001
,
0010
0000
0100
1000
0001
0100
0010
1000
,
0001
0010
0100
1000
,
1010
0000
0101
0000
,
0011
0010
0100
0100
2000
0000
0000
3010
,
1001
0000
1000
0000
0100
0010
0100
0000
,
0010
0001
0010
0000
0001
1000
0001
0000
,
0100
0000
0010
0000
1000
0001
0010
0000
,
0100
0100
0100
0000
0010
0001
1000
0000
,
0010
0000
0100
0000
0001
0010
0001
0000
,
0010
0100
0010
0000
0100
1000
0100
0000
,
1000
0000
0001
0000
0100
0010
1000
0000
,
1100
1100
1100
0001
,
0010
0100
1000
0000
1000
0100
0010
0000
,
0100
0010
0001
0000
0001
0010
0100
0000
,
1000
0001
0100
0000
0100
0001
1000
0000
,
0010
0010
0010
0000
0010
1000
0001
0000
,
0010
0100
1000
0000
1000
0100
0010
0000
,
0001
1000
0010
0000
0010
1000
0001
0000
,
0101
1000
1100
0001
,
0010
0100
0010
0100
0010
0100
1000
0000
,
0001
0100
0010
0000
1000
0001
0010
0000
,
0100
1000
0010
0000
0100
0001
1000
0000
,
0100
0010
0001
0000
1000
0010
0100
0000
,
0101
0101
0101
1000
,
0001
0010
0100
0000
0010
0001
1000
0000
,
0010
0100
0001
0000
1000
0100
0010
0000
,
0100
1000
0001
0000
0100
0001
1000
0000
,
0010
0000
0010
0000
0100
0001
0100
0001
,
2000
0100
0100
0100
,
3002
0010
0010
0010
,
2003
0010
0010
3010
,
1001
1001
1001
0010
,
1000
0100
1000
0000
0100
0010
0100
0010
,
0001
0100
0001
0000
0100
0010
0100
0010
,
1000
0001
1000
0001
0010
0100
0010
0000
,
0100
1000
0001
0100
0010
1000
0001
0000
,
2002
0000
0000
0000
,
0000
0000
0000
0000
,
3003
0000
0000
0000
;

//--------------- dance-single - forcednature ----------------
#NOTEDATA:;
#STEPSTYPE:dance-single;
#DESCRIPTION:forcednature;
#DIFFICULTY:Hard;
#METER:15;
#RADARVALUES:0,0,0,0,0;
#CREDIT:forcednature;
#NOTES:
0000
0000
0000
0000
,
0000
0000
0000
0000
,
0000
0000
0000
0000
,
1000
0000
0001
0000
0100
0010
0100
0000
,
0001
0000
1000
0000
0100
0010
0100
0000
,
1000
0000
0001
0000
0010
0100
1000
0000
,
0001
0000
1000
0000
0010
0100
0001
0000
,
0010
0100
0010
0100
1000
0001
0100
0000
,
0010
0100
0010
0100
0001
1000
0100
0000
,
0010
0001
0010
0000
0001
0000
0010
0000
0100
1000
0100
0000
1000
0000
0000
0000
,
0001
1000
0001
1000
0001
0000
0100
0000
0000
0010
0000
0000
1001
0000
0000
0000
,
1000
0100
0010
0001
0100
0010
1000
0001
,
0000
0000
0010
0000
0100
0000
1000
0000
0001
0000
1000
0001
1000
0000
0001
0000
,
0100
0010
1000
0010
0100
0001
0010
0000
,
0100
0000
1000
0000
0001
0000
0100
0000
0000
0000
0010
0000
1000
0010
1000
0010
,
0100
0000
0001
0010
0100
1000
0001
0100
,
0000
0000
0010
0000
1000
0000
0001
0000
0010
0000
0001
0010
0001
0000
0010
0000
,
0100
0000
0000
1000
0010
1000
0010
0000
0000
0100
0001
0100
,
0001
0011
0110
1001
,
1000
0100
0010
0001
0100
0010
1000
0001
,
0000
0000
0010
0000
0100
0000
1000
0000
0001
0000
0100
0001
0100
0000
0001
0000
,
1000
0010
1000
0001
0010
0100
1000
0000
,
0010
0000
0100
0000
1000
0000
0100
0000
0000
0000
0010
0000
1000
0010
1000
0010
,
0100
0001
1000
0001
0010
0100
1000
0001
,
0000
0000
0100
0000
0010
0000
1000
0000
0001
0000
0010
0001
0010
0000
0001
0000
,
0100
0000
0000
0010
1000
0010
1000
0000
0000
0001
0100
0001
,
0100
0000
0110
0000
1000
0100
0010
0001
,
0200
0000
0000
0000
,
0320
0000
2030
3002
,
0023
0000
0000
0000
,
0031
0100
0001
0000
0100
0000
0010
1000
0010
0000
1000
0000
0001
0000
0010
0000
,
0100
0000
0000
0100
0000
0000
0100
0000
1000
0000
0000
1000
0000
0000
1000
0000
,
0001
0000
0000
0001
0000
0000
0001
0000
0100
0000
0000
0100
0000
0000
0100
0000
,
0010
1000
0010
1000
0001
0010
0001
0010
,
0001
0100
0001
0000
1000
0100
1000
0000
0010
0100
0010
0100
0001
0000
0000
0000
,
2002
0000
0000
0000
0000
0000
0000
3003
,
0110
0000
0001
1000
0020
0230
0302
2003
,
3020
0000
1030
0001
0020
0230
2300
3002
,
0023
0000
0031
1000
0200
0320
0032
2003
,
3200
0300
0110
0000
1001
0000
0100
0010
,
1001
0000
0001
0100
0020
2030
3002
0203
,
0320
0000
1030
0100
0020
0032
2003
3200
,
0320
0000
0130
1000
0002
0203
0320
2030
,
3002
0003
0110
0000
1001
0000
0010
0000
,
2100
0000
0010
3000
0102
0000
0010
0003
,
0001
0000
0001
0000
1000
0000
1000
0000
0010
0100
0010
0100
0010
0100
0001
0000
,
0010
0100
1000
0100
0010
0001
1000
0010
,
0100
0000
0001
0000
1000
0000
0100
0000
0010
0100
0010
0000
0001
0000
0000
0000
,
1000
0010
0100
0010
1000
0001
0010
0000
,
0001
1000
0001
1000
0001
0000
0000
0000
1000
0001
1000
0001
1000
0000
0000
0000
,
0010
0100
0001
0100
0010
1000
0001
0010
,
0100
0000
1000
0000
0001
0000
0100
0000
0010
0000
1000
0010
1000
0000
0000
0000
,
0001
0010
0001
0100
0010
1000
0100
0000
,
0110
0110
1001
1001
,
1000
0000
0100
0000
0010
0100
0010
0000
0001
0000
0010
0000
0100
0000
1000
0000
,
0001
0000
0100
0000
0010
0100
0010
0000
1000
0000
0010
0000
0100
0000
0001
0000
,
1000
0000
0100
0000
0010
0100
0010
0000
0001
0000
0010
0000
0100
0000
0000
0000
,
1000
0001
1000
0001
1000
0000
0000
0000
0001
1000
0001
1000
0001
0000
0000
0000
,
0001
0000
0100
0000
0010
0100
0010
0000
1000
0000
0010
0000
0100
0000
0001
0000
,
1000
0000
0100
0000
0010
0100
0010
0000
0001
0000
0010
0000
0100
0000
1000
0000
,
1001
0000
0010
0100
1001
0000
1000
0000
,
0010
0100
0010
0000
0100
0001
0100
0000
0001
1000
0001
0000
0020
0000
0000
0000
,
0130
1000
0100
0010
0100
1000
0001
0100
,
0010
1000
0010
0100
0010
1000
0001
0010
,
0001
0100
0010
1000
0001
0010
0100
1000
,
1010
1100
1010
0011
,
0001
0100
0010
1000
0001
0010
0100
0010
,
0001
0100
0010
0100
0001
1000
0100
1000
,
1010
0000
0010
0100
0001
0010
0100
0000
,
0010
0000
0010
0000
0001
0000
0001
0000
0100
0001
0100
0001
1000
0000
0000
0000
,
0002
0100
1000
0010
,
2003
0100
0001
0010
,
3200
0001
0010
1300
,
1100
1010
1100
0101
,
0001
0010
0001
0100
0010
1000
0100
1000
,
0001
0100
0001
0010
0100
1000
0010
1000
,
0001
0100
0001
0000
0100
0001
0100
0000
0010
0000
1000
0000
0001
0000
1000
0000
,
0100
1000
0100
0000
0010
0100
0010
0000
0001
0010
0001
0010
0100
0000
0000
0000
,
2002
0000
0000
0000
,
0000
0000
0000
0000
,
3003
0000
0000
0000
;

//--------------- dance-single - forcednature ----------------
#NOTEDATA:;
#STEPSTYPE:dance-single;
#DESCRIPTION:forcednature;
#DIFFICULTY:Challenge;
#METER:17;
#RADARVALUES:0,0,0,0,0;
#CREDIT:forcednature;
#NOTES:
0000
0000
0000
0000
,
0000
0000
0000
0000
,
0000
0000
0000
0000
,
1000
0000
0100
0000
0010
0001
0011
0000
,
0001
0000
0100
0000
0010
1000
1010
0000
,
0001
0000
0010
0000
0100
1000
1100
0000
,
1000
0000
0010
0000
0100
0001
0101
0000
,
1000
0100
1000
0000
0001
0000
1000
0000
0010
0000
1000
0000
0100
0000
0010
0000
,
0001
0100
0001
0000
1000
0000
0001
0000
0010
0000
0001
0000
0100
0000
0010
0000
,
1000
0010
1000
0010
0100
0001
0100
0000
0001
0010
0001
0010
0100
1000
0100
0000
,
0010
0001
0100
0010
1000
0000
0001
0010
0000
0100
1000
0000
0010
0000
0000
0000
,
0101
0000
0000
0001
1000
0000
0001
0010
0100
0000
1000
0000
0001
0000
0100
0000
,
0000
0000
0010
0000
1000
0100
0000
1000
0001
0000
0001
0010
0001
0000
0001
0000
,
0100
0000
0000
0100
0010
0000
1000
0001
0010
0000
0100
0000
1000
0000
0001
0000
,
0100
0000
1000
0000
0001
0000
0010
0000
1000
0000
0001
0000
1000
0100
0010
0001
,
1000
0000
0000
1000
0010
0000
0100
0001
1000
0000
0100
0000
0001
0000
0100
0000
,
0000
0000
0010
0000
0001
1000
0000
1000
0010
0000
0010
0100
0010
0000
0010
0000
,
0101
0000
0000
1000
0001
0010
1100
0000
0000
0001
1000
0010
,
1000
0100
0010
0001
0100
0010
0001
0010
1000
0001
1000
0100
,
0010
0000
0000
0010
0001
0000
1000
0001
0100
0000
0010
0000
1000
0000
0001
0000
,
0010
0000
1000
0000
0010
0001
0000
0100
0001
0000
0001
1000
0001
0000
0001
0000
,
0010
0000
0000
0010
0100
0000
1000
0001
0100
0000
0010
0000
0001
0000
0010
0000
,
1000
0000
0100
0000
0001
0000
1000
0000
0010
0000
0001
0000
1000
0010
0100
0001
,
0010
0000
0000
0010
0100
0000
0010
0001
1000
0000
0001
0000
0100
0000
0010
0000
,
0001
0000
0010
0000
1000
0100
0000
1000
0010
0000
0010
0100
0010
0000
0010
0000
,
0101
0000
0000
1000
0001
0010
1100
0000
0000
0001
1000
0010
,
0100
0000
1000
0000
0001
0000
0010
0000
1000
0000
0001
0000
2000
0000
0000
3200
0000
0000
0320
0000
0000
0032
0000
0000
,
0203
0000
0000
0000
,
0320
0000
2030
3002
,
0023
0000
0000
0000
,
0130
1000
0100
0010
0001
0000
0100
0001
0100
0010
1000
0000
0001
0010
0100
1000
,
0001
0000
0000
0001
0100
0000
0010
0000
1000
0000
0000
1000
0100
0000
0010
0000
,
0001
0000
0000
0001
0100
0000
0010
0000
1000
0000
0000
1000
0100
0000
0010
0000
,
0001
0001
0001
0100
0100
0100
0010
0010
,
1000
0100
1000
0100
0010
0100
0010
0100
0010
0001
0010
0001
0100
0010
1000
0001
,
0200
0000
0000
0000
0000
0000
0000
0300
,
1001
0000
1000
0100
0020
0032
2003
3020
,
0230
0000
0301
1000
0200
0320
0032
2003
,
3020
0000
0130
0001
0020
0230
2300
3001
,
0202
0303
2020
3030
2200
3300
0001
0010
,
0022
0033
0001
0100
0020
2030
3200
0302
,
0203
0000
1300
0010
0200
2300
3200
0302
,
0023
0000
0130
0001
0200
2300
3002
1003
,
2020
3030
0202
0303
0022
0000
0033
0000
,
2010
0000
0100
3000
0012
0000
0100
0003
,
0001
0000
0100
0000
0001
0000
0100
0000
0010
0000
1000
0000
0010
0000
1000
0000
0100
1000
0100
1000
0100
1000
0100
1000
0100
1000
0100
1000
0001
0000
0000
0000
,
0100
0000
0010
1000
0000
0001
1000
0000
0100
0010
0001
0010
0100
0000
1000
0000
,
0001
0000
0100
0010
0000
1000
0010
0000
0100
0001
1000
0001
0200
0000
0000
0000
,
0310
0000
1000
0100
0000
0010
0100
0000
1000
0001
0010
0001
1000
0000
0010
0000
,
0100
0001
0100
0001
1000
0000
0001
0000
0010
0100
1000
0001
0010
0000
0000
0000
,
0001
0000
0100
0010
0000
1000
0010
0000
0100
0001
1000
0001
0010
0000
0100
1000
,
0001
0000
0100
0010
0000
1000
0010
0000
1000
0100
0010
0001
0020
0000
0000
0000
,
0130
0000
1000
0001
0000
0100
0001
0000
0010
0100
1000
0000
1100
0000
0000
0000
,
0001
0100
0001
0000
0001
1000
0001
0000
1000
0010
1000
0000
1000
0001
1000
0000
,
0100
0000
0010
0001
0010
0000
0001
1000
0001
0000
0100
0001
0100
0000
0010
0100
,
0010
0000
1000
0100
1000
0000
0001
0100
0001
0000
1000
0010
1000
0000
0001
0010
,
0001
0000
1000
0100
0010
0000
0001
0010
0100
0000
1000
0001
0100
0000
0001
1000
,
0100
0010
0100
0010
0001
0000
1000
0000
0010
0100
0001
1000
0010
0000
0000
0000
,
0100
0000
0001
0100
0010
0000
1000
0010
0100
0000
0001
1000
0100
0000
1000
0001
,
0010
0000
0001
1000
0010
0000
0100
0001
1000
0000
0100
0010
0001
0000
0100
0010
,
1000
0000
0000
0000
0001
0100
0001
0100
0010
0000
1000
0000
1010
0000
0000
0000
,
1000
0100
0010
0001
0010
0100
1000
0001
1000
0010
0100
0001
0020
0000
0000
0000
,
0130
0000
0100
0000
0100
1000
0001
0000
0100
0000
0010
1000
0000
1000
0001
0000
,
0010
0000
0100
1000
0000
1000
0001
0000
0100
0000
0001
0010
0000
0010
0100
0000
,
1000
0000
0001
0100
0000
0010
0100
0000
0001
0000
1000
0100
0000
0010
0100
0000
,
1000
0010
1000
0000
0001
0010
0001
0000
0100
0000
0010
0000
1001
0000
0000
0000
,
0001
0000
1000
0010
0000
0100
0001
0000
1000
0000
0001
0010
0000
0100
1000
0000
,
0010
0000
0100
0001
0000
0010
0001
0000
1000
0000
0010
1000
0000
0100
0010
0000
,
0110
0000
0100
1000
0000
0001
0100
0000
0010
0000
0000
0000
1001
0000
0000
0000
,
1000
0000
1000
0000
0001
0000
0001
0000
0100
0010
0100
0010
1000
0001
0010
0100
,
2000
0010
0100
0010
,
3002
0010
1000
0010
,
0203
1000
0010
0301
,
1010
0011
0110
1001
,
1000
0100
1000
0010
0100
0001
0010
0001
,
0100
0010
1000
0001
0010
0100
1000
0001
,
0100
0001
0100
0001
1000
0010
1000
0010
0100
0000
0001
0000
1000
0000
0100
0000
,
0010
0001
0010
0001
1000
0100
1000
0100
1000
0010
0100
0001
0010
0000
0000
0000
,
2002
0000
0000
0000
,
0000
0000
0000
0000
,
3003
0000
0000
0000
;

//--------------- dance-double - forcednature ----------------
#NOTEDATA:;
#STEPSTYPE:dance-double;
#DESCRIPTION:forcednature;
#DIFFICULTY:Easy;
#METER:8;
#RADARVALUES:0,0,0,0,0;
#CREDIT:forcednature;
#NOTES:
00000000
00000000
00000000
00000000
,
00000000
00000000
00000000
00000000
,
00000000
00000000
00000000
00000000
,
00001000
00010000
00000000
00010000
,
00000000
00000100
00000000
00000100
,
00000000
00001000
00000000
00001000
,
00000000
00000001
00000000
00000001
,
00000100
00000001
00000100
00000000
,
00000010
00000100
00000010
00000000
,
00001000
00000010
00001000
00000010
,
00010000
00000000
00000000
00010000
00000000
00000000
00001000
00000000
,
01000000
00010000
01000000
00100000
,
00000000
10000000
00010000
10000000
,
01000000
00100000
00010000
00100000
,
00000000
00001000
00000000
00010000
,
00000100
00001000
00000100
00000010
,
00000000
00000001
00001000
00001000
,
00000010
00000000
00011000
00000000
,
01000000
00010000
00100000
00000000
,
01000000
10000000
00010000
00000000
,
01000000
00001000
00010000
00000000
,
00000100
00001000
00000001
00000000
,
00000100
00000000
00000000
00000100
00000000
00000000
00000010
00000000
,
00001000
00000100
00010000
00000000
,
00001000
01000000
00010000
00000000
,
10010000
00000000
01100000
00000000
,
10000000
10000000
10000000
00000000
,
02000000
00000000
00000000
00000000
,
03200000
00000000
00302000
00000000
,
00023000
00000000
00000000
00000000
,
00030200
00000000
00002300
00000000
,
00003001
00000001
00000001
00000000
,
00000100
00000100
00000100
00000000
,
00001000
00010000
00001000
00000000
,
01000000
00010000
10000000
00010000
,
00200000
00000000
00000000
00000000
00000000
00000000
00000000
00300000
,
01100000
00000000
02000000
10000000
,
13000000
00000000
00200000
00010000
,
00310000
00000000
00002000
00010000
,
00023000
00000000
00030200
00000000
,
00001300
00000000
00000002
00000100
,
00000103
00000000
00002000
00000010
,
00003010
00000000
00020000
00001000
,
00032000
00000000
00203000
00000000
,
00320000
01030000
02000000
03100000
,
02200000
00000000
03300000
00000000
20020000
00000000
00000000
30030000
,
10000000
01000000
00100000
00010000
,
01000000
00001000
00010000
00000000
,
00000100
00001000
00000001
00000100
,
00000010
00000010
00000010
00000000
,
00001000
00000100
00010000
00001000
,
01000000
00010000
00100000
00000000
,
01000000
10000000
00010000
10000000
,
00100000
00100000
00100000
00100000
,
00000000
01000000
00010000
01000000
,
00001000
00010000
00001000
00100000
,
00000000
00001000
00010000
00000010
,
00001000
00001000
00001000
00000100
,
00000000
00000010
00000001
00001000
,
00000010
00001000
00000001
00000010
,
00000000
00000100
00010000
00001000
,
00100000
00100000
00100000
00010000
,
00000000
01000000
00010000
01000000
,
00000000
00010000
00100000
00010000
,
00000000
00100000
00001000
00010000
,
00000000
00000010
00000010
00000010
,
00000000
00001000
00000100
00001000
,
00000000
00000001
00000100
00000001
,
00000010
00000000
00000110
00000000
,
00000100
00000100
00010000
00001000
,
00200000
00000000
00010000
00000000
,
00320000
00000000
01000000
00000000
,
02030000
00000000
00100000
00000000
,
03200000
00000000
20300000
00000000
,
31000000
10000000
01000000
00000000
,
00100000
01000000
00100000
00000000
,
00010000
00100000
00001000
00010000
,
00000100
00001000
00000010
00000000
,
00002002
00000000
00000000
00000000
,
00000000
00000000
00000000
00000000
,
00003003
00000000
00000000
00000000
;

//--------------- dance-double - forcednature ----------------
#NOTEDATA:;
#STEPSTYPE:dance-double;
#DESCRIPTION:forcednature;
#DIFFICULTY:Medium;
#METER:12;
#RADARVALUES:0,0,0,0,0;
#CREDIT:forcednature;
#NOTES:
00000000
00000000
00000000
00000000
,
00000000
00000000
00000000
00000000
,
00000000
00000000
00000000
00000000
,
00001000
00000000
00010000
00000000
00000000
00010000
00000100
00000000
,
00010000
00000000
00001000
00000000
00000000
00001000
01000000
00000000
,
00001000
00000000
00010000
00000000
00000000
00010000
00000010
00000000
,
00010000
00000000
00001000
00000000
00000000
00001000
00100000
00000000
,
00010000
10000000
00010000
00000000
01000000
00000000
00001000
00000000
,
00010000
00001000
00010000
00000000
00000100
00000000
00001000
00000000
,
00000010
00000010
00000010
00000000
00000100
00000100
00000100
00000000
,
00000001
00000000
00000000
00000000
00001000
00000000
00000001
00000000
00000000
00001000
00000000
00000000
00000002
00000000
00000000
00000000
,
00000013
00000100
00001000
00000000
00000100
00010000
00001000
00000000
,
00011000
00000000
00010000
00000000
00001000
01000000
00010000
00000000
,
00100000
01000000
10000000
00000000
01000000
00010000
00001000
00000000
,
00011000
00000000
00010000
00000020
00000000
00001030
00000200
00000000
,
00000310
00000000
00000001
00001000
00000010
00000100
00000001
00000000
,
00001001
00000000
00001000
00000000
00000100
00010000
00001000
00000000
,
00011000
00100000
00011000
00000010
,
00010100
00011000
01001000
00100000
,
10010000
00000000
10000000
01000000
00100000
00010000
01000000
00000000
,
00001000
00010000
00000010
00000000
00001000
00000001
00000010
00000000
,
00000110
00000000
00000100
00010000
00001000
00100000
00010000
00000000
,
20000000
00000000
30100000
02000000
00000000
03010000
00100000
00000000
,
01100000
00000000
01000000
00010000
00001000
00100000
00010000
00000000
,
01000000
00001000
00010000
00000000
00000100
00010000
00001000
00000000
,
00011000
00100000
00011000
00000010
,
00010100
00000000
00011000
00000000
00001000
01000000
00010000
01000000
,
00200000
00000000
00000000
00000000
,
20300000
00000000
32000000
03020000
,
00032000
00000000
00000000
00000000
,
00013000
00000000
00010000
00000100
00000000
00000100
00001000
00000001
,
00000020
00000100
00000100
00000100
,
00000230
00010000
00020300
00032000
,
02003000
00010000
00010000
00010000
,
03010000
01000000
00010000
00000000
00100000
01000000
10000000
00000000
,
20020000
00000000
00000000
00000000
00000000
00000000
00000000
30030000
,
01100000
00000000
10000000
01000000
00100000
00001000
00010000
00000100
,
00001000
00000000
00000001
00000100
00000010
00010000
00001000
01000000
,
00010000
00000000
10000000
01000000
00100000
00001000
00010000
00000100
,
00002000
00000000
00003002
00000003
00000200
00000000
00000310
00000100
,
00001001
00000000
00000001
00000010
00000100
00010000
00001000
00100000
,
00010000
00000000
10000000
00100000
01000000
00001000
00010000
00000010
,
00001000
00000000
00000001
00000100
00001000
00010000
01000000
10000000
,
00200000
02300000
03002000
00013000
,
00020200
00030300
02002000
03003000
,
00011000
00010000
00000100
00001000
00000002
00000000
00000000
00000103
,
00001001
00000000
00001000
00000000
00000100
00010000
00001000
00000000
,
00010000
00001000
00100000
00000000
00010000
10000000
00100000
00000000
,
01000000
00000000
00001000
00000000
00010000
00000100
00001000
00000000
,
00000010
00000010
00000010
00000000
00000100
00000001
00000010
00000000
,
00000110
00000000
00000100
00000000
00010000
00001000
00100000
00000000
,
00010000
01000000
00001000
00000000
00010000
00001000
00100000
00000000
,
01000000
00000000
10000000
00000000
00010000
01000000
00001000
00000000
,
00011000
00011000
00011000
00010000
,
00000100
00001000
00000001
00000000
00000001
00001000
00000010
00000000
,
00010000
00001000
00100000
00000000
00100000
00001000
00010000
00000000
,
00100000
10000000
01000000
00000000
01000000
10000000
00100000
00000000
,
01000000
01000000
01000000
00000000
00001000
00010000
00000010
00000000
,
00001000
00000100
00000001
00000000
00000001
00000100
00001000
00000000
,
00000010
00010000
00001000
00000000
00001000
00010000
00000010
00000000
,
00001001
00000100
00001001
00001000
,
00000100
00010000
00000100
00010000
00000100
00010000
00001000
00000000
,
01000000
00010000
00100000
00000000
01000000
10000000
00010000
00000000
,
01000000
00001000
00010000
00000000
00000010
00010000
00001000
00000000
,
00000010
00000100
00010000
00000000
00001000
00000010
00000001
00000000
,
00001001
00001001
00001001
00000110
,
00001000
00000100
00010000
00000000
00001000
01000000
00010000
00000000
,
00100000
01000000
10000000
00000000
00100000
01000000
00010000
00000000
,
00100000
00001000
00010000
00000000
00000010
00010000
00001000
00000000
,
00000010
00000000
00000010
00000000
00000100
00001000
00000001
00001000
,
00000020
00000000
00000230
00000000
00001300
00010000
00001000
00000000
,
00200000
00000000
02300000
00000000
03010000
00001000
00010000
00000000
,
00000200
00000000
00002300
00000000
00003001
00000010
00000001
00000000
,
00001001
00001001
00001001
00000110
,
00001000
00000100
00010000
00000000
00001000
01000000
00010000
00000000
,
00100000
01000000
10000000
00000000
00100000
01000000
00010000
00000000
,
00100000
00001000
00010000
00001000
01000000
00010000
01000000
00000000
,
00001000
00010000
00000100
00001000
00000100
00000010
00000001
00000000
,
00002002
00000000
00000000
00000000
,
00000000
00000000
00000000
00000000
,
00003003
00000000
00000000
00000000
;

//--------------- dance-double - forcednature ----------------
#NOTEDATA:;
#STEPSTYPE:dance-double;
#DESCRIPTION:forcednature;
#DIFFICULTY:Hard;
#METER:15;
#RADARVALUES:0,0,0,0,0;
#CREDIT:forcednature;
#NOTES:
00000000
00000000
00000000
00000000
,
00000000
00000000
00000000
00000000
,
00000000
00000000
00000000
00000000
,
00001000
00000000
00010000
00000000
00000100
00001000
00000010
00000000
,
00010000
00000000
00001000
00000000
01000000
00010000
00100000
00000000
,
01000000
00000000
00010000
00000000
00001000
00100000
00010000
00000000
,
01000000
00000000
00001000
00000000
00010000
00000010
00001000
00000000
,
00000001
00000010
00000100
00000010
00000001
00001000
00000100
00000000
,
00010000
00001000
01000000
00010000
01000000
00001000
00100000
00000000
,
01000000
10000000
01000000
00000000
10000000
00000000
00100000
00000000
01000000
00010000
01000000
00000000
00001000
00000000
00000000
00000000
,
00010000
00001000
00010000
00001000
00010000
00000000
00000100
00000000
00000000
00001000
00000000
00000000
00001010
00000000
00000000
00000000
,
00000001
00000100
00001000
00000100
00000001
00001000
00000010
00010000
,
00000000
00000000
00001000
00000000
01000000
00000000
00010000
00000000
10000000
00000000
00010000
10000000
00010000
00000000
10000000
00000000
,
01000000
00010000
01000000
10000000
00010000
00100000
00001000
00000000
,
00010000
00000000
00000010
00000000
00000100
00000000
00001000
00000000
00000000
00000000
00000100
00000000
00000001
00001000
00000001
00001000
,
00000010
00000000
00000100
00001000
00010000
00001000
01000000
00010000
,
00000000
00000000
00100000
00000000
01000000
00000000
00010000
00000000
01000000
00000000
10000000
01000000
10000000
00000000
00100000
00000000
,
01100000
00000000
00000000
01000000
00001000
00010000
00001000
00000000
00000000
00100000
00010000
00100000
,
00001000
00011000
00010100
00000110
,
00000010
00001000
00000010
00000100
00010000
00001000
00100000
01000000
,
00000000
00000000
00100000
00000000
00001000
00000000
00010000
00000000
00000010
00000000
00001000
00000010
00001000
00000000
00000001
00000000
,
00000010
00000100
00010000
00000010
00001000
00000100
00010000
00000000
,
00001000
00000000
01000000
00000000
00010000
00000000
00100000
00000000
00000000
00000000
01000000
00000000
10000000
00010000
10000000
00010000
,
01000000
00100000
10000000
00100000
01000000
00001000
00100000
00010000
,
00000000
00000000
00001000
00000000
00000100
00000000
00010000
00000000
00000010
00000000
00001000
00000010
00001000
00000000
00000100
00000000
,
00000110
00000000
00000000
00000010
00000100
00001000
00000100
00000000
00000000
00010000
00001000
01000000
,
00001000
00000000
00011000
00000000
00010000
00100000
01000000
00100000
,
20000000
00000000
00000000
00000000
,
32000000
00000000
03020000
00032000
,
00003020
00000000
00000000
00000000
,
00000031
00000100
00000001
00000000
00000100
00000000
00000010
00001000
00000010
00000000
00001000
00000000
00000100
00000000
00010000
00000000
,
00002000
00000000
00000000
01000000
00000000
00000000
01000000
00000000
02003000
00000000
00000000
00010000
00000000
00000000
00010000
00000000
,
03020000
00000000
00000000
10000000
00000000
00000000
10000000
00000000
20030000
00000000
00000000
01000000
00000000
00000000
01000000
00000000
,
31000000
00100000
01000000
00100000
00001000
00010000
00001000
00010000
,
00000100
00001000
00000100
00000000
00001000
00000010
00001000
00000000
00000001
00000100
00000001
00000100
00000010
00000000
00000000
00000000
,
00002002
00000000
00000000
00000000
00000000
00000000
00000000
00003003
,
00000110
00000000
00000001
00000100
00002000
00023000
00230000
02300000
,
03020000
00000000
10030000
01000000
00020000
00032000
00003020
00000230
,
00002300
00000000
00003001
00000100
00002000
00023000
02030000
03200000
,
00320000
00030000
10010000
00000000
01100000
00000000
10000000
01000000
,
00020000
00000000
00031000
00000010
00000002
00000203
00002300
00023000
,
00032000
00003000
00000010
00000001
00000200
00002300
00023000
00230000
,
20300000
00000000
31000000
00010000
02000000
03200000
00302000
00023000
,
00030200
00000300
00000110
00000000
00001001
00000000
00000010
00000000
,
00012000
00000000
00100000
00003000
00021000
00000000
00000010
00030000
,
00010000
00000000
00001000
00000000
00010000
00000000
00001000
00000000
01000000
00010000
01000000
00100000
10000000
00100000
01000000
00000000
,
00010000
10000000
01000000
10000000
00010000
00100000
00001000
00010000
,
00000010
00000000
00010000
00000000
00001000
00000000
00000010
00000000
00000100
00000010
00000100
00000000
00001000
00000000
00000000
00000000
,
00000001
00000100
00001000
00000100
00000010
00010000
00001000
00000000
,
00010000
00000100
00010000
00000100
00010000
00000000
00000000
00000000
00001000
00100000
00001000
00100000
00001000
00000000
00000000
00000000
,
00010000
00100000
01000000
00100000
10000000
00010000
10000000
01000000
,
00010000
00000000
00001000
00000000
00100000
00000000
00010000
00000000
00100000
00000000
00001000
00010000
00001000
00000000
00000000
00000000
,
00000010
00000100
00010000
00000010
00001000
00000001
00000010
00000000
,
00000110
00000000
00000110
00000000
00000001
00000100
00001000
00000000
,
00010000
00000000
00001000
00000000
01000000
00010000
01000000
00000000
00010000
00000000
10000000
00000000
00100000
00000000
10000000
00000000
,
01000000
00000000
00100000
00000000
00010000
00100000
00010000
00000000
01000000
00000000
00001000
00000000
00010000
00000000
00000010
00000000
,
00001000
00000000
00000100
00000000
00000010
00000100
00000010
00000000
00000001
00000000
00000100
00000000
00000010
00000000
00000000
00000000
,
00010000
00000010
00010000
00000010
00010000
00000000
00000000
00000000
00001000
01000000
00001000
01000000
00001000
00000000
00000000
00000000
,
01000000
00000000
00010000
00000000
00100000
00010000
00100000
00000000
01000000
00000000
10000000
00000000
00100000
00000000
10000000
00000000
,
01000000
00000000
00010000
00000000
00001000
00010000
00001000
00000000
00010000
00000000
00000100
00000000
00001000
00000000
00000000
00000000
,
00001001
00000000
00000001
00000100
00001000
00000000
00010000
01000000
,
10000000
00000000
01000000
10000000
01000000
00000000
10000000
00100000
10000000
00000000
00100000
01000000
00020000
00000000
00000000
00000000
,
00130000
01000000
00010000
00000100
00001000
00000010
00010000
00001000
,
00010000
00000100
00001000
00000010
00001000
00000100
00000001
00000000
,
00000100
00010000
00001000
00100000
00001000
00010000
00100000
00000000
,
10100000
11000000
01010000
00011000
,
00001000
00100000
00001000
00010000
00100000
01000000
00100000
10000000
,
01000000
00010000
01000000
00100000
00001000
00010000
00000100
00000000
,
00000110
00000000
00000010
00000001
00000100
00001000
00010000
00000000
,
00001000
00000000
00001000
00000000
00010000
00000000
00010000
00000000
00001000
00010000
00001000
01000000
00010000
00000000
00100000
00000000
,
00020000
01000000
10000000
00100000
,
00032000
00000100
00000001
00000010
,
00023000
01000000
10000000
00100000
,
00031000
00000000
00000100
00000010
00000001
00000100
00000110
00000000
,
00000010
00000100
00001000
01000000
00010000
00100000
01000000
00010000
,
01000000
10000000
00100000
10000000
01000000
00010000
00001000
00000000
,
00010000
00000100
00010000
00000000
00000100
00001000
00000100
00000000
00000010
00000000
00000001
00000000
00001000
00000000
00000001
00000000
,
00000100
00000001
00000100
00000000
00000010
00000100
00000010
00000000
00001000
00000010
00001000
00000010
00010000
00000000
00000000
00000000
,
00022000
00000000
00000000
00000000
,
00000000
00000000
00000000
00000000
,
00033000
00000000
00000000
00000000
;

//--------------- dance-double - forcednature ----------------
#NOTEDATA:;
#STEPSTYPE:dance-double;
#DESCRIPTION:forcednature;
#DIFFICULTY:Challenge;
#METER:18;
#RADARVALUES:0,0,0,0,0;
#CREDIT:forcednature;
#NOTES:
00000000
00000000
00000000
00000000
,
00000000
00000000
00000000
00000000
,
00000000
00000000
00000000
00000000
,
00001000
00000000
00010000
00000000
01000000
10000000
00100000
00000000
,
00010000
00000000
00001000
00000000
00000100
00000001
00000010
00000000
,
00001000
00000000
00010000
00000000
00100000
10000000
01000000
00000000
,
00010000
00000000
00001000
00000000
00000010
00000001
00000100
00000000
,
00000010
00001000
00000010
00000000
00010000
00000000
00001000
00000000
01000000
00000000
00010000
00000000
01000000
00000000
00001000
00000000
,
00100000
00010000
00100000
00000000
00001000
00000000
00010000
00000000
00000100
00000000
00001000
00000000
00000100
00000000
00010000
00000000
,
00001000
00010000
00001000
00010000
00000100
00001000
00000100
00001000
00000001
00000010
00000001
00000010
00000100
00001000
00000100
00000000
,
00010000
00001000
01000000
00010000
01000000
00000000
00100000
10000000
01000000
00100000
00010000
01000000
00100000
00000000
00000000
00000000
,
10010000
00000000
00000000
10000000
01000000
00000000
00010000
00000000
00001000
00000000
00100000
00000000
01000000
00000000
00010000
00000000
,
00000000
00000000
00001000
00000000
00000010
00000100
00000000
00001000
00000100
00000000
00000100
00000010
00000001
00000000
00000010
00000000
,
00000001
00000000
00000000
00000001
00000100
00000000
00000010
00000000
00001000
00000000
00010000
00000000
01000000
00000000
00010000
00000000
,
00100000
00000000
01000000
00000000
00010000
00000000
01000000
00000000
10000000
00000000
00010000
00000000
00100000
00010000
00100000
00001000
,
00010000
00000000
00000000
00010000
00000010
00000000
00001000
00000000
00000100
00000000
00000001
00000000
00000100
00000000
00001000
00000000
,
00000000
00000000
00000010
00000000
00010000
00001000
00000000
00001000
00100000
00000000
00010000
00100000
00010000
00000000
00100000
00000000
,
10010000
00000000
00000000
10000000
01000000
00010000
00001000
00000000
00000000
00010000
00001000
00000010
,
00000001
00000100
00000010
00000001
00000010
00000100
00000001
00001000
00000100
00010000
00001000
00100000
,
01000000
00000000
00000000
01000000
10000000
00000000
00100000
00000000
01000000
00000000
10000000
00000000
01000000
00000000
00010000
00000000
,
00100000
00000000
01000000
00000000
00100000
00001000
00000000
00010000
00000100
00000000
00001000
00000100
00001000
00000000
00000100
00000000
,
00000010
00000000
00000000
00000010
00000001
00000000
00000100
00000000
00001000
00000000
00000100
00000000
00000001
00000000
00001000
00000000
,
00000010
00000000
00000100
00000000
00001000
00000000
01000000
00000000
00010000
00000000
00100000
00000000
01000000
10000000
00010000
10000000
,
00100000
00000000
00000000
00100000
01000000
00000000
00010000
00000000
10000000
00000000
01000000
00000000
00010000
00000000
01000000
00000000
,
00100000
00000000
00001000
00000000
00010000
00000100
00000000
00001000
00000100
00000000
00000010
00000100
00000010
00000000
00000100
00000000
,
00001001
00000000
00000000
00000001
00000100
00001000
00010000
00000000
00000000
00001000
00010000
00100000
,
10000000
00000000
00010000
00000000
00100000
00000000
01000000
00000000
10000000
00000000
01000000
00000000
00020000
00000000
00000000
00032000
00000000
00000000
00003020
00000000
00000000
00000230
00000000
00000000
,
00002300
00000000
00000000
00000000
,
00003002
00000000
00000203
00002300
,
00023000
00000000
00000000
00000000
,
00031000
00010000
00001000
01000000
00010000
00000000
01000000
00100000
10000000
00100000
01000000
00000000
00010000
10000000
01000000
00100000
,
00010000
00000000
00000000
00010000
01000000
00000000
00001000
00000000
00010000
00000000
00000000
00010000
00000100
00000000
00001000
00000000
,
00000010
00000000
00000000
00000010
00000100
00000000
00000001
00000000
00000010
00000000
00000000
00000010
00000100
00000000
00010000
00000000
,
00001000
00001000
00001000
01000000
01000000
01000000
00010000
00010000
,
10000000
01000000
10000000
01000000
00100000
01000000
00100000
01000000
00100000
00010000
00100000
00001000
00010000
00000100
00001000
00000100
,
00000020
00000000
00000000
00000000
00000000
00000000
00000000
00000030
,
00001001
00000000
00000001
00000100
00002000
00023000
00230000
02300000
,
03020000
00000000
10030000
01000000
00020000
00032000
00203000
00320000
,
00030020
00000000
00000130
00010000
00000020
00000230
00002300
00103000
,
02200000
03300000
00022000
00033000
00000220
00000330
00000001
00001000
,
00002002
00003003
00000001
00000100
00002000
02003000
03020000
00230000
,
00302000
00000000
00003010
00000100
00020000
02030000
03200000
00302000
,
00023000
00000000
00130000
10000000
02000000
03020000
00030200
00000310
,
00000220
00000330
00022000
00033000
02200000
03300000
10000000
00010000
,
10020000
01000000
10000000
00100000
00032000
00000100
00000001
00000010
,
00013000
00000000
01000000
00000000
00010000
00000000
00100000
00000000
01000000
00000000
10000000
00000000
00100000
00000000
10000000
00000000
01000000
00100000
01000000
00100000
01000000
00100000
01000000
00100000
01000000
00100000
01000000
00100000
00010000
00000000
00000000
00000000
,
10000000
00000000
00100000
01000000
00000000
00010000
01000000
00001000
00010000
00001000
00100000
00010000
00100000
00000000
00001000
00010000
,
00000100
00000000
00001000
00000100
00000000
00000010
00000001
00001000
00000001
00000100
00000010
00001000
00000002
00000000
00000000
00000000
,
00000013
00000000
00000100
00001000
00000000
00000100
00010000
00001000
00010000
00000010
00001000
00000010
00010000
00000000
00001000
00000000
,
00100000
00010000
00100000
00010000
10000000
00000000
00100000
00000000
10000000
01000000
00100000
00010000
02000000
00000000
00000000
00000000
,
03001000
00000000
00010000
00000100
00000000
00001000
00000100
00001000
00000001
00000010
00000001
00001000
00000010
00000000
00001000
00000100
,
00010000
00000000
00001000
01000000
00000000
00010000
01000000
00100000
10000000
00010000
00100000
01000000
20000000
00000000
00000000
00000000
,
30010000
00000000
01000000
00001000
00000000
00010000
00001000
00010000
00000100
00001000
00000100
00000010
00000001
00000000
00000000
00000000
,
00000100
00000001
00000100
00000000
00000010
00000100
00000010
00000000
00001000
00000010
00001000
00000010
00010000
00001000
00010000
00001000
,
00000000
00000000
00100000
00010000
00100000
00000000
01000000
10000000
01000000
00000000
00100000
00010000
00100000
00000000
00001000
00010000
,
00001000
00000000
00010000
00000010
00010000
00000000
00000010
00001000
00000010
00000000
00000100
00000001
00000100
00000000
00000001
00000010
,
00000001
00000000
00000010
00000100
00001000
00000000
00000100
00010000
00001000
00000000
01000000
00001000
00010000
00000000
00001000
00100000
,
00010000
10000000
00010000
10000000
00100000
00000000
01000000
00000000
00010000
01000000
00001000
00010000
00002000
00000000
00000000
00000000
,
00003000
00000000
00010000
00000100
00001000
00000000
00000100
00001000
00000001
00000000
00000010
00000100
00001000
00000000
00000100
00010000
,
00001000
00000000
00010000
00001000
01000000
00000000
00010000
01000000
00100000
00000000
10000000
00010000
00100000
00000000
01000000
00100000
,
00010000
00000000
01000000
00010000
01000000
00010000
01000000
00001000
00010000
00000000
00000010
00000000
00001010
00000000
00000000
00000000
,
00001000
00000100
00000010
00000100
00001000
00000001
00000010
00000001
00001000
00000010
00010000
00001000
00010000
00000100
00001000
00000000
,
00000010
00000000
00001000
00000010
00010000
00001000
00010000
00000000
00001000
00000000
00100000
00010000
00000000
00100000
01000000
00000000
,
10000000
00000000
00100000
01000000
00000000
00010000
01000000
00000000
00001000
00000000
00010000
00000100
00000000
00001000
00000100
00000000
,
00000010
00000000
00000001
00001000
00000000
00000010
00001000
00000000
00000100
00000000
00010000
00001000
00000000
00100000
00001000
00000000
,
00100000
01000000
10000000
00000000
00100000
01000000
00010000
00000000
20000000
00000000
32000000
00000000
03020000
00000000
00000000
00000000
,
00031000
00000000
00100000
00010000
00000000
00100000
00001000
00000000
00010000
00000000
00000010
00001000
00000000
00000100
00000010
00000000
,
00000001
00000000
00000100
00000010
00000000
00001000
00000100
00000000
00010000
00000000
00001000
01000000
00000000
00010000
00100000
00000000
,
01100000
00000000
01000000
10000000
00000000
00010000
01000000
00000000
00001000
00000000
00010000
00001000
00010000
00000000
00000000
00000000
,
00000100
00000000
00001000
00000000
00000100
00000000
00000010
00000000
00000001
00000100
00000010
00000100
00000001
00000010
00000100
00001000
,
00000020
00000000
00000130
00001000
00010000
01000000
00100000
00001000
,
00020000
00000000
00130000
10000000
01000000
00010000
00001000
00100000
,
00020000
00000000
01030000
00001000
00010000
00000010
00010000
00001000
,
00000020
00000130
00002002
00003003
,
00000001
00000100
00000010
00000100
00001000
00010000
01000000
00100000
,
01000000
10000000
00010000
01000000
10000000
01000000
00010000
00100000
,
00001000
00010000
00001000
00100000
00010000
00100000
00001000
00010000
00001000
00000000
00000010
00000000
00000100
00000000
00000010
00000000
,
00000001
00001000
00000010
00001000
00000001
00000010
00000100
00001000
00000100
00010000
00001000
00100000
01000000
00000000
00000000
00000000
,
20020000
00000000
00000000
00000000
,
00000000
00000000
00000000
00000000
,
30030000
00000000
00000000
00000000
;
