#VERSION:0.83;
#TITLE:NEW SENSATION -もう、あなたしか見えない-;
#SUBTITLE:;
#ARTIST:SUPER HEROINE 彩香-AYAKA-;
#TITLETRANSLIT:NEW SENSATION -mou anata shika mienai-;
#SUBTITLETRANSLIT:;
#ARTISTTRANSLIT:;
#GENRE:ONLY ONE IDOL SONG;
#CREDIT:;
#MUSIC:NEW SENSATION -mou anata shika mienai-.ogg;
#BANNER:NEW SENSATION -mou anata shika mienai-.png;
#BACKGROUND:NEW SENSATION -mou anata shika mienai--bg.png;
#CDTITLE:./CDTitles/bm IIDX 17 SIRIUS.png;
#SAMPLESTART:38.273;
#SAMPLELENGTH:15.000;
#SELECTABLE:YES;
#OFFSET:1.808;
#BPMS:0.000=200.000;
#STOPS:;
#TIMESIGNATURES:0.000=4=4;
#BGCHANGES:4.000=NEW SENSATION -mou anata shika mienai-.mp4=1.000=0=0=0=StretchNoLoop====,
99999.000=-nosongbg-=1.000=0=0=0=StretchNoLoop====
;
#FGCHANGES:;

//--------------- dance-single - forcednature ----------------
#NOTEDATA:;
#STEPSTYPE:dance-single;
#DESCRIPTION:forcednature;
#DIFFICULTY:Beginner;
#METER:2;
#RADARVALUES:0,0,0,0,0;
#CREDIT:forcednature;
#NOTES:
0000
0000
0000
0000
,
0000
0000
0000
0000
,
0000
0000
0000
0000
,
0000
0000
0000
0000
,
0000
0000
0000
0000
,
0000
0000
0000
0000
,
1000
0000
0000
0000
,
0000
0000
0000
0000
,
0001
0000
0000
0000
,
0000
0000
0000
0000
,
0100
0000
0000
0000
,
0000
0000
0000
0000
,
0010
0000
0000
0000
,
0000
0000
0000
0000
,
1000
0000
0000
0000
,
0000
0000
0000
0000
,
0001
0000
0000
0000
,
0000
0000
0000
0000
,
1001
0000
0000
0000
,
0000
0000
0000
0000
,
1000
0000
0000
0000
,
0000
0000
0000
0000
,
0100
0000
0000
0000
,
0000
0000
0000
0000
,
0010
0000
0000
0000
,
0001
0000
0000
0000
,
0100
0000
0000
0000
,
0000
0000
0000
0000
,
0010
0000
0000
0000
,
0000
0000
0000
0000
,
1000
0000
0000
0000
,
0000
0000
0000
0000
,
0001
0000
0000
0000
,
0010
0000
0000
0000
,
0100
0000
0000
0000
,
0100
0000
0000
0000
,
1000
0000
0000
0000
,
0000
0000
0000
0000
,
0001
0000
0000
0000
,
0000
0000
0000
0000
,
0100
0000
0000
0000
,
0000
0000
0000
0000
,
0010
0000
0000
0000
,
0010
0000
0000
0000
,
1000
0000
0000
0000
,
0000
0000
0000
0000
,
0001
0000
0000
0000
,
0000
0000
0000
0000
,
0010
0000
0000
0000
,
0100
0000
0000
0000
,
1000
0000
0000
0000
,
0000
0000
0000
0000
,
0001
0000
0000
0000
,
0000
0000
0000
0000
,
0100
0000
0000
0000
,
0000
0000
0000
0000
,
0010
0000
0000
0000
,
0000
0000
0000
0000
,
1000
0000
0000
0000
,
0001
0000
0000
0000
,
1001
0000
0000
0000
,
0000
0000
0000
0000
,
0001
0000
0000
0000
,
0000
0000
0000
0000
,
0010
0000
0000
0000
,
0010
0000
0000
0000
,
0100
0000
0100
0000
,
0100
0000
0000
0000
,
1000
0000
0000
0000
,
1000
0000
0000
0000
,
0001
0000
0000
0000
,
0000
0000
0000
0000
,
0100
0000
0000
0000
,
0010
0000
0000
0000
,
1000
0000
0000
0000
,
0000
0000
0000
0000
,
0001
0000
0000
0000
,
0001
0000
0000
0000
,
1000
0000
0000
0000
,
0000
0000
0000
0000
,
0100
0000
0000
0000
,
0010
0000
0000
0000
,
0001
0000
0000
0000
,
0000
0000
0000
0000
,
0100
0000
0000
0000
,
0000
0000
0000
0000
,
0010
0000
0000
0000
,
1000
0000
0000
0000
,
0010
0000
0000
0000
,
0000
0000
0000
0000
,
0100
0000
0000
0000
,
0001
0000
0000
0000
,
0100
0000
0000
0000
,
0000
0000
0000
0000
,
0001
0000
0000
0000
,
0010
0000
0000
0000
,
0001
0000
0000
0000
,
0000
0000
0000
0000
,
1000
0000
0000
0000
,
0100
0000
0000
0010
;

//--------------- dance-single - forcednature ----------------
#NOTEDATA:;
#STEPSTYPE:dance-single;
#DESCRIPTION:forcednature;
#DIFFICULTY:Easy;
#METER:6;
#RADARVALUES:0,0,0,0,0;
#CREDIT:forcednature;
#NOTES:
0000
0000
0000
0000
,
0000
0000
0000
0000
,
0000
0000
0000
0000
,
0000
0000
0000
0000
,
0000
0000
0000
0000
,
0000
0000
0000
0000
,
0001
0100
0001
0000
,
1000
0100
1000
0000
,
0010
0100
0010
0100
,
0000
0001
1000
0000
,
1001
0000
0001
0000
,
0010
0000
0001
0000
,
0100
0000
0001
0000
,
1000
0000
0010
0000
,
1001
0000
1000
0000
,
0100
0000
1000
0000
,
0010
0000
1000
0000
,
0002
0000
0003
0000
,
1001
0000
1000
0000
,
0100
0000
0010
0001
,
0010
0000
0100
0000
,
1000
0000
0001
0100
,
0001
0000
1000
0010
,
1000
0000
0001
0000
,
0010
0000
0100
0000
,
1000
0001
1000
0001
,
0100
0000
0010
0000
,
1000
0001
1000
0000
,
0100
0010
0001
0000
,
0010
0100
1000
0000
,
1001
0000
0001
0100
,
0001
0000
1000
0100
,
1000
0000
0000
0001
0000
0000
1000
0000
,
2002
0000
3003
0000
,
0001
0000
1000
0000
0001
0000
0000
0001
,
0000
1000
0000
0001
0000
0000
0000
0000
,
0100
0000
0010
0000
,
1000
0001
1000
0000
,
1001
0000
0001
0100
,
0001
0000
1000
0100
,
1000
0000
0000
0010
0000
0000
0000
0100
,
0000
0100
0001
0000
,
1000
0000
0001
0000
1000
0000
0000
1000
,
0000
0001
0000
1000
0000
0000
0000
0000
,
0010
0000
0100
0000
,
0001
0010
0001
0000
,
1001
0000
1000
0100
,
1000
0000
0001
0100
,
0001
0000
0010
0100
,
0000
1000
0001
0000
,
0020
0000
0000
0000
,
0000
0000
0000
0030
0000
0000
0000
0000
,
0200
0000
0000
0000
,
0000
0000
0000
0300
0000
0000
0000
0000
,
2000
0000
0000
3000
,
0002
0000
0000
0003
,
0200
0000
0010
0000
,
0001
0000
0310
0000
,
2002
0000
0000
0000
0000
3003
0000
0000
,
0220
0000
0000
0330
,
1000
0100
1000
0000
,
0001
0010
0001
0000
,
0100
0000
0100
0000
,
0010
1000
0010
0000
,
1001
0000
0010
0000
,
1001
0000
0100
0000
,
0110
0000
1001
0000
,
0010
0100
0110
0000
,
0001
0000
0100
0000
0001
0000
0000
0001
,
0000
0100
0000
0001
0000
0000
0000
0000
,
1000
0010
1000
0000
,
0100
0010
0001
0000
,
1001
0000
1000
0100
,
1000
0000
0001
0100
,
0001
0000
0000
0010
0000
0000
0000
0100
,
0000
1000
0001
0000
,
1000
0000
0100
0000
1000
0000
0000
1000
,
0000
0100
0000
1000
0000
0000
0010
0000
,
0100
0000
0001
0000
,
0010
0100
0010
0000
,
1001
0000
1000
0100
,
1000
0000
0001
0100
,
0001
0000
0010
0100
,
0000
1000
0001
0000
,
1001
0000
1000
0000
,
0010
0100
0010
0000
,
1000
0001
1000
0001
,
0000
0010
0100
0000
,
1001
0000
0001
0000
,
0100
0010
0100
0000
,
0001
1000
0001
1000
,
0000
0100
0010
0000
,
0110
0000
0100
0000
,
1000
0001
0100
0000
,
0010
0010
0010
1000
,
0000
0001
0010
0000
,
0110
0000
0100
0000
,
1000
0001
0100
0000
,
0010
0010
0010
1000
,
0000
0001
0010
0100
;

//--------------- dance-single - forcednature ----------------
#NOTEDATA:;
#STEPSTYPE:dance-single;
#DESCRIPTION:forcednature;
#DIFFICULTY:Medium;
#METER:10;
#RADARVALUES:0,0,0,0,0;
#CREDIT:forcednature;
#NOTES:
0000
0000
0000
0000
,
0000
0000
0000
0000
,
0000
0000
0000
0000
,
0000
0000
0000
0000
,
0000
0000
0000
0000
,
0000
0000
0000
0000
,
1001
0001
0100
0010
,
1000
0000
0001
0000
0010
0000
0100
1000
,
0100
0000
0100
0000
0100
0000
0010
0001
,
0000
0100
0110
0000
,
1001
0001
1000
0001
,
0010
0100
0010
0001
,
1000
0010
0100
0010
,
1000
0001
0010
0100
,
0110
0100
1000
0001
,
0100
0010
0100
0001
,
1000
0100
0010
0001
,
0100
0000
0100
0002
0000
0000
0003
0000
,
1001
1000
0010
1000
,
0001
0000
0010
0000
0001
0000
0100
0001
,
0100
0010
1000
0001
,
0010
0000
0100
0000
1000
0000
0001
0100
,
0001
1000
0001
0010
,
0200
0000
0000
2300
0000
0000
3002
0000
,
0203
0000
0320
0000
,
1030
0000
0001
0000
0010
0100
0010
0000
,
0001
0000
0100
0000
0001
0100
0001
0000
,
1000
0000
0010
0000
1000
0010
1000
0000
,
0001
0000
0010
0000
0001
0010
0001
0000
,
1000
0000
0100
0000
1000
0100
1000
0000
,
1002
0100
1000
0013
,
2000
0100
0001
3010
,
0001
0000
0000
0110
0000
0000
1000
0000
,
2002
0000
0000
3003
,
0001
0000
1000
0000
1001
0000
0000
0001
,
0000
1000
0000
1001
0000
0000
1000
0000
,
0100
0000
0010
0001
0010
0000
0100
0000
,
1000
0001
0100
0010
,
1010
0000
0001
0010
,
0100
0010
0001
1000
,
0010
0000
0000
0100
0000
0001
0000
0101
,
0000
0001
0010
0100
,
1000
0000
0001
0000
1001
0000
0000
1000
,
0000
0001
0000
1001
0000
0000
0001
0000
,
0010
0000
0100
1000
0100
0000
0010
0000
,
0001
1000
0010
0100
,
1001
0000
0001
0010
,
0100
1000
0010
0100
,
0001
0010
0001
0100
,
0000
0010
1000
0010
1000
0000
0001
0000
,
0020
0000
0000
0000
0230
0000
0000
2300
,
0000
0000
0000
3000
0000
0000
0000
0000
,
2000
0000
0000
0000
3002
0000
0000
0203
,
0000
0000
0000
0300
0000
0000
0000
0000
,
0120
0000
0000
2030
0000
0000
3002
0000
,
0023
0000
0000
0230
0000
0000
0320
0000
,
0031
0001
0100
0100
,
0010
0010
1000
1000
,
0100
0010
0000
0001
0000
1000
0000
0220
,
0000
0330
0000
2002
0000
0000
3003
0000
,
1000
0100
0020
0000
,
0031
0000
0000
1000
0000
0000
0001
0000
0000
0000
0000
0000
0100
0000
0000
0000
,
0010
0000
0010
0000
0010
0000
1000
0001
,
0000
0001
0010
0000
0100
0000
1000
0000
,
1001
0000
0001
0000
0100
0000
0010
1000
,
0010
0000
1000
0000
0100
0000
0010
0001
,
0020
0030
0220
0330
,
1001
0110
2002
3003
,
1000
0000
0100
0000
0011
0000
0000
1000
,
0000
0100
0000
0011
0000
0000
0001
0000
,
0100
0000
0010
1000
0010
0000
0100
0000
,
0001
0010
0100
1000
,
1001
0001
0100
0010
,
1000
0100
0010
0001
,
1000
0000
0000
0010
0000
0100
0000
0110
,
0000
1000
0001
0010
,
0001
0000
0100
0000
1010
0000
0000
0001
,
0000
0100
0000
1010
0000
0000
0001
0000
,
0010
0000
0100
1000
0100
0000
0010
0000
,
0001
1000
0010
0100
,
1001
0000
0001
0000
0010
0000
0100
1000
,
0100
0000
1000
0000
0010
0000
0100
0001
,
0100
0000
0010
0000
1000
0000
0001
0010
,
0000
0100
0000
1000
0001
0000
0000
0000
,
0100
0010
1000
0100
,
0010
0001
0100
0010
,
1000
0100
1000
0000
1000
0100
1000
0000
,
0001
0100
0010
1000
,
1001
0001
0010
0001
,
0100
0010
1000
0001
,
0010
0100
0010
0000
0010
0100
0010
0000
,
0000
0001
0000
1000
0010
0000
0100
0000
,
0110
0100
0010
1000
,
0001
0010
0100
1000
,
0001
0100
0001
0000
0001
0100
0001
0000
,
1000
0010
1000
0100
,
0110
0010
0001
1000
,
0001
0100
0010
1000
,
0100
0010
0100
0000
0100
0010
0100
0000
,
0000
1000
0000
0001
0100
0000
1001
0000
;

//--------------- dance-single - forcednature ----------------
#NOTEDATA:;
#STEPSTYPE:dance-single;
#DESCRIPTION:forcednature;
#DIFFICULTY:Hard;
#METER:13;
#RADARVALUES:0,0,0,0,0;
#CREDIT:forcednature;
#NOTES:
0000
0000
0000
0000
,
0000
0000
0000
0000
,
0000
0000
0000
0000
,
0000
0000
0000
0000
,
0000
0000
0000
0000
,
0000
0000
0000
0000
,
1200
0000
0320
0000
0032
0000
1003
0010
,
1000
0000
0000
0001
0000
0000
0100
0000
0000
0000
0001
0000
0010
0000
0001
0000
,
1000
0010
1000
0100
1000
0010
0100
0001
,
0000
0010
0100
1000
0002
0000
0103
0000
,
0110
0000
0010
1000
0001
0000
0010
0000
,
0100
0000
0010
0001
1000
0000
0010
0100
,
0001
0000
0100
0001
1000
0000
0100
0000
,
0010
0000
0100
1000
0002
0000
0103
0010
,
1000
0000
0100
0010
0001
0000
0010
0100
,
1000
0000
0001
0100
0010
0000
1000
0010
,
0100
0000
0001
0000
1000
0100
1000
0010
,
0100
0001
0010
0002
0000
0000
0003
0000
,
0101
0000
0100
0010
1000
0001
0000
0010
,
0000
0100
1000
0000
0001
0000
0100
1000
,
0100
0000
0001
0010
0001
1000
0010
1000
,
0000
0100
0010
0001
0100
0000
0010
0000
,
0110
0000
0100
0001
1000
0000
0200
0000
,
0320
0032
0000
2003
0000
3010
0100
0000
,
0002
0000
0010
0000
1003
0010
1000
0100
,
0010
0000
0001
0000
0010
0000
0001
0000
0100
0000
0000
0100
0001
0000
1000
0000
,
0010
0000
1000
0100
0001
0000
0001
0100
,
1000
0000
1000
0010
0001
0000
0001
0010
,
1000
0000
0001
0010
1000
0000
1000
0010
,
0001
0000
0001
0100
1000
0000
1000
0100
,
0001
0000
1000
0100
0020
0000
1000
0000
,
0031
0000
0001
0100
0020
0000
0001
0000
,
1030
0000
1000
0100
0000
0001
0100
0000
,
2002
0000
0000
3003
,
0101
0000
0110
0000
1010
0000
0000
0101
,
0000
0110
0000
1010
0000
1000
0100
1000
,
0100
0000
0010
0001
0000
1000
0000
0010
,
0000
0000
0100
0000
0001
0000
0000
0000
0010
0000
0000
0010
0100
0000
1000
0000
,
0001
0000
0100
1000
0100
0000
0010
1000
,
0100
0000
0010
1000
0010
0000
0001
1000
,
0010
0000
0100
0001
0000
0011
0000
1100
,
0000
1000
0010
0100
0001
0010
0100
0000
,
0011
0000
0110
0000
1100
0000
0000
0011
,
0000
0110
0000
1100
0000
1000
0001
0100
,
0010
0000
1000
0001
0000
0010
0100
1000
,
0000
0000
0010
0000
0100
0000
0001
0000
1000
0000
0000
1000
0100
0000
0010
0000
,
0001
0000
0100
0010
1000
0001
0010
0100
,
1000
0000
0001
0100
0000
1000
0100
0010
,
1000
0000
1000
0100
0010
0001
0100
0001
,
0000
0010
0100
1000
0001
0000
0100
0010
,
2000
0100
0100
0001
,
0001
0000
0010
0000
0010
0000
3100
1000
,
0002
0100
0100
1000
,
1000
0000
0010
0000
0010
0000
0103
0001
,
2000
0000
0000
3200
0000
0000
0302
0000
,
0203
0000
0000
2300
0000
0000
3020
0000
,
0230
1000
0320
0001
,
2030
0100
3002
0010
,
0103
0010
0000
1000
0000
0001
0000
0220
,
0000
0330
0000
2002
0000
0000
3003
0000
,
2000
0000
3200
0000
0320
0000
0000
0031
,
1000
0000
0000
0001
0000
0000
0100
0000
0000
0000
0010
0000
1000
0000
0100
0000
,
0010
0001
0010
0100
0010
0001
0010
0100
,
0000
1000
0001
0000
0100
0000
0010
0000
,
0120
0000
0230
0000
0302
0000
1003
0100
,
0110
0000
0000
0010
0000
0000
0100
0000
0000
0000
1000
0000
0001
0000
0100
0000
,
0110
0000
1000
0001
1001
0000
0010
0100
,
0110
1001
0220
0330
,
1010
0000
0101
0000
1001
0000
0000
1010
,
0000
0101
0000
1001
0000
0001
0010
0100
,
1000
0000
0001
0100
0000
0010
1000
0001
,
0000
0000
0010
0000
0100
0000
0000
0000
1000
0000
0000
1000
0010
0000
0100
0000
,
0001
0000
0010
0100
1000
0100
0010
0001
,
1000
0000
0010
0100
0001
0100
0010
1000
,
0001
0000
0010
0100
0000
0110
0000
1001
,
0000
1000
0010
0100
1000
0100
0001
0000
,
0011
0000
1100
0000
1001
0000
0000
0011
,
0000
1100
0000
1001
0000
0001
0010
0001
,
0100
0000
0010
1000
0000
0100
0010
0001
,
0000
0000
0100
0000
0010
0000
1000
0000
0001
0000
0000
0001
0010
0000
0100
0000
,
1100
0000
0001
0100
0010
1000
0100
0010
,
0001
0000
1000
0100
0010
0001
0100
0010
,
1000
0000
0001
0010
0001
0100
0010
1000
,
0000
0100
0001
0100
2000
0000
3000
0000
,
1010
0000
0110
0000
0201
0000
0301
0010
,
0100
0000
0000
1000
0000
0000
0001
0000
0000
0000
0010
0000
0001
0000
0100
0000
,
1000
0100
0001
0100
1000
0100
0001
0001
,
0000
0010
0100
0000
1000
0010
0100
0001
,
0011
0000
0110
0000
1200
0000
1300
0001
,
0100
0000
0000
0010
0000
0000
1000
0000
0000
0000
0001
0000
0010
0000
0100
0000
,
0001
0100
1000
0100
0001
0100
1000
1000
,
0000
0001
0100
0010
1000
0000
0001
0010
,
0110
0000
1100
0000
0012
0000
1003
0001
,
0100
0000
0000
0010
0000
0000
1000
0000
0000
0000
0100
0000
1000
0000
0010
0000
,
0001
0010
1000
0010
0001
0010
0100
0100
,
0000
0001
0010
0000
0100
1000
0001
0100
,
0110
0000
1010
0000
0201
0000
0301
0010
,
0001
0000
0000
0100
0000
0000
0010
0000
0000
0000
1000
0000
0100
0000
0010
0000
,
1000
0010
0001
0010
1000
0010
0001
0001
,
0000
0100
0010
1000
0001
0000
1001
0000
;

//--------------- dance-double - forcednature ----------------
#NOTEDATA:;
#STEPSTYPE:dance-double;
#DESCRIPTION:forcednature;
#DIFFICULTY:Easy;
#METER:5;
#RADARVALUES:0,0,0,0,0;
#CREDIT:forcednature;
#NOTES:
00000000
00000000
00000000
00000000
,
00000000
00000000
00000000
00000000
,
00000000
00000000
00000000
00000000
,
00000000
00000000
00000000
00000000
,
00000000
00000000
00000000
00000000
,
00000000
00000000
00000000
00000000
,
00011000
00000000
00000000
00000000
,
01000000
00000000
00010000
00000000
,
10000000
00000000
10000000
00000000
,
01000000
00000000
00000000
00000000
,
01100000
00000000
00000000
00000000
,
00100000
00000000
00000000
00000000
,
00001000
00000000
00000000
00000000
,
00010000
00000000
00000010
00000000
,
00001000
00000000
00000000
00000000
,
00000001
00000000
00000000
00000000
,
00000010
00000000
00000010
00000000
,
00000100
00000000
00000000
00000000
,
00001001
00000000
00000000
00000000
,
00001000
00000000
00000100
00000000
,
00010000
00000000
00001000
00000000
,
01000000
00000000
00010000
00000000
,
10000000
00000000
00000000
00000000
,
01000000
00000000
00100000
00000000
,
00010000
00000000
00100000
00000000
,
00001000
00000000
00010000
00000000
,
00000010
00000000
00000000
00000000
,
00001000
00000000
00001000
00000000
,
00000100
00000000
00000010
00000000
,
00000100
00000000
00000010
00000000
,
00000001
00000000
00000000
00000000
,
00000100
00000000
00000001
00000000
,
00001000
00000000
00000000
00000000
,
00002002
00000000
00003003
00000000
,
00001000
00000000
00001000
00000000
00000100
00000000
00000000
00001000
,
00000000
00001000
00000000
00000100
00000000
00000000
00000000
00000000
,
00010000
00000000
00001000
00000000
,
01000000
00000000
00010000
00000000
,
00100000
00000000
00000000
00000000
,
01000000
00000000
10000000
00000000
,
00010000
00000000
01000000
00000000
,
00010000
00100000
00010000
00000000
,
10000000
00000000
10000000
00000000
01000000
00000000
00000000
10000000
,
00000000
10000000
00000000
01000000
00000000
00000000
00000000
00000000
,
00100000
00000000
00001000
00000000
,
00010000
00000000
00000010
00000000
,
00001000
00000000
00000000
00000000
,
00000001
00000000
00000010
00000000
,
00000001
00000100
00000001
00000000
,
00001000
00000100
00001000
00000000
,
00000020
00000000
00000000
00000000
,
00000000
00000000
00000000
00000030
00000000
00000000
00000000
00000000
,
00020000
00000000
00000000
00000000
,
00000000
00000000
00000000
00030000
00000000
00000000
00000000
00000000
,
00001000
00000000
00001000
00000000
,
00100000
00000000
00100000
00000000
,
00010000
00000000
01000000
00000000
,
00100000
00000000
10000000
00000000
,
01000000
00000000
00100000
00000000
,
00010000
00000000
00100000
00000000
,
00001000
00000000
00000000
00000000
,
00010000
00000000
00000000
00000000
,
00000010
00000000
00000010
00000000
,
00000010
00000000
00001000
00000000
,
00001001
00000000
00000000
00000000
,
00000110
00000000
00000000
00000000
,
00000001
00000000
00001000
00000000
,
00000100
00000000
00000010
00000000
,
00000100
00000000
00001000
00000000
00000100
00000000
00000000
00000100
,
00000000
00001000
00000000
00000100
00000000
00000000
00000000
00000000
,
00010000
00000000
00001000
00000000
,
01000000
00000000
00100000
00000000
,
10000000
00000000
00000000
00000000
,
00010000
00000000
00100000
00000000
,
01000000
00000000
10000000
00000000
,
00010000
00000000
01000000
00000000
,
00001000
00000000
00010000
00000000
00001000
00000000
00000000
00001000
,
00000000
00010000
00000000
00001000
00000000
00000000
00000000
00000000
,
00010000
00000000
00000100
00000000
,
00001000
00000000
00000001
00000000
,
00001001
00000000
00000000
00000000
,
00001000
00000000
00000010
00000000
,
00010000
00000000
00001000
00000000
,
00100000
00000000
00000000
00000000
,
01100000
00000000
00000000
00000000
,
01000000
00000000
10000000
00000000
,
00010000
01000000
00010000
00000000
,
01000000
00000000
00001000
00000000
,
00011000
00000000
00000000
00000000
,
00010000
00000000
00000100
00000000
,
00001000
00000010
00001000
00000000
,
00000001
00000000
00000010
00000000
,
00001001
00000000
00000000
00000000
,
00001000
00000000
00000100
00000000
,
00010000
00001000
00010000
00000000
,
00001000
00000000
01000000
00000000
,
10010000
00000000
00000000
00000000
,
10000000
00000000
01000000
00000000
,
00100000
00010000
00100000
00000000
,
00001000
00000000
00010000
00010000
;

//--------------- dance-double - forcednature ----------------
#NOTEDATA:;
#STEPSTYPE:dance-double;
#DESCRIPTION:forcednature;
#DIFFICULTY:Medium;
#METER:10;
#RADARVALUES:0,0,0,0,0;
#CREDIT:forcednature;
#NOTES:
00000000
00000000
00000000
00000000
,
00000000
00000000
00000000
00000000
,
00000000
00000000
00000000
00000000
,
00000000
00000000
00000000
00000000
,
00000000
00000000
00000000
00000000
,
00000000
00000000
00000000
00000000
,
00011000
00010000
00000100
00001000
,
00000001
00000000
00000100
00000000
00000010
00000000
00010000
00001000
,
00010000
00000000
00010000
00000000
00010000
00000000
00001000
01000000
,
00000000
00010000
10010000
00000000
,
01100000
00000000
10000000
01000000
,
00100000
00010000
00100000
00001000
,
00010000
00000010
00001000
00000010
,
00000100
00000001
00000020
00000130
,
00000110
00000000
00000100
00010000
,
00001000
00010000
00001000
01000000
,
00010000
00010000
10000000
10000000
,
01000000
00000000
01000000
00200000
00000000
00000000
00300000
00000000
,
01100000
00000000
01000000
10000000
,
00010000
00000000
01000000
00000000
00001000
00000000
00010000
00001000
,
00010000
00000000
00000100
00001000
,
00000100
00000010
00000001
00000100
,
00000110
00000000
00000010
00010000
,
00002000
00000000
00000000
00203000
00000000
00000000
00320000
00000000
,
02030000
00000000
03200000
00000000
,
10300000
00010000
00100000
01000000
,
01100000
00000000
00100000
00001000
,
00010000
00000000
00000010
00000000
00001000
00000100
00001000
00000000
,
00000001
00000000
00000100
00000010
,
00010000
00001000
00100000
01000000
,
02200000
03300000
01000000
10000000
,
00020000
00000000
00000000
01000000
00000000
00000000
00130000
00000000
,
00001000
00000000
00000000
00011000
00000000
00000000
00000100
00000000
,
00002002
00000000
00000000
00003003
,
00000001
00000000
00000100
00000000
00001010
00000000
00000000
00000001
,
00000000
00000100
00000000
00001010
00000000
00000000
00010000
00000000
,
00001000
00100000
00010000
01000000
,
00100000
10000000
00010000
10000000
,
10010000
00000000
00010000
00100000
,
01000000
00100000
00001000
00010000
,
00000010
00000000
00000000
00001000
00000000
00001000
00000000
00001100
,
00000000
00000100
00000010
00000001
,
00001000
00000000
00000010
00000000
00011000
00000000
00000000
00001000
,
00000000
00000010
00000000
00011000
00000000
00000000
00010000
00000000
,
00001000
00100000
00010000
01000000
,
00100000
10000000
00010000
00100000
,
01100000
00000000
01000000
10000000
,
00010000
01000000
00001000
00010000
,
00000100
00001000
00000010
00001000
,
00000000
00000100
00000010
00000000
00000010
00000000
00000000
00000000
,
00000002
00000000
00000000
00000000
00000203
00000000
00000000
00000320
,
00000000
00000000
00000000
00000030
00000000
00000000
00000000
00000000
,
00020000
00000000
00000000
00000000
00032000
00000000
00000000
02003000
,
00000000
00000000
00000000
03000000
00000000
00000000
00000000
00000000
,
00020000
00000000
00000000
20030000
00000000
00000000
32000000
00000000
,
03200000
00000000
00000000
00302000
00000000
00000000
00023000
00000000
,
00030010
00000010
00001000
00001000
,
00000100
00000100
00000010
00000010
,
00000001
00000100
00000000
00000010
00000000
00010000
00000000
00002000
,
00000000
00003000
00000000
00022000
00000000
00000000
00033000
00000000
,
01000000
00010000
00200000
00000000
,
01300000
00000000
00000000
10000000
00000000
00000000
01000000
00000000
00000000
00000000
00000000
00000000
00100000
00000000
00000000
00000000
,
00001000
00001000
00001000
00010000
,
00000000
00000010
00000000
00000000
00001000
00000000
00000100
00000000
,
00000110
00000000
00000100
00010000
,
00011000
00000000
00001000
01000000
,
02200000
03300000
20020000
30030000
,
11000000
01100000
00220000
00330000
,
00001000
00000000
00010000
00000000
00101000
00000000
00000000
00001000
,
00000000
00010000
00000000
00101000
00000000
00000000
00001000
00000000
,
00010000
00000010
00001000
00000100
,
00000010
00000001
00000100
00000010
,
00000110
00000000
00001000
00000100
,
00010000
00001000
01000000
00010000
,
00100000
00000000
00000000
01000000
00000000
00100000
00000000
01100000
,
00000000
01000000
10000000
00010000
,
01000000
00000000
00001000
00000000
00110000
00000000
00000000
01000000
,
00000000
00001000
00000000
00110000
00000000
00000000
00001000
00000000
,
00010000
00000010
00001000
00000100
,
00000010
00000001
00000100
00000010
,
00000110
00000000
00001000
00000100
,
00010000
00001000
01000000
00010000
,
00100000
00000000
00100000
00000000
01000000
00000000
01000000
10000000
,
00000000
00010000
00000000
00010000
01000000
00000000
00000000
00000000
,
00100000
10000000
01000000
00100000
,
00010000
01000000
00001000
00010000
,
00000100
00001000
00000100
00000000
00000100
00001000
00000100
00000000
,
00000010
00000001
00000100
00000010
,
00000110
00000000
00001000
00000100
,
00010000
00001000
01000000
00010000
,
00100000
01000000
00100000
00000000
00100000
01000000
00100000
00000000
,
00000000
00010000
00000000
00000000
10000000
00000000
00100000
00000000
,
01100000
01000000
00010000
00100000
,
00001000
00010000
00000010
00001000
,
00000100
00001000
00000100
00000000
00000100
00001000
00000100
00000000
,
00000010
00000001
00001000
00000100
,
00000110
00000000
00000010
00000001
,
00001000
00000010
00010000
00001000
,
00100000
00010000
00100000
00000000
00100000
00010000
00100000
00000000
,
00000000
01000000
00000000
00000000
10000000
00000000
10010000
00000000
;

//--------------- dance-double - forcednature ----------------
#NOTEDATA:;
#STEPSTYPE:dance-double;
#DESCRIPTION:forcednature;
#DIFFICULTY:Hard;
#METER:14;
#RADARVALUES:0,0,0,0,0;
#CREDIT:forcednature;
#NOTES:
00000000
00000000
00000000
00000000
,
00000000
00000000
00000000
00000000
,
00000000
00000000
00000000
00000000
,
00000000
00000000
00000000
00000000
,
00000000
00000000
00000000
00000000
,
00000000
00000000
00000000
00000000
,
00021000
00000000
00230000
00000000
20300000
00000000
30010000
00100000
,
01000000
00000000
00000000
00100000
00000000
00000000
00001000
00000000
00000000
00000000
00010000
00000000
00000010
00000000
00001000
00000000
,
00000100
00000001
00000100
00001000
00000100
00000001
00000100
00001000
,
00000000
00000010
00010000
00001000
00200000
00000000
01300000
00000000
,
01100000
00000000
00100000
00001000
00010000
00000000
00000010
00000000
,
00000100
00000000
00000010
00010000
00001000
00000000
00100000
01000000
,
00100000
00000000
00001000
00010000
00000010
00000000
00000100
00000000
,
00000010
00000000
00010000
00001000
00200000
00000000
01300000
10000000
,
10010000
00000000
10000000
00100000
00010000
00000000
00001000
00000100
,
00000001
00000000
00000001
00000010
00001000
00000000
00010000
01000000
,
10000000
00100000
10000000
01000000
00100000
00001000
00010000
00010000
,
00000010
00001000
00000100
00002000
00000000
00000000
00003000
00000000
,
00001001
00000000
00000001
00000010
00000001
00000100
00000000
00001000
,
00000000
00010000
01000000
00000000
10000000
00000000
00100000
01000000
,
00100000
00000000
10000000
00010000
10000000
01000000
00010000
00001000
,
00000000
00100000
00010000
00001000
00000100
00000000
00000010
00000000
,
00000110
00000000
00000100
00001000
00000001
00000000
00000200
00000000
,
00002300
00023000
00000000
00230000
00000000
10300000
00010000
00000000
,
00200000
00000000
01000000
00000000
00310000
00100000
00001000
00010000
,
00000010
00000000
00001000
00000000
00000010
00000000
00001000
00000000
00000100
00000000
00000000
00000010
00000000
00000000
00000001
00000000
,
00000100
00001000
00010000
00001000
00100000
00001000
00010000
00001000
,
00100000
01000000
10000000
01000000
00010000
01000000
00100000
01000000
,
00010000
00001000
00010000
00000010
00010000
00001000
00010000
00100000
,
01000000
00001000
00010000
00001000
00100000
00000000
01000000
00010000
,
00001000
00000000
00000100
00000010
00002000
00000000
00000100
00000000
,
00003010
00000000
00001000
00000100
00020000
00000000
00001000
00000000
,
00130000
00000000
00010000
00001000
00000000
00000010
00000100
00000000
,
00002002
00000000
00000000
00003003
,
00001001
00000000
00010100
00000000
00001010
00000000
00000000
00001001
,
00000000
00010100
00000000
00001010
00000000
00000010
00010000
00001000
,
00100000
00000000
00010000
01000000
00000000
10000000
00000000
01000000
,
00000000
00000000
00010000
00000000
00100000
00000000
00000000
00000000
01000000
00000000
00000000
00010000
00000000
00000000
00001000
00000000
,
00011000
00000000
00010000
00000100
00001000
00000000
00000010
00010000
,
00001000
00000000
00100000
00010000
01000000
00000000
00100000
00010000
,
00100000
00000000
10000000
01000000
00000000
01100000
00000000
10010000
,
00000000
10000000
01000000
00010000
00001000
00000100
00000001
00000000
,
00000011
00000000
00010100
00000000
00001010
00000000
00000000
00000011
,
00000000
00010100
00000000
00001010
00000000
00010000
00001000
01000000
,
00010000
00000000
00100000
01000000
00000000
10000000
00100000
00010000
,
00000000
00000000
00100000
00000000
01000000
00000000
00010000
00000000
00100000
00000000
00000000
00001000
00000000
00000000
00010000
00000000
,
00000010
00000000
00001000
00000100
00000001
00000100
00000010
00000001
,
00001000
00000000
00000010
00010000
00000000
00001000
01000000
00010000
,
01000000
00000000
00100000
00010000
00100000
10000000
00010000
10000000
,
00000000
01000000
00010000
00001000
00010000
00000000
00000010
00001000
,
00000200
00000000
00000310
00000001
00002000
00000000
00003010
00020000
,
00000000
00000000
00000000
00000000
00030000
00000000
00001000
00100000
,
00020000
00000000
01030000
00100000
20000000
00000000
31000000
00020000
,
00000000
00000000
00000000
00000000
00030000
00000000
00001000
00010000
,
00000200
00000000
00000000
00002300
00000000
00000000
00003020
00000000
,
00020030
00000000
00000000
00032000
00000000
00000000
02003000
00000000
,
03010000
00100000
01000000
00100000
00010000
00001000
00000100
00000010
,
00000100
00001000
00000010
00000100
00001000
00010000
00100000
01000000
,
00100000
00010000
00001000
00000010
00000100
00000010
00001000
00010000
,
00100000
01000000
00100000
00010000
00010000
00001000
00001000
00000000
,
02001000
00000000
03020000
00000000
20030000
00000000
00000000
31000000
,
00010000
00000000
00000000
00001000
00000000
00000000
00100000
00000000
00000000
00000000
00010000
00000000
00001000
00000000
00000100
00000000
,
00000010
00001000
00000010
00000001
00000010
00001000
00000010
00000001
,
00000000
00000100
00001000
00000000
00010000
00000000
01000000
00000000
,
01200000
00000000
00302000
00000000
00023000
00000000
00030010
00001000
,
00001100
00000000
00000000
00000100
00000000
00000000
00000010
00000000
00000000
00000000
00000001
00000000
00000100
00000000
00000010
00000000
,
00010010
00000000
00010000
00001000
00101000
00000000
00100000
01000000
,
01100000
00000000
00000000
00000000
10010000
00000000
00000000
00000000
10000000
00100000
00000000
10000000
01000000
00000000
00100000
00000000
,
00110000
00000000
00011000
00000000
00001100
00000000
00000000
00110000
,
00000000
00011000
00000000
00001100
00000000
00000100
00010000
00000010
,
00001000
00000000
00000001
00000010
00000000
00000100
00000010
00000001
,
00000000
00000000
00000100
00000000
00001000
00000000
00000000
00000000
00010000
00000000
00000000
00100000
00000000
00000000
01000000
00000000
,
01100000
00000000
00100000
10000000
00010000
10000000
01000000
00010000
,
00001000
00000000
00100000
00010000
00100000
00001000
00010000
00000010
,
00001000
00000000
00000100
00000010
00000000
00000011
00000000
00001001
,
00000000
00000001
00000100
00001000
00010000
01000000
10000000
00000000
,
10010000
00000000
00011000
00000000
01100000
00000000
00000000
10010000
,
00000000
00011000
00000000
01100000
00000000
00010000
00100000
00010000
,
01000000
00000000
00100000
00010000
00000000
00001000
00000010
00000100
,
00000000
00000000
00001000
00000000
00000001
00000000
00000100
00000000
00000001
00000000
00000000
00000010
00000000
00000000
00000100
00000000
,
00000110
00000000
00000010
00001000
00010000
00001000
01000000
00010000
,
00100000
00000000
01000000
00010000
01000000
10000000
00100000
10000000
,
00010000
00000000
00100000
00001000
00010000
00000010
00001000
00000010
,
00000000
00000100
00001000
00000100
00000002
00000000
00000003
00000000
,
00000011
00000000
00001100
00000000
00021000
00000000
00030010
00010000
,
00001000
00000000
00000000
00100000
00000000
00000000
00010000
00000000
00000000
00000000
01000000
00000000
00100000
00000000
10000000
00000000
,
01000000
00010000
00001000
00010000
01000000
00010000
00001000
00001000
,
00000000
00000010
00000100
00000000
00001000
00000010
00000001
00000010
,
00000110
00000000
00010010
00000000
00201000
00000000
01300000
10000000
,
00010000
00000000
00000000
01000000
00000000
00000000
00001000
00000000
00000000
00000000
00010000
00000000
00000100
00000000
00001000
00000000
,
00000010
00000001
00000010
00001000
00000010
00000001
00000010
00000010
,
00000000
00000100
00001000
00010000
01000000
00000000
00100000
00001000
,
01001000
00000000
00110000
00000000
00002100
00000000
00003010
00010000
,
00001000
00000000
00000000
00100000
00000000
00000000
00010000
00000000
00000000
00000000
01000000
00000000
00001000
00000000
00010000
00000000
,
00000010
00000100
00001000
00000100
00000010
00000100
00001000
00001000
,
00000000
00010000
01000000
00000000
00100000
00001000
00010000
00001000
,
01001000
00000000
00110000
00000000
00001020
00000000
00000130
00001000
,
00000100
00000000
00000000
00000001
00000000
00000000
00000010
00000000
00000000
00000000
00000100
00000000
00010000
00000000
00001000
00000000
,
00100000
01000000
00100000
00001000
00100000
01000000
10000000
10000000
,
00000000
00100000
00010000
00001000
00000010
00000000
00000110
00000000
;
