#VERSION:0.83;
#TITLE:NEO GENERATOR SEVEN;
#SUBTITLE:;
#ARTIST:L.E.D.-G;
#TITLETRANSLIT:;
#SUBTITLETRANSLIT:;
#ARTISTTRANSLIT:;
#GENRE:MAINSTREAM HARDCORE;
#CREDIT:;
#MUSIC:NEO GENERATOR SEVEN.ogg;
#BANNER:NEO GENERATOR SEVEN.png;
#BACKGROUND:NEO GENERATOR SEVEN-bg.png;
#CDTITLE:./CDTitles/bm IIDX 22 PENDUAL.png;
#SAMPLESTART:85.428;
#SAMPLELENGTH:15.000;
#SELECTABLE:YES;
#OFFSET:0.280;
#BPMS:0.000=182.000
,168.000=91.000
,184.000=182.000
;
#STOPS:68.000=1.319
,232.000=2.637
;
#TIMESIGNATURES:0.000=4=4;
#BGCHANGES:0.000=NEO GENERATOR SEVEN.mp4=1.000=0=0=0=StretchNoLoop====,
99999.000=-nosongbg-=1.000=0=0=0=StretchNoLoop====
;
#FGCHANGES:;

//--------------- dance-single - forcednature ----------------
#NOTEDATA:;
#STEPSTYPE:dance-single;
#DESCRIPTION:forcednature;
#CREDIT:forcednature;
#DIFFICULTY:Beginner;
#METER:3;
#RADARVALUES:0,0,0,0,0;
#NOTES:
0000
0000
0000
0000
,
0000
0000
0000
0000
,
0000
0000
0000
0000
,
0000
0000
0000
0000
,
0000
0000
0000
0000
,
0000
0000
0000
0000
,
0000
0000
0000
0000
,
0000
0000
0000
0000
,
0000
0000
0000
0000
,
0001
0000
0000
0000
,
0000
0000
0000
0000
,
1000
0000
0000
0000
,
0010
0000
0000
0000
,
0100
0000
0000
0000
,
0100
0000
0000
0000
,
0001
0000
0001
0000
,
0001
0000
0000
0000
,
0010
0000
0000
0000
,
0100
0000
0000
0000
,
1000
0000
0000
0000
,
0001
0000
0000
0000
,
1000
0000
0000
0000
,
0000
0000
0010
0000
,
0000
0000
0100
0000
,
0001
0000
0001
0000
,
0001
0000
0000
0000
,
0010
0000
0000
0000
,
0100
0000
0000
0000
,
1000
0000
0000
0000
,
0100
0000
0100
0000
,
0100
0000
0000
0000
,
0010
0000
0000
0000
,
0001
0000
0000
0000
,
1000
0000
1000
0000
,
0000
0010
0000
0000
,
0100
0000
0000
0000
,
0001
0000
0000
0000
,
1000
0000
1000
0000
,
0000
0000
1000
0000
,
0000
0100
0000
0000
,
0010
0000
0010
0000
,
0001
0000
0001
0000
,
0100
0000
0000
0000
,
0010
0000
0000
0000
,
1000
0000
0000
0000
,
0001
0000
0000
0000
,
0010
0000
0000
0010
,
0000
0000
0000
0000
,
0100
0000
0000
0100
,
0000
0000
0000
0000
,
1000
0000
0000
1000
,
0000
0000
0000
0000
,
0001
0000
0000
0001
,
0000
0000
0001
0000
,
0100
0000
0000
0000
,
0010
0000
0000
0000
,
1000
0000
1000
0000
,
0001
0000
0001
0000
,
0010
0000
0000
0000
,
1001
0000
1000
0000
,
1000
0000
0000
0000
,
0010
0000
0100
0000
,
0001
0000
0000
0000
,
0010
0000
0001
0000
,
1000
0000
1000
0000
,
0001
0000
0100
0000
,
0010
0000
0000
0000
,
1000
0000
0100
0000
,
1000
0000
0000
0000
,
0010
0000
0100
0000
,
0010
0000
1000
0000
,
0001
0000
0000
0000
,
0010
0000
0000
0000
,
0100
0000
0100
0000
,
1000
1000
0001
0001
,
0000
0000
0100
0000
,
0010
0000
0100
0000
,
0000
0000
0001
0000
,
1000
0000
0001
0000
,
0000
0000
0010
0000
,
0100
0000
0010
0000
,
0000
0000
0001
0000
,
1000
0000
1000
0000
,
1001
0000
0000
0000
;

//--------------- dance-single - forcednature ----------------
#NOTEDATA:;
#STEPSTYPE:dance-single;
#DESCRIPTION:forcednature;
#CREDIT:forcednature;
#DIFFICULTY:Easy;
#METER:8;
#RADARVALUES:0,0,0,0,0;
#NOTES:
0000
0000
0000
0000
,
0000
0000
0000
0000
,
0000
0000
0000
0000
,
0000
0000
0000
0000
,
0000
0000
0000
0000
,
0000
0000
0000
0000
,
0000
0000
0000
0000
,
0000
0000
0000
0000
,
0000
0000
0000
0000
,
0001
0100
0001
0100
,
0010
1000
0010
1000
,
0001
0010
0001
0010
,
0100
1000
0100
0000
,
1000
1000
1000
0000
,
0001
0001
0001
0000
,
0100
0100
0010
0010
,
1000
0001
1000
0001
,
0010
0000
0000
0000
,
0100
1000
0010
0000
,
0100
0001
0010
0000
,
0100
1000
0001
1000
,
0010
0100
0100
1001
,
0000
0000
0010
0010
,
0000
0100
0001
1000
,
0100
1000
0001
1000
,
0020
0000
0000
0030
,
0100
0001
0100
0001
,
1000
0001
0010
0000
,
0100
1000
0100
1000
,
0001
1000
0010
0000
,
0100
0010
0100
0010
,
1000
0001
0010
0000
,
0100
1000
0100
1000
,
0001
0001
0100
0010
,
0000
1000
1000
0001
,
0010
0100
0010
0000
,
0001
0100
0010
1000
,
0001
0010
0100
0010
,
0001
0000
1000
1000
,
0000
0010
0100
0000
,
0001
1000
0001
1000
,
0100
0010
0001
0001
,
0200
0000
0320
0000
,
2030
3002
2003
3200
,
0320
0000
0032
0000
,
0203
0320
2030
3002
,
0013
0000
0000
0010
,
0000
0010
0000
0000
0000
0000
0000
0000
,
0100
0000
0000
0100
,
0000
0100
0000
0000
0000
0000
0000
0000
,
1000
0000
0000
1000
,
0000
1000
0000
0000
0000
0000
0000
0000
,
0001
0000
0000
0001
,
0000
0001
0000
0001
0000
0001
0000
0000
,
0100
0100
0010
0100
,
0001
0001
1000
0001
,
0010
0100
1000
0100
,
0010
0001
1000
0001
,
0100
0000
0000
0000
,
0010
0000
1000
0000
0010
1000
0010
0000
,
1000
0001
0010
0000
,
0001
0000
0010
0000
0001
0010
0001
0000
,
1000
0010
0100
0000
,
0010
0000
0010
0000
1000
0000
0001
1000
,
0000
0000
0000
0000
0100
0000
0000
0000
0010
0000
0000
0010
0000
0000
0000
0000
,
0001
0000
0000
0001
0000
0000
0000
0000
1000
0000
0000
1000
0000
0000
0000
0000
,
0010
0000
0000
0010
0000
0000
0000
0000
0100
0000
0000
0100
0000
0000
0000
0000
,
0001
0000
0010
0000
0001
0010
0001
0000
,
1000
0100
1000
0000
,
1000
0000
0010
0000
1000
0010
1000
0000
,
0001
0100
0001
0000
,
2002
0000
0000
0000
,
0000
0000
0000
3003
,
1000
1000
0001
0001
,
0100
0010
0100
0000
0010
0100
0010
0000
,
0000
0000
1001
0001
,
0000
0010
0100
1000
,
0000
0010
0100
0001
,
1000
0000
0100
0000
1000
0100
0010
0000
,
0000
0001
1000
0001
,
0000
0100
0010
0100
,
0001
0010
0001
0010
,
0110
0000
0000
0110
0000
0000
0010
0000
,
2002
0000
0000
0000
,
3003
0000
0000
0000
;

//--------------- dance-single - forcednature ----------------
#NOTEDATA:;
#STEPSTYPE:dance-single;
#DESCRIPTION:forcednature;
#CREDIT:forcednature;
#DIFFICULTY:Medium;
#METER:13;
#RADARVALUES:0,0,0,0,0;
#NOTES:
0000
0000
0000
0000
,
0000
0000
0000
0000
,
0000
0000
0000
0000
,
0000
0000
0000
0000
,
0000
0000
0000
0000
,
0000
0000
0000
0000
,
0000
0000
0000
0000
,
0000
0000
0000
0000
,
0000
0000
0000
0000
,
1001
1000
0100
0100
,
0010
0010
0001
0001
,
1000
1000
0010
0010
,
0100
0000
0100
0000
0002
0000
0000
0013
,
0100
1000
0001
1000
0100
1000
0001
0000
,
0100
0001
1000
0001
0100
0001
1000
0000
,
0010
0100
0001
0100
0010
0100
0001
0100
,
0010
0010
1000
1000
0001
0010
0100
1000
,
0010
0000
0000
0000
,
0100
0000
0001
0000
0010
0001
0010
0000
0100
0000
1000
0000
0001
0000
0000
0000
,
0100
0010
1000
0010
0100
0001
1000
0000
,
0100
0010
0001
0100
0001
0010
0100
0000
,
1000
0000
0010
1000
0010
0000
0100
0010
0100
0000
0001
0000
0020
0000
0000
0000
,
0030
0000
0000
0000
0100
1000
0100
1000
0100
0000
0010
0000
0001
0000
0010
0000
,
0000
0100
0100
0000
1000
0001
0100
0010
,
1000
0100
1000
0100
0001
0100
0001
0100
,
0020
0000
0000
0030
,
0001
0100
0010
1000
0010
0100
0001
0000
,
1000
0000
0000
1000
0010
0000
0000
0010
0100
0000
0000
0001
0000
0000
1000
0000
,
0100
0010
0001
0010
0100
1000
0001
0000
,
0010
0000
0000
0010
0100
0000
0000
0100
1000
0000
0000
0001
0100
0000
0000
0000
,
0010
1000
0100
1000
0010
1000
0001
0000
,
0010
0000
0000
0010
0100
0000
0000
0100
1000
0000
0000
0001
0000
0000
0100
0000
,
0010
0000
1000
0100
0010
0000
0001
0100
,
0001
0000
0010
0000
0100
0000
0010
0000
0001
0000
1000
0010
0000
0000
1000
0100
,
0000
0000
0010
0010
0010
0000
0110
0000
,
0100
0000
0000
0100
1000
0000
0000
1000
0001
0000
0000
0100
0000
0000
0010
0000
,
1000
0000
0001
0010
0001
0100
0010
0000
,
1000
0000
0000
1000
0100
0000
0000
0100
0010
0000
0000
0010
0001
0000
0000
0000
,
1000
0010
1000
0010
1000
0000
0000
0000
0100
0000
0010
0000
0001
0000
0010
0000
,
0000
0000
0100
0000
1000
0000
0001
0000
0100
0000
0000
0100
0000
0000
0010
0000
,
1000
0100
1000
0001
0100
0001
1000
0100
,
0010
0000
0001
0000
0000
0000
0100
0000
0001
0000
0100
0010
0100
0000
0010
0000
,
2000
0000
0000
3200
2300
3200
0320
0032
,
2003
3020
2030
3002
2003
3200
2300
3002
,
0203
0320
2030
3002
0023
0230
2300
3002
,
0203
0000
0320
0000
0230
0000
0302
0000
0023
0000
0230
0000
0320
0000
0032
0003
,
1001
0000
0000
0000
0000
0000
0100
0010
,
0000
0110
0000
0000
0000
0000
0000
0000
,
1001
0000
0000
0000
0000
0000
0010
0100
,
0000
0110
0000
0000
0000
0000
0000
0000
,
1001
0000
0000
0000
0000
0000
0001
0100
,
0000
1010
0000
0000
0000
0000
0000
0000
,
1001
0000
0000
0000
0000
0000
1000
0100
,
0000
0011
0000
0001
0100
0001
0000
0010
,
0100
0000
0100
1000
0010
0000
0010
0100
,
0001
0000
0001
1000
0100
0000
0100
0010
,
0001
0100
0001
0010
0100
1000
0010
1000
,
0001
0010
0001
0000
0010
0100
0010
0000
0100
1000
0100
0000
1000
0000
0000
0000
,
1001
0000
0000
0000
,
0001
0000
0000
0001
0100
0000
0010
0000
1000
0000
0000
1000
0100
0000
0010
0000
,
0001
0000
0000
0001
1000
0000
0010
0000
0100
0000
0001
0100
0000
0001
1000
0000
,
0100
0000
0000
0100
0010
0000
0001
0000
0100
0000
0000
0100
0010
0000
1000
0000
,
0001
0000
0000
0001
0010
0000
0100
0000
1000
0000
0000
1000
0010
0000
0100
0000
,
0001
1000
0001
0000
0010
0000
0100
0000
1000
0000
1000
0000
1000
0000
0001
0000
,
0000
0000
0100
0000
0100
0000
0010
0000
1000
0000
0000
0001
0000
0000
0011
0000
,
0001
0000
0000
1000
0000
0000
1010
0000
0100
0000
0000
0010
0000
0000
1001
0000
,
1000
0000
0000
0100
0000
0000
0001
0000
1000
0000
0000
0010
0000
0000
0001
0000
,
1000
0000
0000
1000
0010
0000
0100
0000
0001
0000
0000
0001
0010
0000
0100
0000
,
1000
0000
0000
1000
0001
0000
0100
0000
0010
0000
0000
0110
0000
0000
1000
0000
,
0001
0000
0000
0001
0010
0000
0100
0000
1000
0000
0000
1000
0001
0000
0100
0000
,
0110
0000
0000
0010
1000
0000
0001
0000
0010
0100
0000
0010
0100
0000
1000
0000
,
1002
0000
0000
0000
0000
0000
0000
0000
0100
0000
0000
0100
0000
0000
0100
0000
,
1000
0000
0000
1000
0000
0000
1000
0000
0013
0000
0000
0010
0001
0000
0001
0000
,
1000
0000
0000
0100
0000
0000
1100
0000
0001
0000
0000
0100
0000
0000
0001
0000
,
0010
0001
0010
0000
0100
0010
0100
0000
2000
0000
0000
0000
3001
0100
0001
0100
,
0000
0000
0000
0000
0010
1000
1010
0000
,
0001
0010
0100
0010
0001
0100
0101
0000
,
0001
1000
0100
1000
0010
1000
1100
0000
,
0100
0000
0010
0100
0010
0000
0001
0000
0010
0000
0010
0000
1001
0000
0000
0000
,
0001
0000
0100
0000
0010
0100
0010
0000
0100
0000
0010
0000
1010
0000
0000
0000
,
1000
0100
0010
0100
0010
0001
0011
0000
,
0001
0100
1000
0100
0001
0100
0110
0000
,
1010
0000
0000
0100
0000
0000
0011
0000
0000
0100
0000
0000
1001
0000
0000
0010
,
0200
0000
0000
0000
,
0300
0000
0000
0000
;

//--------------- dance-single - forcednature ----------------
#NOTEDATA:;
#STEPSTYPE:dance-single;
#DESCRIPTION:forcednature;
#CREDIT:forcednature;
#DIFFICULTY:Hard;
#METER:17;
#RADARVALUES:0,0,0,0,0;
#NOTES:
0000
0000
0000
0000
,
0000
0000
0000
0000
,
0000
0000
0000
0000
,
0000
0000
0000
0000
,
0000
0000
0000
0000
,
0000
0000
0000
0000
,
0000
0000
0000
0000
,
0000
0000
0000
0000
,
0000
0000
0000
0000
,
1001
1000
0010
0100
,
0001
0000
0001
0000
0010
0100
0010
0100
,
1000
0010
1000
0001
,
0010
0000
0000
0000
0001
0000
0000
0000
0200
0000
0000
0000
0000
0000
0310
1000
,
0001
0000
0100
0000
0001
0000
0010
0000
0001
0000
0100
0000
0001
0000
0010
0001
,
1000
0000
0100
0000
1000
0000
0010
0000
1000
0000
0100
0000
1000
0000
0010
1000
,
0001
0000
0010
0001
1000
0000
0100
1000
0010
0000
0100
0001
0010
0000
0100
0000
,
1000
0010
1000
0001
0100
0010
0100
0001
1000
0100
0010
0001
0100
0010
1000
0000
,
0110
0000
0000
0000
,
1000
0000
0010
0000
0100
0001
1000
0010
0100
0000
0001
0000
0010
0000
0000
0000
,
0100
0001
0100
1000
0010
1000
0001
0101
,
1000
0010
0100
1000
0100
0001
1010
0000
,
0010
0000
0010
1000
0100
0000
0010
0001
0100
0000
0010
0000
2002
0000
0000
0000
,
3003
0000
0000
0000
1000
0100
0001
0100
1000
0000
1100
0000
1010
0000
0011
0000
,
0000
0110
1001
0000
0001
0100
0010
0010
,
1000
0001
0010
0000
0010
0100
1000
0000
0001
1000
0010
0000
0100
0000
0100
0001
,
0020
0000
0100
0100
0100
0000
0031
1000
,
1001
0101
1001
1000
0010
0100
0001
1000
,
0100
0010
0001
1000
0100
0010
0001
1000
0010
0000
0000
0100
0001
0000
0001
0000
,
1000
0100
0001
0100
0010
1000
0010
0001
,
0100
0010
1000
0001
0100
0010
1000
0001
0010
0000
0000
0010
1000
0000
0000
0000
,
0010
0011
1002
0000
0103
0010
1000
0001
,
0010
0100
1000
0001
0010
0100
1000
0001
0100
0000
0000
0010
1000
0000
0100
0000
,
1001
1000
0001
0010
0100
0001
0100
1000
,
0001
0100
0010
0100
0001
1000
0010
1000
0001
0000
0001
0100
1000
0000
1000
0200
,
0000
0300
0110
0010
1001
0000
1000
0010
,
1000
0100
0010
0001
1000
0001
0010
0100
1000
0000
0000
0010
0100
0000
0001
0000
,
1001
0010
0001
1000
0100
0001
0100
1000
,
0001
0100
0010
1000
0001
1000
0010
0100
0001
0000
0000
0010
0100
0000
0010
0000
,
0001
0100
0010
0100
2000
0000
0000
0000
3100
0000
0101
0000
0110
0000
1010
0000
,
0000
0000
0001
0100
0010
1000
0100
0010
0001
0000
0000
1100
0000
0000
0100
1000
,
0010
0000
0100
0000
0010
0000
0100
0001
0010
0000
0100
0000
0010
0000
0100
1000
,
0010
0000
1000
0100
0001
0000
0100
1000
0001
0100
0010
0100
0001
1000
0010
0100
,
0002
0000
0000
0000
0023
0230
2300
3200
,
0320
0032
2003
3020
0230
0302
2003
3200
,
2300
3020
0230
0302
0023
0230
2300
3002
,
0203
2300
3200
0302
0023
2030
3020
0032
,
0103
0000
0000
0000
0000
0000
0101
0101
,
0000
0022
0000
0033
0000
0000
0000
0000
,
2002
0000
3003
0000
0000
0000
1100
1100
,
0000
2020
0000
3030
0000
0000
0000
0000
,
2002
0000
3003
0000
0000
0000
0011
1100
,
0000
0220
0000
0330
0000
0000
0000
0000
,
2002
0000
3003
0000
0000
0000
1010
0101
,
0000
0110
0000
1001
1001
0021
0000
0130
,
1000
0000
0010
0000
1000
0000
0100
0000
1000
0000
0010
0000
1000
0000
0100
0010
,
0001
0000
0100
0000
0001
0000
0010
0000
0001
0000
0100
0001
0100
0000
0010
1000
,
0001
0000
0010
0001
1000
0000
0100
1000
0010
0000
0100
0001
0010
0000
0100
0000
,
1000
0010
0100
0010
1000
0001
0100
0001
1000
0100
0010
0001
0010
0100
1000
0001
,
0100
0000
0000
0000
,
0001
0000
0010
0001
0000
0010
0100
0000
1000
0000
0010
1000
0000
0010
0100
0000
,
0001
0000
0010
0100
0000
0010
0001
0000
1000
0000
0010
0100
0000
0010
1000
0001
,
1000
0000
1000
0100
1000
0001
0010
0000
0001
0000
0100
0001
0000
0100
0010
0000
,
1000
0000
0001
0010
0000
0100
0010
0000
0001
1000
0010
0100
0001
0000
0001
0000
,
0010
0001
0200
0000
0310
1000
0100
1000
0001
0000
0101
0000
0110
0000
1010
0000
,
0000
0000
1100
0000
0101
0000
0011
0000
1010
0000
0000
0110
0000
0000
1001
0000
,
1100
0000
0000
0000
0000
0000
0000
0000
0000
1010
0000
0000
0000
0000
0000
0000
0000
0000
0001
0000
0000
0100
0000
0000
1000
0000
0000
0100
0000
0000
0000
0000
0000
0110
0000
0000
0000
0000
0000
0000
0000
0000
1000
0000
0001
0000
1000
0000
,
0001
0000
0000
0010
0100
0000
1000
0001
0100
0010
0000
0100
0001
0000
0010
0001
,
1000
0000
0010
0100
0000
0100
0001
0010
0001
0000
1000
0010
0000
0010
0100
0001
,
1000
0000
0100
0010
0000
0010
0001
0100
0010
0000
0000
1001
0000
0000
0110
0000
,
1000
0100
1000
0001
0100
0010
1000
0000
0100
0010
0001
0100
0010
1000
0001
0000
,
1000
0010
0100
0001
0010
0001
0100
0000
0010
0001
0000
0010
1000
0000
0100
0000
,
1002
0000
0000
0100
0000
0000
0010
0000
1003
0001
1000
0001
0100
0001
0100
0001
,
0010
0001
0010
0001
0100
0001
0100
0001
1000
0001
1000
0001
0010
0000
0110
0000
,
0100
1000
0000
1010
0000
0010
0100
0000
0001
0010
0000
0110
0000
0100
1000
0000
,
0001
0000
0000
0100
0000
0000
0010
0000
0000
1000
0000
0000
0001
0000
0000
0100
0000
0000
0010
0000
0000
1000
0000
0000
0001
0000
0010
0000
0100
0000
0010
0000
0100
0000
1000
0000
0001
0000
0000
0100
0000
0000
0010
0000
0000
2000
0000
0000
,
0000
0000
0000
3000
0200
0320
0230
0320
0031
0000
0100
0000
1010
0000
0000
0000
,
0001
0000
0010
0100
1000
0000
0010
0100
0001
0000
0010
0000
1001
0000
1100
0000
,
0001
0100
0010
0000
1000
0100
0010
0000
0001
1000
0010
0100
0001
0000
0000
0000
,
0010
0000
0010
0100
1000
0000
1100
0000
0011
0000
0110
0000
1001
0000
0000
0000
,
0001
0100
0010
0000
2000
3200
2300
3200
0310
0000
0001
1000
0010
0000
0100
0000
,
0001
1000
0100
0000
0010
0001
1000
0000
0001
0100
0010
0100
0001
0000
0101
0000
,
0010
0100
1000
0000
0010
0100
0001
0000
0010
0100
1000
0100
0010
0000
0000
0000
,
0101
0000
0000
0000
0000
0000
0001
0000
0000
1000
0000
0000
0010
0000
0000
0000
0000
0000
1100
0000
0000
0000
0000
0000
1000
0000
0000
0001
0000
0000
0010
0000
0000
0000
0000
0000
0110
0000
0000
0000
0000
0000
1000
0000
0100
0000
0010
0000
,
0002
0000
0000
0000
,
0003
0000
0000
0000
;

//--------------- dance-double - forcednature ----------------
#NOTEDATA:;
#STEPSTYPE:dance-double;
#DESCRIPTION:forcednature;
#CREDIT:forcednature;
#DIFFICULTY:Easy;
#METER:10;
#RADARVALUES:0,0,0,0,0;
#NOTES:
00000000
00000000
00000000
00000000
,
00000000
00000000
00000000
00000000
,
00000000
00000000
00000000
00000000
,
00000000
00000000
00000000
00000000
,
00000000
00000000
00000000
00000000
,
00000000
00000000
00000000
00000000
,
00000000
00000000
00000000
00000000
,
00000000
00000000
00000000
00000000
,
00000000
00000000
00000000
00000000
,
00011000
00000000
00001000
00001000
,
01000000
01000000
00010000
00100000
,
01000000
00000000
10000000
10000000
,
00010000
01000000
02200000
03300000
,
10000000
10000000
00010000
00100000
,
00001000
00001000
00010000
00000010
,
00001000
00000001
00001000
00000000
00000001
00001000
00000001
00000000
,
00000010
00000100
00000010
00000000
00000100
00000000
00000110
00000000
,
00001001
00000000
00000000
00000000
,
00001000
00000100
00001000
00000000
00000100
00000000
00010000
00000000
,
00001000
00010000
00001000
00000000
00100000
00000000
00010000
00000000
,
10000000
00100000
10000000
00000000
00010000
00000000
01000000
00000000
,
00100000
01100000
01100000
10010000
,
00000000
00000000
00010000
00010000
00010000
00000000
00100000
00010000
,
00000000
00100000
00001000
00000000
00010000
00000000
00001000
00000000
,
00011000
00000010
00001010
00000001
,
00000202
00000000
00000000
00000303
,
00001000
00000100
00001000
00000010
,
00010000
00001000
00010000
00000000
00001000
00000000
00100000
00000000
,
00010000
01000000
00010000
00100000
,
00010000
10000000
00010000
00000000
01000000
00000000
01100000
00000000
,
10000000
00010000
10000000
01000000
,
00100000
01000000
00100000
00000000
00001000
00000000
00010000
00000000
,
00000100
00001000
00000010
00000100
,
00000001
00001000
00000001
00000000
00000010
00000000
00000010
00000100
,
00000000
00000110
00001000
00000001
,
00000100
00000010
00000100
00000000
00000001
00000000
00001000
00000000
,
00001100
00010000
00001000
00100000
,
00010000
10000000
00010000
00000000
01000000
00000000
00100000
00000000
,
10000000
10000000
20000000
00000000
30010000
00000000
00010000
00100000
,
00000000
00000000
00001000
00000000
00010000
00000000
00000000
00000000
00000100
00000000
00000000
00000100
00000000
00000000
00001000
00000000
,
00000001
00000000
00000100
00000010
00000100
00000000
00000001
00001000
,
00000001
00000000
00000010
00000000
00001000
00010000
00001000
00000000
,
00022000
00033000
00200000
00320000
,
02030000
03200000
20300000
32000000
,
03200000
00302000
00023000
00030200
,
00002300
00003020
00000230
00000302
,
00000013
00000000
00000000
00000000
00000000
00000000
00000100
00000100
,
00000000
00010000
00000000
00000000
00000000
00000000
00000000
00000000
,
00011000
00000000
00000000
00000000
00000000
00000000
00100000
00100000
,
00000000
00010000
00000000
00000000
00000000
00000000
00000000
00000000
,
11000000
00000000
00000000
00000000
00000000
00000000
00010000
00010000
,
00000000
01000000
00000000
00000000
00000000
00000000
00000000
00000000
,
00011000
00000000
00000000
00000000
00000000
00000000
00000010
00000010
,
00000000
00001000
00000000
00000001
00000010
00000001
00000000
00000100
,
00000010
00000010
00001000
00000100
,
00010000
00010000
00001000
00100000
,
00010000
10000000
00010000
00000000
01000000
00100000
01000000
00000000
,
00010000
10000000
00010000
00000000
00100000
00000000
00001000
00000000
,
00011000
00000000
00000000
00000000
,
00000100
00001000
00000100
00000000
00000010
00000000
00000001
00000000
,
00001000
00000010
00010000
00001000
,
00100000
00010000
00100000
00000000
01000000
00000000
10000000
00000000
,
00010000
00100000
00010000
00000000
01000000
00000000
10010000
00000000
,
00001000
00000000
00010000
00000000
00000100
00001000
00000100
00001000
,
00000000
00000000
00001000
00000000
00000010
00000000
00000000
00000000
00000100
00000000
00000000
00000100
00000000
00000000
00000100
00000000
,
00000001
00000000
00000000
00000001
00000000
00000000
00000001
00000000
00000010
00000000
00000000
00000010
00000000
00000000
00000010
00000000
,
00000100
00000000
00000000
00000100
00000000
00000000
00001000
00000000
00000100
00000000
00000000
00000100
00000000
00000000
00010000
00000000
,
00001000
00000000
00100000
00010000
01000000
00000000
00010000
00000000
,
10000000
00000000
00100000
10000000
01000000
00000000
01100000
00000000
,
10010000
00000000
00010000
00100000
00001000
00000000
00010000
00000000
,
00011000
00000000
00000000
00000000
00000010
00000000
00001000
00000000
00000001
00000000
00000000
00000001
00000000
00000000
00000100
00000000
,
00000020
00000000
00001000
00001000
,
00001000
00000000
00010030
00001000
,
00011000
00000000
00000000
00100000
00000000
00000000
00100000
00000000
00010000
00000000
00000000
01000000
00000000
00000000
00010000
00000000
,
10000000
00000000
10000000
00000000
00100000
01000000
00100000
02000000
,
00000000
00000000
03010000
01100000
,
00010000
00100000
00010000
00000000
01000000
00000000
00011000
00000000
,
00000100
00001000
00000100
00000000
00000010
00000001
00000010
00000000
,
00000100
00001001
00000010
00000110
,
00001000
00000001
00001000
00000000
00000010
00000000
00010000
00000000
,
00001000
00010000
00001000
00000000
00100000
00000000
00010000
00000000
,
01000000
00100000
01000000
00000000
00010000
00000000
00100000
00000000
,
01100000
00000000
00000000
01000000
00000000
00000000
10010000
00000000
00000000
00100000
00000000
00000000
00010000
00000000
00000000
00000000
,
00022000
00000000
00000000
00000000
,
00033000
00000000
00000000
00000000
;

//--------------- dance-double - forcednature ----------------
#NOTEDATA:;
#STEPSTYPE:dance-double;
#DESCRIPTION:forcednature;
#CREDIT:forcednature;
#DIFFICULTY:Medium;
#METER:14;
#RADARVALUES:0,0,0,0,0;
#NOTES:
00000000
00000000
00000000
00000000
,
00000000
00000000
00000000
00000000
,
00000000
00000000
00000000
00000000
,
00000000
00000000
00000000
00000000
,
00000000
00000000
00000000
00000000
,
00000000
00000000
00000000
00000000
,
00000000
00000000
00000000
00000000
,
00000000
00000000
00000000
00000000
,
00000000
00000000
00000000
00000000
,
00011000
00001000
01000000
00010000
,
00100000
01000000
10000000
00000000
01000000
00000000
00100000
00000000
,
00001000
00010000
00000100
00000010
,
00000001
00001000
00000010
00000000
00000220
00000000
00000330
00000000
,
00000100
00000001
00000010
00000001
00000100
00000001
00000010
00000000
,
00000100
00001000
00000010
00001000
00000100
00001000
00000010
00000000
,
00010000
00001000
00100000
00001000
00010000
00001000
01000000
00001000
,
00010000
00000000
00100000
00000000
01000000
00000000
00100000
00000000
10000000
00000000
00000000
10000000
00000000
00000000
00010000
00000000
,
00100000
00000000
00000000
00000000
,
01000000
10000000
01000000
00010000
00001000
00001000
00100000
00000000
,
00001000
00010000
00000100
00000000
00001000
00001000
00000010
00000000
,
00000100
00000001
00000010
00000100
00001000
00000010
00000100
00000000
,
00001000
00000000
00010000
00001000
00010000
00000000
00001000
00010000
00001000
00000000
00100000
00000000
00020000
00000000
00000000
00000000
,
00000000
00000000
00030000
00000000
10000000
00010000
10000000
00010000
01000000
00000000
01000000
00000000
01000000
00000000
00100000
00000000
,
00000000
10000000
00010000
00000000
00100000
01000000
00010000
00000000
,
00001000
00000010
00000100
00000010
00000001
00001000
00000100
00000000
,
00000220
00000000
00000000
00000330
,
00000001
00001000
00000100
00001000
00000010
00001000
00000100
00001000
,
00000001
00000100
00001000
00010000
00100000
00000000
01000000
01000000
,
00010000
10000000
00100000
10000000
01000000
10000000
00010000
10000000
,
01000000
00010000
00001000
00000010
00000100
00000000
00001001
00000000
,
00001000
00000010
00010000
00000010
00001000
00000010
00000100
00000010
,
00001000
00000100
00000001
00000100
00001000
00000000
00000010
00010000
,
00001000
00100000
00001000
00010000
00001000
01000000
00001000
00010000
,
00100000
00000000
01000000
00000000
10000000
00000000
01000000
00000000
00010000
00000000
00100000
00010000
00000000
00000000
00100000
00010000
,
00000000
00000000
01100000
10000000
00010000
00100000
01000000
00010000
,
00001000
00000010
00001000
00010000
00000100
00000000
00001000
00000010
,
00000100
00001000
00000100
00000001
00000100
00000010
00000100
00000001
,
00000100
00001000
00010000
00100000
01000000
00000000
00010000
00010000
,
10000000
00100000
10000000
00100000
02000000
00000000
00000000
00000000
03010000
00000000
00010000
00000000
00010000
00000000
00010000
00000000
,
00000000
00000000
00100000
00000000
00001000
00000000
00010000
00000000
00000100
00000000
00000000
00000100
00000000
00000000
00001000
00000000
,
00000010
00000100
00000010
00000100
00000001
00000010
00000100
00001000
,
00000010
00010000
00001000
00000010
00001000
00001000
00010000
01000000
,
00200000
00000000
00000000
00000000
00302000
00023000
00030200
00002300
,
00003200
00020300
00032000
00203000
00320000
00230000
00302000
00023000
,
00030020
00002030
00003002
00000203
00000302
00002003
00003020
00020030
,
00032000
00203000
00320000
02030000
03200000
20300000
32000000
03100000
,
01100000
00000000
00000000
00000000
00000000
00000000
00010000
00001000
,
00000000
00011000
00000000
00000000
00000000
00000000
00000000
00000000
,
00000110
00000000
00000000
00000000
00000000
00000000
00001000
00010000
,
00000000
00011000
00000000
00000000
00000000
00000000
00000000
00000000
,
10010000
00000000
00000000
00000000
00000000
00000000
00010000
00001000
,
00000000
00011000
00000000
00000000
00000000
00000000
00000000
00000000
,
00001001
00000000
00000000
00000000
00000000
00000000
00001000
00010000
,
00000000
00011000
00000000
01000000
00010000
00100000
00000000
01000000
,
01100000
00000000
00100000
00001000
00010000
00000000
00000010
00010000
,
00001000
00000000
00000010
00000100
00010000
00000010
00001000
00000001
,
00000100
00001000
00000100
00001000
00010000
00100000
00010000
00100000
,
10000000
00010000
00100000
01000000
00010000
00001000
00000010
00000100
,
00001001
00000000
00000000
00000000
,
00000001
00000000
00000000
00000001
00000100
00000000
00001000
00000000
00010000
00000000
00000000
00010000
00001000
00000000
00100000
00000000
,
00010000
00000000
00000000
00010000
01000000
00000000
00100000
00000000
10000000
00000000
01000000
00000000
00010000
00000000
00001000
00000000
,
00100000
00000000
00010000
00100000
00010000
00000000
00000000
00000000
00100000
00000000
00000000
00100000
00001000
00000000
00010000
00000000
,
00000010
00000000
00000000
00000010
00001000
00000000
00000100
00000000
00000010
00000000
00000000
00000000
00000110
00000000
00001000
00000000
,
00000001
00001000
00000001
00000000
00000200
00000000
00000000
00000000
00000310
00000000
00000010
00000000
00000010
00000000
00000010
00000000
,
00000000
00000000
00001000
00000000
00000100
00000000
00000001
00000000
00000100
00000000
00000000
00000100
00000000
00000000
00010000
00000000
,
00001000
00000000
00000000
00100000
00000000
00000000
00001000
00000000
00010000
00000000
00000000
00000010
00000000
00000000
00010000
00000000
,
00001000
00000000
00000000
00001000
00000000
00000000
00001000
00000000
00010000
00000000
00000000
01000000
00000000
00000000
10000000
00000000
,
00100000
00000000
00000000
00100000
01000000
00000000
00010000
00000000
00100000
00000000
00000000
00100000
00001000
00000000
00010000
00000000
,
00000010
00000000
00000000
00000010
00001000
00000000
00000100
00000000
00000010
00000000
00000000
00000110
00000000
00000000
00001000
00000000
,
00000001
00000000
00000000
00000001
00000100
00000000
00001000
00000000
00010000
00000000
00000000
00010000
00000010
00000000
00001000
00000000
,
00000100
00000000
00000000
00000100
00010000
00000000
00001000
00000000
00100000
00010000
00000000
00100000
00010000
00000000
00100000
00000000
,
02000000
00000000
00000000
00000000
00000000
00000000
00000000
00000000
13000000
00000000
00000000
10000000
00000000
00000000
10000000
00000000
,
00100000
00000000
00000000
01000000
00000000
00000000
00010000
00000000
00100000
00000000
00000000
00100000
00001000
00000000
00010000
00000000
,
00011000
00000000
00000000
00011000
00000000
00000000
00000010
00000000
00001010
00000000
00000000
00001010
00000000
00000000
00001000
00000000
,
00000001
00000000
00000100
00000000
00001000
00000000
00010000
00000000
00200000
00000000
00000000
00000000
10300000
00010000
10000000
00020000
,
00000000
00000000
00030000
00000000
01100000
10000000
00010000
00000000
,
00100000
00001000
00010000
00001000
00000010
00000100
00010000
00000000
,
00000010
00001000
00000001
00000100
00000001
00001000
00000010
00000000
,
00010000
00000000
00001000
00010000
00001000
00000000
00010000
00000000
00100000
00000000
00100000
00000000
01100000
00000000
00000000
00000000
,
01000000
00010000
10000000
10000000
00100000
01000000
00010000
00000000
,
00100000
01000000
00010000
00001000
00000010
00000100
00010000
00000000
,
00001000
00000010
00000001
00000010
00001000
00010000
00000100
00000000
,
00000110
00000000
00000000
00000001
00000000
00000000
00000110
00000000
00000000
00001000
00000000
00000000
00001010
00000000
00000000
00010000
,
00002000
00000000
00000000
00000000
,
00003000
00000000
00000000
00000000
;

//--------------- dance-double - forcednature ----------------
#NOTEDATA:;
#STEPSTYPE:dance-double;
#DESCRIPTION:forcednature;
#CREDIT:forcednature;
#DIFFICULTY:Hard;
#METER:17;
#RADARVALUES:0,0,0,0,0;
#NOTES:
00000000
00000000
00000000
00000000
,
00000000
00000000
00000000
00000000
,
00000000
00000000
00000000
00000000
,
00000000
00000000
00000000
00000000
,
00000000
00000000
00000000
00000000
,
00000000
00000000
00000000
00000000
,
00000000
00000000
00000000
00000000
,
00000000
00000000
00000000
00000000
,
00000000
00000000
00000000
00000000
,
00010000
00000100
00001000
00000000
00000100
00010000
00001000
00000000
,
00100000
00010000
01000000
00001000
00010000
00000000
00100000
10000000
,
00010000
00100000
01000000
00000000
00100000
00001000
00010000
00000000
,
00000100
00001000
00000010
00000100
00000002
00000000
00000000
00000013
,
00000100
00001000
00000100
00010000
00000100
00001000
00000100
00000010
,
00001000
00000000
00010000
00000000
00001000
00000000
00100000
00000000
00001000
00000000
00010000
00000000
00001000
00000000
01000000
00010000
,
01000000
00000000
00010000
00100000
00010000
00000000
10000000
00100000
10000000
00000000
01000000
10000000
01000000
00000000
00010000
00000000
,
00001000
00010000
00001000
00010000
00000100
00001000
00000100
00001000
00000001
00000100
00000010
00000100
00000001
00001000
00000010
00000100
,
00000001
00000000
00000000
00000000
,
10000000
00000000
01000000
00000000
10000000
00100000
10000000
00100000
01000000
00010000
01000000
00010000
10000000
00000000
00000000
00000000
,
01000000
00010000
00001000
00000010
00000100
00000110
00001001
00000000
,
00000001
00000010
00001000
00000010
00000100
00010000
00001000
00000000
,
00100000
00000000
00100000
00001000
00010000
00000000
00010000
00001000
01000000
00000000
00100000
00000000
20020000
00000000
00000000
00000000
,
30030000
00000000
00000000
00000000
10000000
01000000
00010000
00001000
00100000
00000000
00110000
00000000
00101000
00000000
00011000
00000000
,
00000000
00000000
00010100
00000000
00010100
00000000
00000000
00000000
00000100
00000000
00001000
00000000
00000010
00000000
00000100
00000001
,
00000010
00000000
00000100
00001000
00000010
00000000
00010000
00001000
00100000
00000000
00010000
01000000
00001000
00000000
00010000
00100000
,
02000000
00000000
00010000
00010000
00010000
03010000
10000000
00100000
,
10100000
00010000
01000000
00100000
10000000
01000000
00010000
00001000
,
00100000
00010000
00100000
00001000
00010000
00000100
00001000
00000100
00000010
00000000
00000000
00000010
00000001
00000000
00001000
00000000
,
00000010
00010000
00001000
00000010
00000100
00001000
00000001
00000100
,
00000010
00001000
00000010
00010000
00001000
01000000
00010000
01000000
00100000
00000000
00000000
00010000
00001000
00000000
00000000
00000000
,
01000000
00010000
00100000
01000000
00010000
00001000
01000000
00010000
,
00100000
00010000
00100000
00001000
00010000
00000100
00001000
00000100
00000010
00000000
00000000
00001000
00010000
00000000
00000010
00000000
,
00001010
00000001
00000100
00000001
00000010
00001000
00010000
00000010
,
00001000
00000100
00001000
00000100
00010000
00001000
00010000
00001000
00100000
00000000
00100000
00010000
01000000
00000000
00100000
10000000
,
00000000
00000000
01100000
00010000
00100000
00001000
00010000
01000000
,
00100000
00010000
00100000
00001000
00010000
00000010
00001000
00000010
00000100
00000000
00000000
00000001
00000010
00000000
00000010
00000000
,
00000100
00010000
00001000
00000010
00000001
00001000
00000100
00010000
,
00000010
00001000
00000010
00010000
00001000
00100000
00010000
00100000
01000000
00000000
00000000
00010000
00001000
00000000
00001000
00000000
,
00100000
01000000
00010000
00001000
00200000
00000000
00000000
00000000
00301000
00000000
00011000
00000000
00010100
00000000
00001100
00000000
,
00000000
00000000
00001000
00000010
00000100
00000000
00000001
00000010
00000100
00000000
00000000
00000110
00000000
00000000
00000001
00000100
,
00001000
00000000
00010000
00000000
00001000
00000000
00010000
00100000
10000000
00000000
00010000
00000000
10000000
00000000
01000000
00010000
,
00001000
00000000
00100000
00010000
00100000
00000000
00001000
00010000
00000100
00001000
00000100
00001000
00000010
00000100
00000001
00000010
,
00000200
00000000
00000000
00000000
00020300
00032000
00003020
00002030
,
00023000
00030020
00002030
00003020
00000230
00000302
00000203
00002300
,
00023000
00230000
02300000
03200000
20300000
30020000
02030000
03200000
,
20300000
32000000
03020000
02030000
03200000
00302000
00003020
00000130
,
00000110
00000000
00000000
00000000
00000000
00000000
00001001
00001001
,
00000000
00010100
00000000
00000000
00000000
00000000
00000000
00000000
,
01100000
00000000
00000000
00000000
00000000
00000000
10010000
10010000
,
00000000
01001000
00000000
00000000
00000000
00000000
00000000
00000000
,
00011000
00000000
00000000
00000000
00000000
00000000
00000110
00000110
,
00000000
00001001
00000000
00000000
00000000
00000000
00000000
00000000
,
00011000
00000000
00000000
00000000
00000000
00000000
01100000
01100000
,
00000000
00000000
10010000
00000000
00000000
00000000
11000000
00000000
11000000
00000000
00110000
00000000
00000000
00000000
00010000
00100000
,
00001000
00000000
00010000
00000000
00001000
00000000
00010000
00000100
00001000
00000000
00000010
00000000
00000100
00000000
00000001
00000010
,
00000100
00000000
00001000
00000010
00000100
00000000
00000001
00001000
00000100
00000000
00010000
00001000
00010000
00000000
00001000
00100000
,
00010000
00000000
01000000
00100000
10000000
00000000
01000000
00100000
00010000
00000000
01000000
00100000
10000000
00000000
00010000
00000000
,
00100000
00010000
00100000
00010000
00100000
00001000
00010000
00000100
00001000
00000100
00001000
00000100
00000010
00000001
00000100
00000010
,
00001000
00000000
00000000
00000000
,
10000000
00000000
00100000
10000000
00000000
00100000
01000000
00000000
00010000
00000000
00100000
01000000
00000000
00100000
00010000
00000000
,
00100000
00000000
00001000
00010000
00000000
00000100
00001000
00000000
00000010
00000000
00000100
00000010
00000100
00000000
00000001
00000010
,
00000100
00000000
00000010
00000100
00001000
00000100
00000010
00000000
00000100
00000000
00010000
00001000
00000000
00100000
00001000
00000000
,
00010000
00000000
00100000
01000000
00000000
00100000
10000000
00000000
00010000
00000000
00010000
01000000
10000000
00000000
10000000
00000000
,
01000000
00010000
00100000
00000000
01000000
10000000
01000000
10000000
00010000
00000000
00110000
00000000
00101000
00000000
00011000
00000000
,
00000000
00000000
00010010
00000000
00010010
00000000
00001010
00000000
00001010
00000000
00000000
00000110
00000000
00000000
00000101
00000000
,
00000011
00000000
00000000
00000110
00000000
00000000
00001000
00000100
00010000
00001000
00000000
00011000
00000000
00000000
00100000
00010000
,
01000000
00000000
00100000
01000000
00000000
00100000
10000000
01000000
00100000
00000000
00010000
00100000
00000000
00001000
00010000
00000000
,
00000010
00000000
00001000
00000100
00000000
00000010
00000001
00001000
00000001
00000000
00000100
00000010
00000000
00001000
00000010
00001000
,
00000100
00000000
00010000
00001000
00000000
00100000
00010000
01000000
00100000
00000000
00000000
01100000
00000000
00000000
10010000
00000000
,
10000000
01000000
00100000
01000000
00000000
10000000
00010000
00100000
00010000
00100000
00001000
00010000
00000000
00000010
00001000
00000010
,
00000100
00000001
00000100
00000010
00000000
00001000
00000001
00000010
00000100
00000010
00000000
00000100
00001000
00000000
00000010
00010000
,
00002000
00000000
00000000
00000000
00000000
00000000
00000000
00000000
00103000
00010000
00100000
00010000
01000000
00100000
01000000
00100000
,
10000000
01000000
10000000
01000000
00100000
00010000
00100000
00010000
00001000
00000100
00001000
00000100
00001000
00000010
00001000
00000001
,
00000100
00000000
00000010
00000100
00000000
00000001
00001000
00000010
00001000
00000000
00000100
00001000
00000000
00000100
00010000
00001000
,
00100000
00010000
10000000
00010000
00100000
00010000
10000000
00010000
00100000
01000000
10000000
01000000
00010000
00001000
00010000
00002000
,
00000000
00000000
00000000
00000000
00003020
00000230
00000320
00000230
00001300
00000000
00000001
00000000
00001001
00000000
00000000
00000000
,
00000001
00000000
00000100
00001000
00010000
00000000
00001000
00000000
00101000
00000000
00010000
00000000
00110000
00000000
00000000
00000000
,
10000000
00000000
10000000
01000000
00100000
00000000
01000000
00100000
00010000
00000000
00100000
00001000
00010000
00000000
00000000
00000000
,
00000010
00000000
00000010
00010000
00001000
00000000
00001000
00010000
00000100
00000000
00000010
00000000
00001001
00000000
00000000
00000000
,
00000001
00000100
00001000
00000000
00010000
00001000
00010000
00001000
00100000
00000000
00010000
01000000
00100000
00000000
10000000
00000000
,
00010000
00000000
00100000
01000000
10000000
00000000
01000000
00010000
00001000
00000000
00100000
00010000
00100000
00000000
00001000
00000000
,
00000010
00000000
00000100
00001000
00000010
00000000
00000100
00000001
00000010
00000000
00001000
00000000
00010000
00000000
00000000
00000000
,
00011000
00000000
00100000
00010000
01000000
00000000
00011000
00000000
00000010
00001000
00000100
00000000
00011000
00000000
00010000
00100000
,
20000000
00000000
00000000
00000000
,
30000000
00000000
00000000
00000000
;
