#VERSION:0.83;
#TITLE:Musik LoverZ;
#SUBTITLE:;
#ARTIST:RoughSketch;
#TITLETRANSLIT:;
#SUBTITLETRANSLIT:;
#ARTISTTRANSLIT:;
#GENRE:HARDSTYLE;
#CREDIT:;
#MUSIC:Musik LoverZ.ogg;
#BANNER:Musik LoverZ.png;
#BACKGROUND:Musik LoverZ-bg.png;
#CDTITLE:./CDTitles/bm IIDX 23 copula.png;
#SAMPLESTART:78.020;
#SAMPLELENGTH:15.000;
#SELECTABLE:YES;
#OFFSET:1.972;
#BPMS:0.000=150.000;
#STOPS:;
#BGCHANGES:4.000=Musik LoverZ.mp4=1.000=0=0=0=StretchNoLoop====,
99999.000=-nosongbg-=1.000=0=0=0=StretchNoLoop====
;
#FGCHANGES:;

//--------------- dance-single - forcednature ----------------
#NOTEDATA:;
#STEPSTYPE:dance-single;
#DESCRIPTION:forcednature;
#DIFFICULTY:Beginner;
#METER:3;
#RADARVALUES:0,0,0,0,0;
#CREDIT:forcednature;
#NOTES:
0000
0000
0000
0000
,
0000
0000
0000
0000
,
0000
0000
0000
0000
,
0000
0000
0000
0000
,
0000
0000
0000
0000
,
0000
0000
0000
0000
,
1000
0000
0000
0000
,
0100
0000
0000
0000
,
0010
0010
0010
0000
,
0001
0000
0000
0000
,
1001
0000
0000
0000
,
1000
0000
0010
0000
,
1000
0000
0000
0000
,
0001
0000
0100
0000
,
0001
0000
0000
0000
,
1000
0000
0100
0000
,
1000
0000
0001
0000
,
0010
0000
0000
0000
,
0000
1001
0000
0000
,
1000
0000
0100
0000
,
1000
0000
0000
0000
,
0001
0000
0010
0000
,
0001
0000
0000
0000
,
1000
0000
0010
0000
,
0100
0000
0001
0000
,
1000
1000
1000
0000
,
0000
0000
0001
0000
,
0000
0000
0000
0000
,
0000
0000
1000
0000
,
0000
0000
0000
0000
,
0000
0000
0010
0000
,
0000
0000
0000
0000
,
0000
0000
0100
0000
,
0000
0000
0000
0000
,
1001
0000
0000
0000
,
1000
0000
0000
0000
,
0100
0000
0000
0000
,
0010
0000
0000
0000
,
1001
0000
0000
0000
,
0001
0000
0000
0000
,
0100
0000
0000
0000
,
0010
0000
0000
0000
,
1001
0000
0000
0000
,
1000
0000
0000
0000
,
0100
0000
0000
0000
,
0010
0000
0000
0000
,
0001
0000
0001
0000
,
0100
0000
0100
0000
,
0010
0000
1000
0000
,
0002
0000
0000
0003
,
1000
0000
0100
0000
,
1000
0000
0000
0000
,
0001
0000
0100
0000
,
0001
0000
0000
0000
,
1000
0000
0010
0000
,
1000
0000
0000
0000
,
0001
0000
0010
0000
,
0001
0001
0001
0000
,
0100
0000
0010
0000
,
1000
0000
0000
0000
,
0010
0000
0100
0000
,
0001
0001
0001
0000
,
0010
0000
0100
0000
,
1000
1000
1000
0000
,
0010
0000
0010
0100
,
0000
0100
0010
0000
,
1001
0000
0000
0000
,
1000
0000
0100
0000
,
1000
0000
0000
0000
,
0001
0000
0000
0000
,
1001
0000
1000
0000
,
1000
0000
0000
0000
,
0001
0000
1000
0001
,
1000
0000
0010
0000
,
1001
0000
0000
0000
;

//--------------- dance-single - forcednature ----------------
#NOTEDATA:;
#STEPSTYPE:dance-single;
#DESCRIPTION:forcednature;
#DIFFICULTY:Easy;
#METER:6;
#RADARVALUES:0,0,0,0,0;
#CREDIT:forcednature;
#NOTES:
0000
0000
0000
0000
,
0000
0000
0000
0000
,
0000
0000
0000
0000
,
0000
0000
0000
0000
,
0000
0000
0000
0000
,
0000
0000
0000
0000
,
1000
1000
0100
1000
,
0001
0001
0100
0001
,
0010
0100
0010
0100
,
0020
0000
0000
0030
,
0001
0001
0100
0100
,
0001
0100
0001
0000
,
1000
1000
0100
0100
,
1000
0100
1000
0000
,
0001
0001
0010
0010
,
0001
0010
0001
0000
,
1000
1000
0010
0010
,
0110
0000
1000
0001
,
0000
0010
0001
0100
,
0001
0010
0001
0000
,
1000
0010
1000
0100
,
1000
0010
1000
0001
,
0000
0010
0100
1000
,
0010
1000
0100
0000
,
0010
0010
0001
0001
,
0100
0010
0110
0000
,
0000
0000
1000
0000
,
0000
0000
0000
0001
0000
0001
0000
0000
,
0000
0000
1000
0000
,
0000
0000
0000
0001
0000
0001
0000
0000
,
0000
0010
0010
0010
,
0000
0000
0000
0100
0000
0100
0000
0000
,
0000
0010
0010
0010
,
0000
0000
0000
0100
0000
0100
0000
0000
,
1001
0000
1000
0100
,
0000
1000
0010
0000
,
1000
0000
0001
0100
,
0000
0001
0010
0000
,
0110
0000
0000
0000
0000
0000
0000
1001
,
0000
0000
0000
0000
,
0110
0000
0000
0000
0000
0000
0000
1001
,
0000
1000
0001
0000
1001
0000
0000
0000
,
1000
1000
1000
0000
,
0100
0100
0100
0000
,
0010
0010
0010
0000
,
0001
0001
0001
0000
,
1000
0010
1000
0000
,
0010
0100
0010
0000
,
0100
0001
0100
0001
,
2000
0000
0000
3000
,
1001
0000
0001
0010
,
0100
1000
0010
0100
,
0001
0000
1000
0100
,
1000
0001
0100
0001
,
1001
0000
1000
0010
,
0100
0010
1000
0001
,
1001
0000
1000
0100
,
0010
0010
0010
0000
,
0110
0000
0100
1000
,
0001
0100
0010
1000
,
1001
0000
0001
0010
,
0001
0100
0010
0000
,
1000
1000
1000
0000
,
0001
0001
0001
0000
,
0100
0010
1000
0001
,
0010
0100
0110
0000
,
0000
1000
0000
0100
,
0000
1000
0100
1000
,
0000
0001
0100
0001
,
0100
0000
0000
0001
0000
0000
0000
0000
,
1000
0010
0100
0010
,
1000
0001
0100
0000
,
0001
0010
0100
1000
,
0010
0000
0100
0110
,
2002
3003
0000
0000
;

//--------------- dance-single - forcednature ----------------
#NOTEDATA:;
#STEPSTYPE:dance-single;
#DESCRIPTION:forcednature;
#DIFFICULTY:Medium;
#METER:10;
#RADARVALUES:0,0,0,0,0;
#CREDIT:forcednature;
#NOTES:
0000
0000
0000
0000
,
0000
0000
0000
0000
,
0000
0000
0000
0000
,
0000
0000
0000
0000
,
0000
0000
0000
0000
,
0000
0000
0000
0000
,
1100
0000
1000
0010
1000
0000
0100
0000
,
0011
0000
0001
0100
0001
0000
0010
0000
,
0110
0000
0110
0000
0001
1000
0001
1000
,
0020
0000
0000
0130
,
1001
0010
1100
0010
,
0101
0000
1000
0001
1000
0000
0010
0000
,
0101
0010
1100
0010
,
1001
0000
0001
0100
0001
0000
0010
0000
,
1001
0100
1010
0100
,
0011
0000
1000
0001
1000
0000
0100
0000
,
1100
0010
0101
0010
,
1001
0000
0000
0010
0010
0100
0000
0110
,
0000
1000
0001
1000
0000
1000
0010
1000
,
0000
1000
0100
1000
0000
0010
0000
1001
,
0000
0001
0100
0001
0000
0001
1000
0001
,
0000
0001
0010
0000
0110
0000
1001
0000
,
0000
1000
0100
0010
0000
0001
0010
0100
,
0000
1000
0010
0100
0000
1001
0000
0000
,
0001
0100
0001
0000
1000
0010
1000
0000
,
0100
0100
0100
0000
0220
0000
0330
0000
,
0000
1000
0100
1000
0100
0000
0010
0001
,
0000
0000
0000
0100
0000
0100
0000
0000
,
0000
0001
0100
0001
0100
0000
0010
1000
,
0000
0000
0000
0100
0000
0100
0000
0000
,
0000
1000
0001
0010
0001
0000
1000
0100
,
0000
0000
0000
0010
0000
0010
0000
0000
,
0000
0001
1000
0010
1000
0000
0001
0200
,
0000
0000
0000
0010
0000
0010
0300
0000
,
1001
0000
0000
0001
0100
0001
0000
0100
,
0000
0010
0100
0000
0010
0000
1000
0010
,
1000
0000
0000
0100
1000
0100
0000
0010
,
0000
0100
0010
0000
0001
0000
1000
0000
,
2002
0000
3003
0000
0000
0000
0000
0220
,
0000
0030
0010
0000
0310
0000
1001
0000
,
0220
0000
0330
0000
0000
0000
0000
1001
,
0000
0100
0010
0000
2002
0000
3003
0000
,
1100
1000
0001
0010
,
0101
0001
1000
0010
,
1010
0001
0100
0001
,
0011
1000
0100
1000
,
1010
0110
1010
0100
,
0011
0110
0011
0100
,
1000
0001
1000
0000
0010
0100
0010
0000
,
0220
0000
0000
0330
,
1001
0000
0001
0010
0100
0010
0001
1000
,
0000
0100
1000
0001
0010
0000
0100
0000
,
1001
0000
1000
0010
0100
0010
1000
0001
,
0000
0100
0001
1000
0010
0000
0100
0000
,
1001
0000
0001
0010
0100
1000
0100
0010
,
0000
0001
1000
0100
1000
0000
0010
0000
,
1001
0000
1000
0010
0100
0001
0100
0010
,
0000
1000
1000
0000
2002
0000
3003
0000
,
0001
0010
0100
0010
0001
1000
0100
0000
,
1000
0010
0100
0000
0110
0000
1001
0000
,
0001
0010
0100
0010
0001
1000
0010
0000
,
0100
0100
0100
0000
0110
0000
1001
0000
,
1000
1000
1000
0001
0100
0000
1010
0000
,
0001
0001
0001
0000
0110
0000
0010
0000
,
1000
0100
1000
0010
0100
0100
0000
1001
,
0000
0010
0110
0000
2002
0000
3003
0000
,
1000
0100
0000
0001
0000
0100
1000
0000
,
0001
0000
0000
0001
0000
0000
0001
0000
0000
0000
0010
0000
0001
0000
0000
0000
,
0001
0100
1000
0000
0100
0001
0100
0000
,
0001
1000
0000
2020
0000
0000
3030
0000
,
0101
0101
0011
0011
,
0010
0100
1000
0000
0010
0010
0000
0000
,
1100
1100
1010
1010
,
0010
0100
0000
0100
0001
0010
0100
0000
,
2002
3003
0000
0000
;

//--------------- dance-single - forcednature ----------------
#NOTEDATA:;
#STEPSTYPE:dance-single;
#DESCRIPTION:forcednature;
#DIFFICULTY:Hard;
#METER:13;
#RADARVALUES:0,0,0,0,0;
#CREDIT:forcednature;
#NOTES:
0000
0000
0000
0000
,
0000
0000
0000
0000
,
0000
0000
0000
0000
,
0000
0000
0000
0000
,
0000
0000
0000
0000
,
0000
0000
0000
0000
,
1000
0100
1000
0010
1000
0100
1000
0010
,
0100
0001
0010
0001
0100
0001
0010
0001
,
0100
0000
0100
0000
0010
0000
0010
0000
1000
0000
0001
0000
1000
0001
1000
0001
,
0000
0000
0000
0010
0010
0000
1001
0000
,
1000
0000
0100
0000
0010
0000
0100
0000
1000
0000
0000
0001
0010
0000
0000
0000
,
0101
0011
0101
0011
,
0001
1000
0001
0000
0010
0000
0100
0000
0010
0001
0000
1000
0001
0000
0001
0000
,
0100
0000
0000
0110
0000
0000
0010
0000
1000
0001
0010
0000
0100
0000
0000
0000
,
0010
0000
0001
0000
1000
0010
1000
0000
0001
0000
0000
0001
0020
0000
0000
0000
,
0130
1000
0100
0000
1000
0000
0000
0000
0010
0000
2020
0000
0000
0000
3030
0000
,
1000
0000
0100
0000
1000
0001
0010
0000
0100
0000
0100
0010
0001
0000
1000
0000
,
2002
0000
0000
0000
3003
0000
0001
0100
0010
0000
1000
0000
0100
0000
0220
0000
,
0000
0330
0000
0000
1001
0000
0001
0000
0100
0010
1000
0000
0001
0000
0010
0000
,
0100
0000
1000
0000
0010
0000
1000
0000
0100
0010
0001
0000
2000
0000
0000
0000
,
3010
0100
0010
0000
0100
0000
0001
0000
0010
0001
0000
0010
0100
0000
1000
0000
,
0001
0000
0001
0000
0100
0000
0100
0010
2000
0000
3000
0000
0220
0000
0330
0000
,
0001
0010
0000
0001
0010
0100
0000
0010
0100
1000
0000
0100
1000
0000
1000
0000
,
0010
0000
0100
0000
0110
0000
0000
0000
0001
0000
2001
0000
0000
0000
3100
1000
,
0001
0000
0001
0000
0100
0000
0100
0000
0010
1000
0010
0000
1000
0100
1000
0000
,
0001
0010
0110
0000
2002
0000
3003
0000
,
0000
1000
0100
0010
0002
0000
0103
2000
,
0000
3000
0000
1100
0000
0101
0000
0000
,
0000
0001
0100
0010
2000
0000
3100
0002
,
0000
0003
0000
0101
0000
1100
0000
0000
,
1000
0000
1000
0010
0100
0000
0100
0001
,
0010
0000
0010
0100
1000
0000
1000
0000
,
0001
0000
0001
0100
0010
0000
0010
1000
,
0001
0000
0010
0000
0001
0000
0010
0000
0001
0000
0010
0100
1000
0000
0000
0000
,
2002
0000
0000
3003
0000
0000
0001
0100
0001
0000
1000
0000
0010
0000
2000
0000
,
3000
0000
0002
0000
0000
0000
0013
0001
0020
0000
0000
0030
0100
1000
0100
1000
,
0002
0000
0000
0003
0000
0000
0100
0010
0100
0000
0010
0000
1000
0000
0002
0000
,
0003
0000
0010
0000
0100
0000
1000
0100
2000
0000
0000
3000
0010
0000
0000
0000
,
2002
0000
0000
0000
3003
0000
0001
0100
0010
0000
1000
0000
0000
0000
1200
0000
,
0000
0000
0001
0000
0001
0000
0001
0000
0301
0000
0000
0000
0100
1000
0100
1000
,
0002
0000
0000
0000
0003
0000
0100
0001
1000
0000
0010
0000
1000
0100
0010
0000
,
0000
0110
0110
0000
2002
0000
3003
0000
,
2100
0001
0010
3001
,
0102
1000
0010
1003
,
2010
0001
0100
3001
,
0012
1000
0100
1003
,
0001
0100
0010
0100
0001
0010
0100
0010
,
0001
0001
1000
1000
0010
0010
0100
0100
,
0001
0000
1000
0000
0001
0000
1000
0000
0010
0100
0010
0000
0100
0010
0100
0000
,
0002
0000
0000
0000
0000
0013
0110
0000
,
2001
0000
0000
0000
3001
0000
0100
0010
1000
0000
0001
0000
1000
0000
0100
0000
,
0000
0000
0010
0000
0001
0000
0010
0100
1000
0000
0000
0000
0001
0100
0010
1000
,
0002
0000
0000
0000
0013
0000
0100
1000
0001
0000
0100
0000
0010
0000
1000
0000
,
0000
0000
0010
0000
0100
0000
0001
1000
0100
0000
0000
0000
0010
0001
1000
0100
,
0020
0000
0000
0000
0031
0000
1000
0010
0100
0000
0001
0000
0010
0000
0001
0000
,
0000
0000
1000
0000
0010
0000
1000
0100
0010
0000
0000
0000
0001
1000
0010
0100
,
0002
0000
0000
0000
1003
0000
0100
0010
0001
0000
1000
0000
0010
0000
1010
0000
,
0000
0110
0110
0000
0102
0000
0013
0000
,
1002
0000
0000
0000
1003
0000
0100
1000
0001
0000
0100
0000
0010
0000
0100
0000
,
0001
0000
1000
0000
0010
0000
0100
0001
1000
0000
0100
0000
0010
0001
1000
0100
,
0020
0000
0000
0000
0130
0000
1000
0001
0100
0000
0010
0000
1000
0000
0001
0000
,
0010
0000
0100
0000
0110
0000
0010
0001
1000
0000
0000
0000
0020
0000
0000
0000
,
0130
0000
0100
0000
0001
0000
0010
0100
1000
0000
0010
0000
0002
0000
0000
0000
,
0013
0000
0010
0000
0010
0000
1000
0100
0020
0000
0000
0030
0002
0000
0000
0003
,
0100
0000
0100
0000
0010
0000
0010
1000
0001
0010
0001
0010
0100
0000
1000
0000
,
0000
1010
1010
0000
0201
0000
1300
0000
,
0100
0000
0000
0001
0000
0000
0010
0000
0000
0000
0100
0000
1000
0000
0000
0000
,
0010
0000
0000
0010
0000
0000
0010
0000
0100
0000
0001
1000
0001
0000
0001
0000
,
0010
0000
0000
0100
0000
0000
1000
0000
0001
0000
0100
0000
1000
0000
0100
0000
,
0001
0100
0000
0220
0000
0000
0330
0000
,
1010
0000
1100
0000
1010
0000
1000
1100
,
0011
0000
0000
0000
0001
0000
0101
0000
0100
0000
2020
0000
0000
3030
0000
0000
,
1000
0000
1100
0000
0100
0000
0110
0000
0010
0000
0001
0000
1000
0001
1000
0001
,
0000
0000
0100
0000
0000
0000
0100
0000
0100
0010
1000
0000
0001
0000
0000
0000
,
2002
3003
0000
0000
;

//--------------- dance-double - forcednature ----------------
#NOTEDATA:;
#STEPSTYPE:dance-double;
#DESCRIPTION:forcednature;
#DIFFICULTY:Easy;
#METER:6;
#RADARVALUES:0,0,0,0,0;
#CREDIT:forcednature;
#NOTES:
00000000
00000000
00000000
00000000
,
00000000
00000000
00000000
00000000
,
00000000
00000000
00000000
00000000
,
00000000
00000000
00000000
00000000
,
00000000
00000000
00000000
00000000
,
00000000
00000000
00000000
00000000
,
00001000
00001000
00010000
00000100
,
00010000
00010000
00001000
01000000
,
00010000
00010000
10000000
10000000
,
00200000
00000000
00000000
00300000
,
10000000
10000000
01000000
01000000
,
10000000
00010000
00100000
00000000
,
00001000
00001000
00010000
00010000
,
00001000
00010000
00000100
00000000
,
00001000
00001000
00000001
00000001
,
00000100
00000010
00001000
00000000
,
00000100
00000100
00010000
00010000
,
00011000
00000000
00010000
00001000
,
00000000
00100000
00010000
00100000
,
00010000
10000000
01000000
00000000
,
10000000
00100000
10000000
00100000
,
01000000
00010000
01000000
00000000
,
00001000
00010000
00001000
00010000
,
00000100
00001000
00000100
00000000
,
00000010
00000001
00000010
00000001
,
00000100
00000100
00000110
00000000
,
00002000
00000000
00000000
00000000
,
00003000
00000000
00000000
00000000
,
00000200
00000000
00000000
00000000
,
00000300
00000000
00000000
00000000
,
00020000
00000000
00000000
00030000
,
00002000
00000000
00000000
00003000
,
02000000
00000000
00000000
03000000
,
00200000
00000000
00000000
00300000
,
10010000
00000000
10000000
01000000
,
00000000
00100000
01000000
00000000
,
00100000
00000000
00010000
00100000
,
00000000
00001000
00010000
00000000
,
00011000
00000000
00000000
00000000
00000000
00000000
00000000
00011000
,
00000000
00000000
00000000
00000000
,
00000110
00000000
00000000
00000000
00000000
00000000
00000000
00001001
,
00000000
00000010
00000110
00000000
,
00000002
00000000
00000000
00000003
,
00000200
00000000
00000000
00000300
,
00000020
00000000
00000000
00000030
,
00002000
00000000
00000000
00003000
,
00000100
00000100
00001000
00000100
,
00010000
00010000
00001000
00010000
,
00001000
01000000
00010000
01000000
,
00200000
00000000
00000000
00300000
,
10010000
00000000
10000000
01000000
,
00100000
01000000
00100000
00001000
,
00010000
00000000
00000100
00001000
,
00000001
00000010
00000001
00001000
,
00001001
00000000
00000001
00000100
,
00000001
00001000
00000010
00010000
,
00011000
00000000
01000000
00010000
,
00100000
00100000
00100000
00000000
,
01100000
00000000
01000000
10000000
,
00010000
00100000
00001000
00010000
,
00011000
00000000
00000100
00001000
,
00000001
00000100
00000001
00000000
,
00001000
00001000
00001000
00000000
,
00000010
00000010
00000010
00000000
,
00010000
00001000
01000000
00010000
,
00100000
01000000
01100000
00000000
,
00000000
10000000
00000000
10000000
,
00000000
01000000
00010000
00001000
,
00000000
00010000
00001000
00010000
,
00001000
00000000
00000000
00000000
,
00010000
00000100
00001000
00000100
,
00010000
00001000
00100000
00000000
,
00010000
01000000
00001000
00010000
,
00000010
00000000
00000100
00000110
,
00002002
00003003
00000000
00000000
;

//--------------- dance-double - forcednature ----------------
#NOTEDATA:;
#STEPSTYPE:dance-double;
#DESCRIPTION:forcednature;
#DIFFICULTY:Medium;
#METER:10;
#RADARVALUES:0,0,0,0,0;
#CREDIT:forcednature;
#NOTES:
00000000
00000000
00000000
00000000
,
00000000
00000000
00000000
00000000
,
00000000
00000000
00000000
00000000
,
00000000
00000000
00000000
00000000
,
00000000
00000000
00000000
00000000
,
00000000
00000000
00000000
00000000
,
00010000
00010000
00000100
00010000
,
00001000
00001000
01000000
00001000
,
00010000
00000010
00010000
00000000
00001000
00100000
00001000
00000000
,
00022000
00000000
00000000
00033000
,
00011000
01000000
00010000
10000000
,
10010000
00000000
00010000
00100000
00010000
00000000
10000000
00000000
,
10010000
00010000
00100000
00001000
,
00011000
00000000
00010000
00001000
00010000
00000000
00001000
00000000
,
00011000
00000010
00001000
00000001
,
00001001
00000000
00001000
00000100
00001000
00000200
00000000
00000000
,
00010300
00001000
01000000
00010000
,
10010000
00000000
00000000
10000000
10000000
00010000
00000000
00100000
,
00000000
01100000
01000000
10000000
,
00100000
01000000
00100000
00000000
01000000
00010000
01000000
00000000
,
00001000
00000000
00010000
00000000
00001000
00010000
00001000
00000000
,
00010000
00000100
00001000
00000000
00001001
00000000
00000110
00000000
,
00000000
00000001
00001000
00000100
00000000
00001000
00000001
00000010
,
00000000
00000100
00001000
00000100
00000000
00011000
00000000
00000000
,
01000000
00010000
01000000
00000000
00010000
10000000
00010000
00000000
,
00100000
00100000
00100000
00000000
02200000
00000000
03300000
00000000
,
00000000
01000000
10000000
01000000
10000000
00000000
01000000
00010000
,
00000000
00000000
00000000
00001000
00000000
00001000
00000000
00000000
,
00000000
00000010
00000001
00000010
00000001
00000000
00000010
00001000
,
00000000
00000000
00000000
00010000
00000000
00010000
00000000
00000000
,
00001000
00001000
01000000
01000000
,
00010000
00010000
00100000
00001000
,
00010000
00010000
00000100
00000100
,
00002000
00000000
00000000
00000010
00000000
00003010
00000000
00000000
,
00001001
00000000
00000000
00001000
00000100
00001000
00000000
00000100
,
00000000
00010000
00001000
00000000
00010000
00000000
00001000
00000000
,
00100000
00000000
00000000
00010000
10000000
00010000
00000000
01000000
,
00000000
00100000
01000000
00000000
00100000
00000000
10000000
00000000
,
20020000
00000000
30030000
00000000
00000000
00000000
00000000
02200000
,
00000000
00000000
03300000
00000000
,
00011000
00000000
00000000
00000000
00000000
00000000
00000000
00000110
,
00000000
00000100
00000010
00000000
00002002
00000000
00003003
00000000
,
00000001
00000100
00001000
00010000
,
00100000
00010000
00001000
00000100
,
00000001
00000010
00001000
00010000
,
01000000
00010000
00001000
00000010
,
00000001
00000001
00000100
00000100
,
00001000
00001000
00010000
00010000
,
00001000
00010000
00001000
00000000
00010000
00001000
00010000
00000000
,
00022000
00000000
00000000
00033000
,
00011000
00000000
00100000
00010000
00100000
00000000
01000000
10000000
,
00000000
01000000
00100000
00000000
00010000
00000000
01000000
00000000
,
00011000
00000000
00001000
00010000
00001000
00000000
00010000
00000100
,
00000000
00001000
00000100
00000000
00000010
00000000
00000001
00000000
,
00001001
00000000
00001000
00000010
00001000
00000000
00000100
00010000
,
00000000
00001000
00010000
00000000
00001000
00000000
00100000
00000000
,
10010000
00000000
10000000
00100000
10000000
00000000
00010000
01000000
,
00000000
00100000
00100000
00000000
20020000
00000000
30030000
00000000
,
10000000
01000000
00100000
00000000
01000000
00100000
00001000
00000000
,
00010000
00000100
00001000
00000000
00001001
00000000
00000110
00000000
,
00000001
00000100
00000010
00000000
00000100
00000010
00010000
00000000
,
00001000
00001000
00001000
00000000
00011000
00000000
00100000
00000000
,
00010000
00010000
00010000
00000000
01010000
00000000
10000000
00000000
,
00100000
00100000
00100000
00000000
01000000
00000000
00020000
00000000
,
00130000
00100000
00100000
00000000
00001000
00001000
00001000
00010000
,
00000000
00010000
00001000
00000000
00022000
00000000
00033000
00000000
,
00000100
00001000
00000100
00010000
,
00001000
00000000
00000000
00001000
00000000
00000000
00001000
00000000
00000000
00000000
00000000
00000000
00100000
00000000
00000000
00000000
,
00001000
00000000
00010000
00000000
00001000
01000000
00010000
00000000
,
01000000
00001000
00000000
00022000
00000000
00000000
00033000
00000000
,
00010100
00010100
00101000
00101000
,
00001000
00010000
00001000
00000000
01000000
01000000
00000000
00000000
,
01001000
01001000
00010010
00010010
,
00010000
00001000
00000000
00001000
00010000
00000000
00000010
00000000
,
00002002
00003003
00000000
00000000
;

//--------------- dance-double - forcednature ----------------
#NOTEDATA:;
#STEPSTYPE:dance-double;
#DESCRIPTION:forcednature;
#DIFFICULTY:Hard;
#METER:14;
#RADARVALUES:0,0,0,0,0;
#CREDIT:forcednature;
#NOTES:
00000000
00000000
00000000
00000000
,
00000000
00000000
00000000
00000000
,
00000000
00000000
00000000
00000000
,
00000000
00000000
00000000
00000000
,
00000000
00000000
00000000
00000000
,
00000000
00000000
00000000
00000000
,
00010000
00001000
00000010
00001000
00010000
00001000
00000010
00001000
,
00010000
00010000
00001000
00001000
00000100
00000100
00000001
00000001
,
00000010
00000100
00000010
00000100
00000010
00000100
00000010
00000100
00000010
00000100
00000010
00000100
00000010
00000100
00000010
00000100
,
00000000
00000000
00000000
00010000
00010000
00001000
00011000
00000000
,
01000000
00010000
00100000
10000000
00100000
00010000
01000000
00001000
,
00100000
01000000
00010000
00001000
00000010
00000100
00010000
00000000
,
00001000
00000010
00000001
00000100
00001000
00000100
00000001
00000010
,
00001000
00000000
00000000
00011000
00000000
00000000
00010000
00000000
01000000
00100000
01000000
00000000
10000000
00000000
00000000
00000000
,
00100000
00010000
00100000
10000000
01000000
00010000
00001000
00000010
,
00000001
00000010
00000001
00000000
00000100
00000000
00001000
00000000
00000100
00000000
00000001
00000000
00000010
00000000
00000000
00000000
,
00001000
00000000
00010000
00000000
01000000
00000000
00100000
00000000
00001000
00000000
00010000
00001000
00010000
00000000
00000100
00000000
,
00001100
00000000
00000000
00000000
00000000
00000000
00000001
00000010
00000001
00000000
00000100
00000000
00001000
00000000
00011000
00000000
,
00000000
00010000
00100000
10000000
01000000
00010000
00001000
00010000
,
01000000
10000000
00100000
00010000
00001000
00000010
00000001
00000000
,
00000100
00001000
00000100
00000001
00000010
00001000
00010000
01000000
,
10000000
00000000
00100000
00000000
00010000
00000000
00100000
10000000
00100000
00000000
00000000
00000000
01100000
00000000
00000000
00000000
,
10000000
01000000
00010000
01000000
10000000
01000000
00010000
00000100
,
00001000
00000001
00000010
00001000
00010000
00011000
00000000
00001000
,
00000010
00000000
00000001
00000000
00000100
00000000
00001000
00000000
00010000
00001000
00010000
00001000
00010000
00001000
00010000
00001000
,
00010000
00100000
10000000
00000000
20020000
00000000
30030000
00000000
,
00000000
10000000
01000000
00010000
00001000
00000000
00100000
00020000
,
00000000
00030000
00000000
00101000
00000000
00010100
00000000
00000000
,
00000000
00000001
00000100
00001000
00010000
00000000
00000010
00002000
,
00000000
00003000
00000000
00010010
00000000
01001000
00000000
00000000
,
01000000
00010000
00100000
00010000
01000000
00010000
00100000
00010000
,
00001000
00000100
00001000
00000010
00001000
00000100
00001000
00000010
,
00000100
00000001
00000010
00000001
00000100
00000001
00000010
00000001
,
00000100
00000010
00000100
00000010
00000100
00000010
00000100
00000010
00000100
00000010
00000100
00000010
00001000
00000000
00000000
00000000
,
00002002
00000000
00000000
00003003
00000000
00000000
00000001
00000010
00000001
00000000
00000010
00000000
00000100
00000000
00002000
00000000
,
00003000
00000000
00000100
00000000
00010000
00000000
00001000
00010000
00002000
00000000
00000000
00003000
00100000
00010000
00100000
00010000
,
20000000
00000000
00000000
30000000
00000000
00000000
00010000
01000000
00010000
00000000
01000000
00000000
00001000
00000000
00020000
00000000
,
00030000
00000000
00000010
00000000
00001000
00000000
00000010
00000100
00000020
00000000
00000000
00000000
00001030
00000000
00000000
00000000
,
00002002
00000000
00000000
00000000
00003003
00000000
00001000
00000100
00010000
00000000
00001000
00000000
00000000
00000000
00201000
00000000
,
00000000
00000000
00310000
00000000
01000000
00000000
01000000
00000000
01000000
00000000
00000000
00000000
00100000
10000000
00100000
10000000
,
00020000
00000000
00000000
00000000
00030000
00000000
01000000
00010000
01000000
00000000
00001000
00000000
00000000
00000000
00011000
00000000
,
00000000
00010100
00010100
00000000
00000120
00000000
00000031
00000000
,
00002000
00000100
00000001
00000010
,
00023000
01000000
10000000
00100000
,
00032000
00000100
00000001
00000010
,
00023000
01000000
10000000
00100000
,
00031000
00000100
00001000
00000010
00001000
00000100
00001000
00000010
,
00000100
00000100
00001000
00001000
00010000
00010000
00100000
00100000
,
01000000
00100000
01000000
00100000
01000000
00100000
01000000
00100000
10000000
00010000
10000000
00010000
10000000
00010000
10000000
00010000
,
00200000
00000000
00000000
00000000
00000000
01300000
01100000
00000000
,
10000000
01000000
00010000
00001000
00100000
00010000
00100000
00001000
,
00000010
00000000
00000100
00000000
00001000
00000000
00000001
00000000
00000100
00000000
00000000
00000000
00000010
00001000
00000010
00001000
,
00000001
00000100
00001000
00010000
00000010
00001000
00000010
00010000
,
00100000
00000000
01000000
00000000
00010000
00000000
10000000
00000000
01000000
00000000
00000000
00000000
00100000
00010000
00100000
00010000
,
10000000
01000000
00010000
00001000
00100000
00010000
00100000
00001000
,
00000010
00000000
00000100
00000000
00001000
00000000
00000001
00000000
00000100
00000000
00000000
00000000
00000010
00001000
00000010
00001000
,
00000001
00000100
00001000
00010000
00000010
00001000
00000100
00000110
,
00000000
00011000
00011000
00000000
02200000
00000000
03300000
00000000
,
10000000
00000000
01000000
00000000
00100000
00000000
01000000
00100000
00010000
00000000
00100000
00000000
00001000
00000000
00010000
00001000
,
00010000
00000000
00000100
00000000
00001000
00000000
00000100
00000010
00000001
00000000
00000000
00000000
00001000
00000010
00001000
00000010
,
00000100
00000000
00000001
00000000
00000010
00000000
00000100
00001000
00000100
00000000
00010000
00000000
00001000
00000000
00010000
00001000
,
00100000
00000000
00100000
00000000
00100000
00000000
00010000
10000000
01000000
00000000
00000000
00000000
01100000
00000000
00000000
00000000
,
10000000
00000000
01000000
00000000
00010000
00000000
00001000
00010000
00001000
00000000
00010000
00001000
00100000
00000000
00000000
00000000
,
00010000
00000000
00010000
00000000
00010000
01000000
00001000
00010000
00000020
00000000
00000000
00000000
00002030
00000000
00000000
00000000
,
00003001
00000010
00000001
00000000
00000010
00000100
00000010
00000000
00000100
00001000
00000100
00010000
00001000
00000000
00011000
00000000
,
00000000
00101000
00101000
00000000
02100000
00000000
13000000
00000000
,
01000000
00000000
00010000
00000000
00001000
00000010
00000001
00000000
,
00000010
00001000
00010000
00000000
00001000
00000010
00000001
00000000
,
00000100
00000000
00001000
00000000
00010000
00100000
10000000
00100000
,
00010000
00100000
00000000
02200000
00000000
00000000
03300000
00000000
,
10000000
01000000
00010000
01000000
10000000
01000000
00010000
00001000
,
00000010
00000000
00000001
00000000
00000010
00000000
00001000
00000000
00000010
00000000
00002002
00000000
00000000
00003003
00000000
00000000
,
00000001
00000000
00000100
00000000
00001000
00000000
00010000
00000000
00100000
01000000
00100000
01000000
00010000
10000000
00010000
10000000
,
00000000
10010000
00000000
10000000
01000000
00010000
00001000
00000000
,
00022000
00033000
00000000
00000000
;
