#VERSION:0.83;
#TITLE:Music-U;
#SUBTITLE:;
#ARTIST:Qrispy Joybox feat.mao;
#TITLETRANSLIT:;
#SUBTITLETRANSLIT:;
#ARTISTTRANSLIT:;
#GENRE:ELECTRIC DANCE WAVE;
#CREDIT:;
#MUSIC:Music-U.ogg;
#BANNER:Music-U.png;
#BACKGROUND:Music-U-bg.png;
#CDTITLE:./CDTitles/pnm 19 TUNE STREET.png;
#SAMPLESTART:67.489;
#SAMPLELENGTH:15.000;
#SELECTABLE:YES;
#OFFSET:0.537;
#BPMS:0.000=152.000;
#STOPS:;
#TIMESIGNATURES:168.000=6=4,
174.000=4=4
;
#BGCHANGES:0.000=../BGAs/19po.mp4=1.000=0=0=0=StretchNoLoop====,
99999.000=-nosongbg-=1.000=0=0=0=StretchNoLoop====
;
#FGCHANGES:;

//--------------- dance-single - forcednature ----------------
#NOTEDATA:;
#STEPSTYPE:dance-single;
#DESCRIPTION:forcednature;
#DIFFICULTY:Beginner;
#METER:1;
#RADARVALUES:0,0,0,0,0;
#CREDIT:forcednature;
#NOTES:
0000
0000
0000
0000
,
0000
0000
0000
0000
,
0000
0000
0000
0000
,
0000
0000
0000
0000
,
0000
0000
0000
0000
,
1000
0000
0000
0000
,
0000
0000
0000
0000
,
0000
0000
0000
0000
,
0000
0000
0000
0000
,
0001
0000
0000
0000
,
0000
0000
0000
0000
,
0000
0000
0000
0000
,
0000
0000
0000
0000
,
0100
0000
0000
0000
,
0000
0000
0000
0000
,
0000
0000
0000
0000
,
0000
0000
0000
0000
,
0010
0000
0000
0000
,
0000
0000
0000
0000
,
0000
0000
0000
0000
,
0000
0000
0000
0000
,
1000
0000
0000
0000
,
0000
0000
0000
0000
,
0000
0000
0000
0000
,
0000
0000
0000
0000
,
0001
0000
0000
0000
,
0000
0000
0000
0000
,
0000
0000
0000
0000
,
0000
0000
0000
0000
,
0010
0000
0000
0000
,
0000
0000
0000
0000
,
0000
0000
0000
0000
,
0000
0000
0000
0000
,
0100
0000
0000
0000
,
0000
0000
0000
0000
,
1000
0000
0000
0000
,
0000
0000
0000
0000
,
0000
0000
0000
0000
,
0000
0000
0000
0000
,
0001
0000
0000
0000
,
0000
0000
0000
0000
,
0100
0000
0000
0000
,
0000
0000
0000
0000
,
0000
0000
1001
0000
,
0000
0000
0000
0000
,
0000
0000
0000
0000
,
0000
0000
0000
0000
,
0000
0000
1000
0000
,
0000
0000
0000
0000
,
0000
0000
0000
0000
,
0000
0000
0000
0000
,
0000
0000
0001
0000
,
0000
0000
0000
0000
,
0000
0000
0000
0000
,
0000
0000
0000
0000
,
0000
0000
0100
0000
,
0000
0000
0000
0000
,
0000
0000
0000
0000
,
0000
0000
0000
0000
,
0000
0000
0010
0000
,
0000
0000
0000
0000
,
0000
0000
1000
0000
,
0000
0000
0000
0000
,
0000
0000
0001
0000
,
0000
0000
0000
0000
,
0000
0000
0100
0000
,
0000
0000
0000
0000
,
0000
0000
0000
0000
,
0000
0000
0000
1001
;

//--------------- dance-single - forcednature ----------------
#NOTEDATA:;
#STEPSTYPE:dance-single;
#DESCRIPTION:forcednature;
#DIFFICULTY:Easy;
#METER:3;
#RADARVALUES:0,0,0,0,0;
#CREDIT:forcednature;
#NOTES:
0000
0000
0000
0000
,
0000
0000
0000
0000
,
0000
0000
0000
0000
,
0000
0000
0000
0000
,
0000
0000
0000
0000
,
1000
0000
0000
0000
,
0001
0000
0001
0000
,
0001
0000
0000
0000
,
1000
0000
0000
0000
,
1001
0000
0000
0000
,
0001
0000
0100
0000
,
0001
0000
0000
0000
,
0100
0000
0100
0000
,
0010
0000
0000
0000
,
1000
0000
0010
0000
,
1000
0000
0000
0000
,
0001
0000
0001
0000
,
0000
1000
0000
1000
,
0000
1000
0001
0000
,
1001
0000
1000
0000
,
0010
0000
0000
0000
,
0100
0000
0001
0000
,
0010
0000
0000
0000
,
0100
0000
0010
0000
,
0001
0000
0000
0000
,
1000
0000
0010
0000
,
0100
0000
0001
0000
,
1001
0000
0000
0000
,
1000
0000
0100
0000
,
1000
0000
0000
0000
,
0001
0000
0100
0000
,
1001
0000
0000
0000
,
0001
0000
0010
0000
,
0100
0000
0000
0000
,
2002
0000
3003
0000
,
1000
0000
0010
0000
,
1000
0000
0000
0000
,
1000
0000
0100
0000
,
0010
0000
0000
0000
,
0001
0000
0010
0000
,
0001
0000
0000
0000
,
0001
0000
0100
0000
,
0010
0000
2002
0000
,
0000
3003
1000
0000
,
0000
0000
0100
0000
,
1000
0000
0100
0000
,
0000
0000
0010
0000
,
0010
0000
0001
0000
,
0000
0000
0100
0000
,
0001
0000
0100
0000
,
0000
0000
0010
0000
,
0010
0000
1000
0000
,
0000
0000
1001
0000
,
0000
0000
0110
0000
,
0000
0000
0001
0000
,
0000
0000
1000
0000
,
0010
0000
0100
0000
,
0000
0000
0001
0000
,
0010
0000
0100
0000
,
0000
0000
1001
0000
,
0000
0000
1000
0000
,
0010
0000
1000
0000
,
0000
0000
0001
0000
,
0010
0000
0001
0000
,
0000
0000
1000
0000
,
0100
0000
1000
0000
,
0000
0000
0001
0000
,
0100
0000
0000
0010
,
0000
0010
0000
1001
;

//--------------- dance-single - forcednature ----------------
#NOTEDATA:;
#STEPSTYPE:dance-single;
#DESCRIPTION:forcednature;
#DIFFICULTY:Medium;
#METER:7;
#RADARVALUES:0,0,0,0,0;
#CREDIT:forcednature;
#NOTES:
0000
0000
0000
0000
,
0000
0000
0000
0000
,
0000
0000
0000
0000
,
0000
0000
0000
0000
,
0000
0000
0000
0000
,
1001
0000
0100
0000
,
0010
0010
0010
0000
,
0110
0000
0000
0000
0001
0000
0000
1000
,
0000
1000
0000
1000
0000
0000
0000
0000
,
1001
1001
0000
0001
,
0100
0010
1000
0000
,
1001
1001
0000
1000
,
0100
0010
0001
0000
,
0110
0110
0000
0100
,
1000
0001
0100
0000
,
0110
0110
0000
0010
,
1000
0001
0000
1001
,
0000
1000
0100
1000
,
0010
0100
0000
0001
,
1001
0000
1000
0100
,
0001
0100
1000
0000
,
0001
0010
0001
0000
,
0100
0001
0100
0010
,
0000
1000
0001
0100
,
1000
0000
0100
0002
,
0003
1000
0010
1000
,
0100
0000
0010
0000
0000
0110
0000
0000
,
1001
0000
0001
0100
,
0010
1000
0001
0000
,
1000
0000
0100
0001
,
0100
1000
0001
0000
,
0110
0000
1000
0010
,
1000
0100
0010
0000
,
0001
0000
0010
0000
0001
0000
0000
2002
,
0000
0000
0000
0000
0000
0000
0000
3003
0000
0000
0000
0000
0000
0000
0000
0000
,
1001
0001
0100
0001
,
1000
0010
1000
0000
,
0100
0100
0010
0100
,
0100
0010
0001
0000
,
1001
1000
0100
0010
,
0100
1000
0001
0000
,
0110
0100
0010
0000
,
1001
0000
0000
0220
0000
0000
0000
0000
,
0000
0330
0010
1001
,
1000
0100
0010
0001
,
0100
0000
0010
1001
,
0001
0010
0100
1000
,
0010
0000
0100
1001
,
1000
0100
0010
0001
,
0100
0000
0100
1001
,
0001
0010
1000
0010
,
0001
0000
1000
0110
,
0001
1000
0010
0100
,
0001
0000
0001
0110
,
1000
0001
0010
0100
,
1000
0000
0010
1001
,
0100
1000
0001
0100
,
0010
0000
1000
0110
,
0001
0010
0100
1000
,
0020
0000
0130
0001
,
0100
1000
0100
0001
,
1000
0000
0100
1000
,
0100
0000
0001
0000
0100
0000
0000
1001
,
0000
0000
0001
0100
,
1000
0100
0001
1000
,
0010
0000
1000
0100
,
0001
0000
0100
0000
1000
0000
0000
1001
,
0000
0000
0000
0000
0000
0001
0100
0000
,
0010
0000
0110
0000
0100
0000
0010
1000
;

//--------------- dance-single - forcednature ----------------
#NOTEDATA:;
#STEPSTYPE:dance-single;
#DESCRIPTION:forcednature;
#DIFFICULTY:Hard;
#METER:11;
#RADARVALUES:0,0,0,0,0;
#CREDIT:forcednature;
#NOTES:
0000
0000
0000
0000
,
0000
0000
0000
0000
,
0000
0000
0000
0000
,
0000
0000
0000
0000
,
0000
0000
0000
0000
,
1001
0000
1000
0000
0100
1000
0000
0010
,
0000
0010
0100
0001
0000
0021
0000
0130
,
0000
1000
0001
0100
0001
1000
0000
1100
,
0000
0110
0000
0011
0000
0001
1000
0010
,
0100
0000
1001
0000
0001
0010
0100
0010
,
0000
0001
1000
0100
0000
0110
0000
0010
,
0001
0000
1001
0000
1000
0010
0100
0002
,
0000
1003
0001
0100
0000
0110
0000
0010
,
1000
0000
1001
0000
0001
0010
0001
0100
,
0000
0010
1000
0100
0000
1100
0000
0001
,
0010
0000
1001
0000
1000
0010
0100
0002
,
0000
0010
0000
1003
0000
0000
1001
0000
,
1000
0100
0010
0000
0011
0000
1100
0000
,
1001
0000
0001
0100
0000
0010
0010
0000
,
1001
0000
1000
0100
0010
0100
1000
0010
,
0000
0110
0000
0100
0001
0010
0001
1000
,
0000
0010
0100
0001
0010
0000
0100
1000
,
0000
1010
0000
0010
0100
0001
1000
0100
,
0000
0010
0001
0100
1000
0000
0100
0001
,
0000
0010
0000
0110
0000
2000
0001
3001
,
0000
1000
0010
1000
0100
0000
0010
0002
,
0000
0203
0000
1300
0000
0110
0000
0000
,
1000
0100
0010
0100
1000
0001
0001
0100
,
0000
0010
0100
0001
1000
0100
0010
0010
,
0000
0001
0100
1000
0100
0000
0010
1000
,
0000
0001
0000
0021
0000
0130
1000
0000
,
0001
0100
0010
0100
0001
1000
1000
0010
,
0000
1000
0100
0010
0001
0100
0010
0010
,
0000
1000
0001
0100
0020
0000
0130
2002
,
0000
0000
0000
0000
0000
0000
0000
3003
0000
0000
0000
0000
0000
0000
0000
0000
,
1100
0000
0001
0010
0001
0100
0010
1000
,
0000
1000
0100
0001
0000
0100
1000
1000
,
0010
0000
0110
0000
0100
0001
0010
0001
,
0000
1000
0010
0000
0100
0001
0001
0010
,
0100
1000
0010
1000
0000
1200
0000
0310
,
0001
0100
0001
0020
0000
0130
0100
1000
,
0002
0000
0203
0000
0310
1000
0001
0010
,
0100
0100
0010
2002
0000
0000
0000
0000
,
0000
3003
1001
0101
,
0001
0010
0001
2000
0000
3200
0000
0302
,
0000
0103
0000
0010
0001
0100
0010
1000
,
0001
0010
0000
0110
0000
0100
1000
0020
,
0000
0000
0032
0000
0000
0003
0000
0000
1010
0000
0000
0000
1100
0000
0000
0000
,
0001
0100
0001
0020
0000
2030
0000
3020
,
0000
0032
0000
1003
0010
0100
0001
0010
,
0001
0100
0000
1020
0000
0001
0000
0031
,
0000
0010
1000
0000
0011
0000
1100
0000
,
0001
0010
0100
0002
0000
0103
0100
2000
,
0000
3010
0000
0000
1001
0000
0110
0000
,
0001
1000
0010
0200
0000
1300
0100
0001
,
0000
0000
0022
0000
0000
0033
0000
0000
0110
0000
0000
0000
1001
0000
0000
0000
,
1000
0100
1000
0020
0000
0031
0010
2000
,
0000
3001
0000
0010
0110
0000
1001
0000
,
0001
0100
0010
2000
0000
3001
0010
0100
,
0000
0100
0010
0001
1000
0001
0100
1000
,
0100
0001
1000
0010
0001
0010
1000
0001
,
0100
0110
0000
0000
0001
1000
0100
0001
,
0100
1000
0001
0010
1000
0010
0001
1001
,
0000
0110
0000
0000
1000
0010
0100
1000
,
0001
0010
1000
0001
0100
0001
1000
0020
,
0000
0230
0000
0301
1000
0100
0001
1000
,
0010
0100
1000
0001
0010
1000
0010
0012
,
0000
0000
0003
0000
0001
0100
1000
0000
,
1100
0000
0101
0000
0011
0000
0100
1001
;

//--------------- dance-double - forcednature ----------------
#NOTEDATA:;
#STEPSTYPE:dance-double;
#DESCRIPTION:forcednature;
#DIFFICULTY:Easy;
#METER:3;
#RADARVALUES:0,0,0,0,0;
#CREDIT:forcednature;
#NOTES:
00000000
00000000
00000000
00000000
,
00000000
00000000
00000000
00000000
,
00000000
00000000
00000000
00000000
,
00000000
00000000
00000000
00000000
,
00000000
00000000
00000000
00000000
,
00001000
00000000
00000000
00000000
,
00010000
00000000
00010000
00000000
,
00010000
00000000
00000000
00000000
,
00001000
00000000
00000000
00000000
,
00011000
00000000
00000000
00000000
,
01000000
00000000
00010000
00000000
,
01000000
00000000
00000000
00000000
,
00100000
00000000
00100000
00000000
,
10000000
00000000
00000000
00000000
,
01000000
00000000
10000000
00000000
,
01000000
00000000
00000000
00000000
,
00100000
00000000
00100000
00000000
,
00000000
00010000
00000000
00010000
,
00000000
00010000
10000000
00000000
,
10010000
00000000
00010000
00000000
,
01000000
00000000
00000000
00000000
,
00001000
00000000
00010000
00000000
,
00001000
00000000
00000000
00000000
,
00010000
00000000
00000100
00000000
,
00001000
00000000
00000000
00000000
,
00000001
00000000
00000100
00000000
,
00000010
00000000
00001000
00000000
,
00001001
00000000
00000000
00000000
,
00000001
00000000
00000010
00000000
,
00000100
00000000
00000000
00000000
,
00001000
00000000
00000100
00000000
,
00010000
00000000
00000000
00000000
,
00001000
00000000
00001000
00000000
,
00100000
00000000
00000000
00000000
,
20020000
00000000
30030000
00000000
,
10000000
00000000
00100000
00000000
,
10000000
00000000
00000000
00000000
,
01000000
00000000
00100000
00000000
,
00010000
00000000
00000000
00000000
,
00100000
00000000
00001000
00000000
,
00010000
00000000
00000000
00000000
,
00000010
00000000
00001000
00000000
,
00000001
00000000
00002002
00000000
,
00000000
00003003
00001000
00000000
,
00000000
00000000
00000100
00000000
,
00001000
00000000
00000100
00000000
,
00000000
00000000
00010000
00000000
,
00010000
00000000
00001000
00000000
,
00000000
00000000
01000000
00000000
,
00010000
00000000
01000000
00000000
,
00000000
00000000
00100000
00000000
,
00100000
00000000
10000000
00000000
,
00000000
00000000
10010000
00000000
,
00000000
00000000
01100000
00000000
,
00000000
00000000
00010000
00000000
,
00000000
00000000
01000000
00000000
,
00001000
00000000
00010000
00000000
,
00000000
00000000
00001000
00000000
,
00010000
00000000
00000010
00000000
,
00000000
00000000
00001001
00000000
,
00000000
00000000
00001000
00000000
,
00000100
00000000
00010000
00000000
,
00000000
00000000
00001000
00000000
,
00100000
00000000
00010000
00000000
,
00000000
00000000
01000000
00000000
,
01000000
00000000
00100000
00000000
,
00000000
00000000
10000000
00000000
,
00010000
00000000
00000000
00100000
,
00000000
00001000
00000000
00011000
;

//--------------- dance-double - forcednature ----------------
#NOTEDATA:;
#STEPSTYPE:dance-double;
#DESCRIPTION:forcednature;
#DIFFICULTY:Medium;
#METER:7;
#RADARVALUES:0,0,0,0,0;
#CREDIT:forcednature;
#NOTES:
00000000
00000000
00000000
00000000
,
00000000
00000000
00000000
00000000
,
00000000
00000000
00000000
00000000
,
00000000
00000000
00000000
00000000
,
00000000
00000000
00000000
00000000
,
00011000
00000000
01000000
00000000
,
00010000
00010000
00010000
00000000
,
10010000
00000000
00000000
00000000
10000000
00000000
00000000
01000000
,
00000000
01000000
00000000
01000000
00000000
00000000
00000000
00000000
,
01100000
01100000
00000000
00100000
,
00001000
00010000
00000100
00000000
,
00011000
00011000
00000000
00001000
,
00010000
00000010
00001000
00000000
,
00001001
00001001
00000000
00000001
,
00000010
00000100
00010000
00000000
,
00011000
00011000
00000000
00001000
,
01000000
00010000
00000000
10010000
,
00000000
10000000
01000000
10000000
,
00010000
00100000
00000000
00001000
,
00011000
00000000
00010000
00000100
,
00001000
00000001
00000010
00000000
,
00000100
00001000
00000100
00000000
,
00010000
00001000
01000000
00010000
,
00000000
10000000
00100000
10000000
,
01000000
00000000
00100000
02000000
,
03000000
00100000
00010000
00100000
,
00001000
00000000
00010000
00000000
00000000
00011000
00000000
00000000
,
00010100
00000000
00000100
00001000
,
00000001
00001000
00000010
00000000
,
00000100
00000000
00000001
00000010
,
00000100
00000010
00000100
00000000
,
00001001
00000000
00001000
00000100
,
00010000
00001000
00100000
00000000
,
00010000
00000000
01000000
00000000
00100000
00000000
00000000
20020000
,
00000000
00000000
00000000
00000000
00000000
00000000
00000000
30030000
00000000
00000000
00000000
00000000
00000000
00000000
00000000
00000000
,
10010000
10000000
01000000
10000000
,
00010000
00100000
00001000
00000000
,
00010000
00010000
00000100
00010000
,
00010000
00001000
00000010
00000000
,
00001001
00000001
00000100
00000010
,
00000100
00000001
00001000
00000000
,
00001001
00001000
00000100
00000000
,
00001100
00000000
00000000
00022000
00000000
00000000
00000000
00000000
,
00000000
00033000
00011000
00011000
,
01000000
00010000
10000000
00100000
,
01000000
00000000
00010000
10010000
,
10000000
01000000
10000000
00010000
,
00100000
00000000
00001000
00011000
,
00010000
00000100
00001000
00000001
,
00000010
00000000
00000100
00001001
,
00001000
00000010
00010000
00001000
,
01000000
00000000
00010000
01100000
,
10000000
00010000
00100000
00001000
,
00010000
00000000
00000100
00001001
,
00000010
00000001
00000100
00000010
,
00001000
00000000
00000100
00011000
,
00100000
00001000
00010000
00001000
,
01000000
00000000
00100000
10010000
,
10000000
01000000
00100000
00010000
,
00200000
00000000
00301000
00010000
,
00000010
00001000
00000001
00000100
,
00000001
00000000
00000010
00000100
,
00001000
00000000
00000100
00000000
00010000
00000000
00000000
00011000
,
00000000
00000000
00001000
01000000
,
00010000
10000000
00100000
01000000
,
00010000
00000000
10000000
01000000
,
00010000
00000000
00001000
00000000
00100000
00000000
00000000
10010000
,
00000000
00000000
00000000
00010000
,
01000000
00000000
00001000
00000000
00010000
00000000
00001000
00010000
;

//--------------- dance-double - forcednature ----------------
#NOTEDATA:;
#STEPSTYPE:dance-double;
#DESCRIPTION:forcednature;
#DIFFICULTY:Hard;
#METER:11;
#RADARVALUES:0,0,0,0,0;
#CREDIT:forcednature;
#NOTES:
00000000
00000000
00000000
00000000
,
00000000
00000000
00000000
00000000
,
00000000
00000000
00000000
00000000
,
00000000
00000000
00000000
00000000
,
00000000
00000000
00000000
00000000
,
00011000
00000000
00001000
00000000
00010000
00100000
00000000
10000000
,
00000000
00010000
01000000
00100000
00000000
20100000
00000000
31000000
,
00000000
10000000
00010000
00100000
00010000
10000000
00000000
11000000
,
00000000
01100000
00000000
00110000
00000000
00010000
10000000
01000000
,
00010000
00000000
00011000
00000000
00001000
00000010
00000001
00000010
,
00000000
00000100
00001000
00000001
00000000
00000101
00000000
00001000
,
00000010
00000000
00000110
00000000
00000100
00001000
00010000
00002000
,
00000000
00013000
00100000
10000000
00000000
11000000
00000000
01000000
,
00100000
00000000
00110000
00000000
00001000
00010000
00000100
00001000
,
00000000
00000001
00000010
00002000
00000000
00003010
00000000
00001000
,
00010000
00000000
00011000
00000000
01000000
00010000
10000000
00200000
,
00000000
01000000
00000000
10300000
00000000
00000000
10010000
00000000
,
10000000
01000000
00010000
00000000
00011000
00000000
00010100
00000000
,
00001100
00000000
00000001
00000010
00000000
00000100
00000100
00000000
,
00001001
00000000
00000001
00000100
00001000
00000000
00010000
00001000
,
00000000
00011000
00000000
00010000
00100000
10000000
00010000
10000000
,
00000000
01000000
00010000
00001000
00010000
00000000
00001000
00000010
,
00000000
00000110
00000000
00000100
00001000
00000001
00000100
00001000
,
00000000
00010000
00001000
00010000
00100000
00000000
10000000
00010000
,
00000000
00100000
00000000
01100000
00000000
20000000
00010000
30010000
,
00000000
10000000
01000000
00010000
00001000
00000000
00100000
00020000
,
00000000
00032000
00000000
00003100
00000000
00000110
00000000
00000000
,
00000010
00000001
00000100
00000001
00000010
00000100
00000000
00001100
,
00000000
00001000
00000100
00010000
00001000
00100000
00010000
00010000
,
00000000
01000000
10000000
01000000
00010000
00000000
10000000
00100000
,
00000000
10000000
00000000
12000000
00000000
03010000
00002000
00000000
,
00103000
00010000
00100000
00001000
00000010
00000100
00000100
00001000
,
00000000
00000001
00000100
00001000
00010000
00001000
00010000
00100000
,
00000000
10000000
00010000
01000000
00200000
00000000
01300000
20020000
,
00000000
00000000
00000000
00000000
00000000
00000000
00000000
30030000
00000000
00000000
00000000
00000000
00000000
00000000
00000000
00000000
,
11000000
00000000
00010000
00100000
01000000
00010000
00001000
00100000
,
00000000
00010000
01000000
00001000
00000000
00010000
00000010
00000010
,
00001000
00000000
00001001
00000000
00000001
00000010
00000100
00000010
,
00000000
00000100
00010000
00000000
00001000
00100000
00100000
00010000
,
01000000
10000000
01000000
00010000
00000000
00210000
00000000
01300000
,
10000000
00010000
00100000
00020000
00000000
01030000
01000000
00001000
,
00020000
00000000
00030020
00000000
00001030
00000100
00000010
00000002
,
00000000
00000103
00000010
00002002
00000000
00000000
00000000
00000000
,
00000000
00003003
00001100
00010100
,
00010000
00001000
00100000
00020000
00000000
02030000
00000000
03200000
,
00000000
10300000
00000000
00010000
00100000
01000000
00100000
01000000
,
10000000
00010000
00000000
00110000
00000000
00100000
00001000
00020000
,
00000000
00000000
00030020
00000000
00000000
00000030
00000000
00000000
00001010
00000000
00000000
00000000
00001100
00000000
00000000
00000000
,
00000100
00000010
00000001
00000200
00000000
00000320
00000000
00002030
,
00000000
00023000
00000000
01030000
00100000
01000000
00010000
10000000
,
00100000
01000000
00000000
01020000
00000000
00100000
00000000
00130000
,
00000000
00001000
00010000
00000000
00011000
00000000
00010100
00000000
,
00000100
00001000
00000001
00000020
00000000
00000031
00000001
00000200
,
00000000
00000310
00000000
00000000
00001001
00000000
00001100
00000000
,
00000100
00010000
00001000
00200000
00000000
00310000
10000000
00100000
,
00000000
00000000
02200000
00000000
00000000
03300000
00000000
00000000
01010000
00000000
00000000
00000000
00110000
00000000
00000000
00000000
,
00100000
00001000
00010000
00002000
00000000
00003010
00000100
00002000
,
00000000
00003001
00000000
00000010
00000110
00000000
00001001
00000000
,
00001000
00000100
00010000
00002000
00000000
01003000
00010000
00100000
,
00000000
01000000
10000000
00100000
01000000
10000000
01000000
00010000
,
00100000
00001000
00010000
00000100
00010000
00001000
00000010
00000001
,
00000100
00000101
00000000
00000000
00001000
00000010
00010000
00001000
,
00100000
00010000
01000000
00010000
00100000
01000000
00010000
00011000
,
00000000
00010100
00000000
00000000
00000100
00001000
00000010
00010000
,
00001000
00000010
00000100
00001000
00000001
00000100
00001000
00020000
,
00000000
00230000
00000000
10300000
00010000
01000000
00010000
10000000
,
01000000
00010000
00001000
00100000
00010000
00100000
00001000
00022000
,
00000000
00000000
00033000
00000000
00001000
00000010
00000001
00000000
,
00000101
00000000
00000110
00000000
00001010
00000000
00000100
00001001
;
