#VERSION:0.83;
#TITLE:蟲の棲む処;
#SUBTITLE:;
#ARTIST:かめりあ feat. Nana Takahashi;
#TITLETRANSLIT:Mushi no sumu tokoro;
#SUBTITLETRANSLIT:;
#ARTISTTRANSLIT:Camellia feat. Nana Takahashi;
#GENRE:;
#CREDIT:;
#MUSIC:Mushi no sumu tokoro.ogg;
#BANNER:Mushi no sumu tokoro.png;
#BACKGROUND:Mushi no sumu tokoro-bg.png;
#CDTITLE:./CDTitles/BeatStream AnimTribe.png;
#SAMPLESTART:45.578;
#SAMPLELENGTH:15.000;
#SELECTABLE:YES;
#OFFSET:0.000;
#BPMS:0.000=161.510;
#STOPS:;
#TIMESIGNATURES:0.000=4=4,
248.000=3=4,
257.000=4=4
;
#DISPLAYBPM:161.000;
#BGCHANGES:0.000=Mushi no sumu tokoro.mp4=1.000=0=0=0=StretchNoLoop====,
99999.000=-nosongbg-=1.000=0=0=0=StretchNoLoop====
;
#FGCHANGES:;

//--------------- dance-single - forcednature ----------------
#NOTEDATA:;
#STEPSTYPE:dance-single;
#DESCRIPTION:forcednature;
#DIFFICULTY:Beginner;
#METER:4;
#RADARVALUES:0,0,0,0,0;
#CREDIT:forcednature;
#NOTES:
0000
0000
0000
0000
,
0000
0000
0000
0000
,
0000
0000
0000
0000
,
0000
0000
0000
0000
,
0000
0000
0000
0000
,
0000
0000
0000
0000
,
0000
0000
0000
0000
,
1001
0000
0001
0000
,
0100
0000
0010
0000
,
1001
0000
1000
0000
,
0100
0010
0001
0001
,
2000
0000
0000
0000
,
0000
0000
0000
3000
,
1001
0000
0001
0000
,
0100
0010
0100
0000
,
0001
0000
1000
0000
,
0010
0010
0010
0000
,
1001
0000
1000
0000
,
0100
0010
0100
0000
,
1000
0000
0001
0000
,
0010
0010
0010
0000
,
1001
0000
0000
0000
,
0001
0000
0000
0000
,
0100
0000
0000
0000
,
0010
0000
0000
0000
,
1000
0000
0000
0000
,
0100
0000
0000
0000
,
0010
0000
0000
0000
,
0001
0000
0100
0000
,
0010
0000
1000
0000
,
0001
0000
0000
0000
,
1001
0000
1000
0000
,
0100
0000
0000
0000
,
0010
0000
0001
0000
,
0100
0000
0001
0000
,
1001
0000
1000
0000
,
0100
0000
1000
0000
,
0110
0000
0001
0000
,
0010
0000
0001
0000
,
0100
0000
0001
0000
,
0100
0000
0010
0000
,
0110
0000
0001
0000
,
1001
0000
1000
0000
,
0110
0000
1000
0000
,
0001
0000
0100
0100
,
0100
0000
0010
0000
,
1000
0000
0001
0000
,
1001
0000
0000
0000
,
0110
0000
0000
0000
,
1001
0000
1000
0000
,
0001
0000
0100
0000
,
0110
0000
0010
0000
,
1000
0000
0001
1000
,
0001
0000
0010
0000
,
0100
0000
1000
0000
,
1001
0000
0001
0000
,
0100
0000
0010
1000
,
0010
0000
0100
0000
,
0001
0000
1000
0000
,
0100
0000
0000
0100
0000
0000
0000
0000
,
0010
0000
0000
0010
0000
0000
0000
0000
,
0001
0000
0000
0001
0000
0000
0000
0000
,
1000
0000
0000
1000
0000
0000
0010
0000
,
0000
0010
0000
0000
0100
0000
0000
0100
,
0000
0000
0000
0002
0000
0000
0000
0000
0000
0000
0000
0000
0000
0000
0000
0000
,
0000
0003
0000
2000
0000
0000
0000
0000
,
0000
0000
0000
0000
,
0000
0000
0000
0000
,
0000
0000
0000
0000
,
0000
0000
0000
0000
,
0000
0000
0000
0000
,
0000
0000
0000
0000
0000
0000
0000
3000
0000
0000
0000
0000
0000
0000
0000
0000
0000
0000
0000
0000
0000
0000
0000
0000
;

//--------------- dance-single - forcednature ----------------
#NOTEDATA:;
#STEPSTYPE:dance-single;
#DESCRIPTION:forcednature;
#DIFFICULTY:Easy;
#METER:8;
#RADARVALUES:0,0,0,0,0;
#CREDIT:forcednature;
#NOTES:
0000
0000
0000
0000
,
0000
0000
0000
0000
,
0000
0000
0000
0000
,
0000
0000
0000
0000
,
0000
0000
0000
0000
,
0000
0000
0000
0000
,
0000
0000
0000
0000
,
2002
3003
0001
0100
,
0001
1000
0100
1000
,
2002
0000
0000
0000
3003
0000
0000
0000
1000
0000
0000
0000
0000
0001
0000
0000
,
0001
0100
0010
1000
,
2002
0000
0000
0000
,
0000
0000
0000
3003
,
0110
0000
0001
0000
0010
0100
0010
0000
,
0001
1000
0010
1000
,
0100
0000
1000
0000
0010
0100
0010
0000
,
2000
3200
0320
0032
,
0103
0000
0001
0000
1000
0010
1000
0000
,
0001
0010
0001
0100
,
0020
0000
0030
0000
1000
0001
1000
0000
,
0200
0320
0032
0103
,
0110
0000
1000
0100
,
2000
3000
0001
0100
,
0002
0003
0020
0030
,
0100
0000
2000
3020
,
2030
3000
0002
0023
,
0032
0003
0200
0302
,
0203
0300
0020
0030
,
2000
3000
0002
0003
,
2002
3003
0220
0330
,
2002
0000
3003
1000
,
0100
0000
0010
0001
0010
0000
0100
0000
,
1000
0001
0100
0010
,
1000
0000
0100
0010
0100
0000
1000
0000
,
0001
0100
0010
1000
,
0001
0000
0010
0100
0010
0000
0001
0000
,
1000
0010
1000
0100
,
0010
0000
0001
1000
0001
0000
0100
0000
,
0010
1000
0100
0010
,
0011
0001
1010
1000
,
2002
3003
0100
0010
,
0110
0000
0000
0000
1000
0100
1000
0000
,
0010
1000
0001
0000
,
0101
0001
1100
1000
,
2002
3003
0100
0010
,
1000
0000
0000
1000
0000
0000
0000
0000
0001
0000
0000
0001
0000
0000
0000
0000
,
0010
0000
0000
0010
0000
0000
0000
0000
0200
0000
0000
0000
2300
0000
0000
0000
,
3002
0000
0003
0100
,
0020
0000
0030
1000
,
0100
0100
0010
0010
,
0001
1000
0020
0030
,
0110
0000
0100
0001
0100
0000
0010
1000
,
0010
0000
0100
0001
0100
0000
0010
0000
,
1000
0000
0100
1000
0100
0000
0010
0001
,
0020
0230
2300
3002
,
0203
0000
0310
1000
0010
0000
0100
0001
,
0100
0000
0001
1000
0001
0000
0010
0000
,
0100
0000
0110
0000
0001
1000
0001
0000
,
2000
0000
0000
0000
3200
0000
0000
0000
0310
0000
0000
0010
0000
0000
0000
0000
,
0001
0000
0000
0100
0000
0000
0100
0000
0000
0001
0000
0000
0000
0000
0000
0000
,
1000
0000
0000
0100
0000
0000
1000
0000
0000
0000
0000
0000
0000
0000
0000
0000
,
0010
0000
0000
1000
0000
0000
1000
0000
0000
0010
0000
0000
0000
0000
0000
0000
,
0100
0000
0000
0001
0000
0000
0010
0000
0000
0000
0000
0000
0100
0000
0000
1000
,
0000
0000
0010
0000
0000
0000
0000
0000
0100
0000
0000
0001
0000
0000
1000
0000
,
0000
0000
0000
0200
0000
0000
0000
0000
0000
0000
0000
0000
0000
0000
0000
0000
,
0000
0000
0000
0020
0000
0000
0000
0000
,
0000
0000
0000
0000
,
0000
0000
0000
0000
,
0000
0000
0000
0000
,
0000
0000
0000
0000
0000
0330
0000
0000
0000
0000
0000
0000
0000
0000
0000
0000
;

//--------------- dance-single - forcednature ----------------
#NOTEDATA:;
#STEPSTYPE:dance-single;
#DESCRIPTION:forcednature;
#DIFFICULTY:Medium;
#METER:12;
#RADARVALUES:0,0,0,0,0;
#CREDIT:forcednature;
#NOTES:
0000
0000
0000
0000
,
0000
0000
0000
0000
,
0000
0000
0000
0000
,
0000
0000
0000
0000
,
0000
0000
0000
0000
,
0000
0000
0000
0000
,
0000
0000
0000
0000
,
1001
1000
0100
0010
,
0001
0100
0001
0010
,
1001
0000
0000
0000
0001
0000
0000
0000
0100
0000
0000
0000
0000
0110
0000
0000
,
1001
0000
0000
0110
0000
0000
1000
0001
1000
0001
1000
0001
,
0200
0000
0000
0000
,
0000
0000
0000
0310
,
1002
0000
1003
0100
0010
0010
0001
0000
,
0100
0000
0000
0001
0000
0000
0100
0000
0010
1000
0000
0001
0000
1000
0000
0000
,
0200
0000
0310
0001
0100
0100
0010
0000
,
1000
0100
1000
0010
0100
0001
0010
0001
,
0200
0000
0310
1000
0001
0001
0010
0000
,
0100
0000
0000
1000
0000
0000
0100
0000
0010
0001
0000
1000
0000
0010
0000
0000
,
0100
0000
2001
0000
3001
0001
0010
0000
,
0100
1000
0010
1000
0100
0010
0001
0100
,
0110
0000
0000
0010
1000
0000
0001
0000
,
0020
0000
0030
0010
0001
0000
1000
0000
,
0020
0030
0200
0300
,
0001
0000
2000
3200
,
0320
0000
0030
0100
1000
0000
0001
0000
,
0200
0000
0300
0100
0001
0000
1000
0000
,
0200
0310
0002
0103
,
0020
1030
0002
0003
,
2002
3003
0220
0330
,
2002
0000
0000
0000
3003
0000
1000
0100
,
0010
0001
1000
0010
0100
0010
1000
0001
,
0010
0001
0100
0010
1000
0001
0010
0100
,
1000
0001
0100
0001
1000
0100
1000
0010
,
0100
0010
1000
0001
0010
0100
0010
0001
,
1000
0010
0100
0010
1000
0001
0010
0100
,
1000
0001
0100
0001
0010
0001
1000
0010
,
2000
0000
3100
0010
0002
0000
0000
0103
,
0020
0000
0030
1000
0001
0010
0001
0100
,
0010
1000
0001
0010
0100
1000
0001
0100
,
0010
0000
1000
0000
0001
0000
0010
0000
0001
0000
0000
0100
0000
0000
0010
0000
,
2000
0000
3100
0001
0100
0000
1000
0010
,
0001
0000
0020
0000
0000
0000
0130
0000
0001
0000
0000
0001
0000
0000
0010
0000
,
0100
1000
0001
0100
0010
1000
0001
0010
,
0001
0000
1000
0000
0010
0000
0100
0000
0001
0000
0000
0001
0000
0000
0010
0000
,
0001
0000
0000
0100
0000
0000
1010
0000
1000
0000
0000
0100
0000
0000
0011
0000
,
0001
0000
0000
1000
0000
0000
0110
0000
2000
0000
0000
0000
3002
0000
0000
0000
,
0013
0000
0010
0000
0100
0000
1000
0001
,
0100
0100
0010
1000
,
0001
0010
0001
0010
0100
1000
0100
1000
,
0001
0100
0010
1000
0010
0100
0001
0000
,
1001
0000
1000
0100
1000
0010
0100
0010
,
1000
0001
0010
0001
0100
0010
1000
0000
,
1001
0000
0001
0100
0001
0010
0100
1000
,
0001
0100
0001
0010
0100
1000
0010
1000
,
1001
0000
1000
0010
0100
0010
1000
0001
,
0010
0100
0010
0001
1000
0010
0100
0001
,
2000
0000
3100
0010
0100
1000
0001
0100
,
0010
0000
0001
0000
0010
0000
0100
0000
0010
0000
0000
0010
0000
0000
1000
0000
,
0001
0000
0000
0011
0000
0000
0110
0000
0000
1100
0000
0000
0001
0000
0000
0000
,
1010
0000
0000
0110
0000
0000
0101
0000
0001
0000
0000
1000
0000
0000
0001
0000
,
0010
0000
0000
0101
0000
0000
1100
0000
0000
1001
0000
0000
0110
0000
0000
0000
,
1010
0000
0000
0110
0000
0000
0101
0000
0000
0000
0000
0000
0011
0000
0000
0110
,
0000
0000
1100
0000
0000
0000
0000
0000
1001
0000
0000
0110
0000
0000
1001
0000
,
0000
0000
0000
0220
0000
0000
0000
0000
0000
0000
0000
0000
0000
0000
0000
0000
,
0000
0330
0000
2002
0000
0000
0000
0000
,
0000
0000
0000
0000
,
0000
0000
0000
0000
,
0000
0000
0000
0000
,
0000
0000
0000
0000
0000
3003
0000
0000
0000
0000
0000
0000
0000
0000
0000
0000
;

//--------------- dance-single - forcednature ----------------
#NOTEDATA:;
#STEPSTYPE:dance-single;
#DESCRIPTION:forcednature;
#DIFFICULTY:Hard;
#METER:15;
#RADARVALUES:0,0,0,0,0;
#CREDIT:forcednature;
#NOTES:
0000
0000
0000
0000
,
0000
0000
0000
0000
,
0000
0000
0000
0000
,
0000
0000
0000
0000
,
0000
0000
0000
0000
,
0000
0000
0000
0000
,
0000
0000
0000
0000
,
1001
0000
0001
0100
0001
0100
0010
1000
,
0010
1000
0100
0010
0100
0010
0001
1000
,
1001
0000
0000
0000
1000
0100
1000
0100
0010
0001
0010
0001
0000
0101
0000
0000
,
1010
0000
0000
0000
0000
0000
1100
0000
0000
0000
0000
0000
0001
0000
0010
0001
0010
0000
0100
0000
1000
0000
0001
0000
,
0200
0001
0010
1000
,
0010
0001
0020
0330
,
1002
0000
0000
0000
0000
0000
0000
0000
0000
0000
0000
0000
1003
0000
0000
0000
0100
0000
0000
0000
1000
0000
0000
0000
0001
0000
0000
0010
0000
0000
0001
0000
0000
0010
0000
0000
0100
0000
0000
0000
0000
0000
0000
0000
0000
0100
0000
0000
,
1000
0000
1000
0010
0000
0010
0100
0000
0001
0010
0000
0100
0000
0010
0000
0001
,
2000
0000
0000
0000
0000
0000
0000
0000
0000
0000
0000
0000
3001
0000
0000
0000
0100
0000
0000
0000
0001
0000
0000
0000
1000
0000
0000
0010
0000
0000
1000
0000
0000
0010
0000
0000
0200
0000
0000
0000
0000
0000
0000
0000
0000
0000
0000
0000
,
0301
0010
0001
0010
0100
0000
1000
0000
0001
0100
0000
0010
0000
1000
0100
0000
,
1002
0000
0000
0000
0000
0000
0000
0000
0000
0000
0000
0000
1003
0000
0000
0000
0010
0000
0000
0000
1000
0000
0000
0000
0001
0000
0000
0100
0000
0000
0001
0000
0000
0100
0000
0000
0010
0000
0000
0000
0000
0000
0000
0000
0000
0010
0000
0000
,
1000
0000
1000
0100
0000
0100
0010
0000
0001
0100
0000
1000
0000
0100
0000
0010
,
2000
0000
0000
0000
3001
0010
0100
0000
1000
0001
1000
0010
0200
0000
0000
0000
,
0301
0010
0001
0010
0100
1000
0001
0000
0100
0010
1000
0001
0000
0010
0100
0000
,
1001
0000
0000
1000
0100
0001
0100
1000
,
0020
0000
0030
0100
1000
0100
0001
0010
,
0002
0000
0003
0100
0020
0000
0000
0000
,
1030
0000
0000
0000
0000
0000
0002
0000
0000
0013
0100
0000
,
2000
0000
3000
0001
0010
0001
0100
1000
,
0200
0000
0300
0010
1000
0100
0001
0100
,
2000
0000
3000
0001
0200
0000
0000
0310
,
2000
0000
3000
0100
0020
0000
0030
0000
,
2002
3003
0220
0330
,
2002
0000
0000
0000
3003
0000
1000
0100
,
0120
0000
0000
0000
0031
0000
0010
0100
0010
0000
0100
1000
0100
0000
1000
0010
,
1000
0010
0100
1000
0100
0001
0010
0000
,
0210
0000
0000
0000
1300
0000
0001
0100
0001
0000
0100
0010
0100
0000
0001
0010
,
0001
0000
0100
0000
1000
0000
0100
0000
0010
1000
0001
0100
0010
0000
1000
0001
,
0020
0000
0000
0000
0130
0000
1000
0010
1000
0000
0100
1000
0100
0000
0010
0100
,
0010
0000
0001
0000
0100
0000
0001
0000
1000
0100
0000
0010
0100
1000
0100
1000
,
0002
0000
0000
0000
0103
0000
0010
1000
0001
0000
0010
0000
0110
0000
0100
1000
,
0001
0000
0100
0010
0000
1000
0010
0000
0100
0001
0100
0001
1000
0100
0010
0001
,
0100
0000
0010
1000
0001
0000
0100
0001
1000
0000
0100
1000
0001
0000
0010
0000
,
0210
0000
0000
0000
0310
0000
0001
0000
1000
0010
0000
0010
0100
0000
0001
0000
,
0021
0000
0000
0000
0130
0000
1000
0000
0010
0000
0100
1000
0100
0000
0001
0000
,
0010
0000
0012
0000
0000
0000
0103
0000
0100
0000
0010
0001
0000
0010
1000
0000
,
0001
0010
0001
0100
0010
0000
1000
0001
0010
0000
0100
1000
0001
0000
0100
0010
,
2000
0000
0000
0000
3100
0000
0010
0000
0011
0000
0001
0100
0000
0001
1000
0000
,
1010
0000
0000
1100
0000
0000
0001
0000
0011
0000
0000
0101
0000
0000
1000
0000
,
1010
0000
0000
0011
0000
0000
0100
0000
2002
0000
0000
0000
3003
0000
0000
0000
,
0102
0000
0100
0000
1000
0000
0013
0001
,
2100
0100
0001
3010
,
0120
0000
0130
0001
1000
0100
0010
0001
,
0100
0001
0100
0001
1000
0100
1000
0100
0010
0001
1000
0001
0100
0000
0000
0000
,
0210
0000
0000
0000
0310
1000
0001
1000
0100
0000
0010
0100
1000
0000
0001
0000
,
0100
0010
1000
0001
1000
0010
0100
0000
0001
0010
0001
0100
0010
1000
0100
1000
,
0002
0000
0000
0000
0013
0100
1000
0100
0010
0000
0001
1000
0010
0000
0100
0000
,
0001
0010
0100
0010
0001
1000
0010
1000
0100
0010
0001
0010
0100
1000
0001
1000
,
0020
0000
0000
0000
0130
0001
1000
0001
0010
0000
0100
1000
0001
0000
0100
0000
,
0010
1000
0001
0010
0001
1000
0010
0000
0100
1000
0000
0100
0000
0001
0000
0010
,
0200
0000
0000
0000
1300
0001
0100
0000
0010
1000
0001
1000
0100
0000
0010
0000
,
0001
0100
0010
1000
0010
0100
0001
1000
0100
0000
0001
0100
0000
1000
0001
0000
,
0011
0000
0000
1010
0000
0000
0101
0000
0000
1100
0000
0000
0020
0000
0030
0000
,
1100
0000
0000
0101
0000
0000
0011
0000
1000
0000
0001
0100
0000
1000
0100
0000
,
0110
0000
0000
1010
0000
0000
1100
0000
0000
0011
0000
0000
0202
0000
0303
0000
,
1010
0000
0000
1100
0000
0000
0101
0000
0001
0010
0100
0000
0011
0000
0000
0101
,
0000
0000
1100
0000
1000
0010
0100
0000
0011
0000
0000
1010
0000
0000
1001
0000
,
0100
0010
0000
0220
0000
0000
0000
0000
0000
0000
0000
0000
0000
0000
0000
0000
,
0000
0330
0000
2002
0000
0000
0000
0000
,
0000
0000
0000
0000
,
0000
0000
0000
0000
,
0000
0000
0000
0000
,
0000
0000
0000
0000
0000
3003
0000
0000
0000
0000
0000
0000
0000
0000
0000
0000
;

//--------------- dance-double - forcednature ----------------
#NOTEDATA:;
#STEPSTYPE:dance-double;
#DESCRIPTION:forcednature;
#DIFFICULTY:Easy;
#METER:9;
#RADARVALUES:0,0,0,0,0;
#CREDIT:forcednature;
#NOTES:
00000000
00000000
00000000
00000000
,
00000000
00000000
00000000
00000000
,
00000000
00000000
00000000
00000000
,
00000000
00000000
00000000
00000000
,
00000000
00000000
00000000
00000000
,
00000000
00000000
00000000
00000000
,
00000000
00000000
00000000
00000000
,
00022000
00033000
00001000
01000000
,
00010000
01000000
00100000
10000000
,
20020000
00000000
00000000
00000000
30030000
00000000
00000000
00000000
10000000
00000000
00000000
00000000
00000000
01000000
00000000
00000000
,
01000000
00100000
00001000
00010000
,
00022000
00000000
00000000
00000000
,
00000000
00000000
00000000
00033000
,
00000100
00000000
00001000
00000000
00000001
00000010
00000001
00000000
,
00000100
00000010
00001000
00000010
,
00010000
00000000
00001000
00000000
00100000
00010000
00100000
00000000
,
02000000
23000000
30020000
20030000
,
30100000
00000000
01000000
00000000
00010000
01000000
00010000
00000000
,
00100000
00001000
00010000
00000010
,
00002000
00000000
00003000
00000000
00000100
00000010
00000100
00000000
,
00002000
00003002
00000203
00000310
,
00000110
00000000
00000010
00010000
,
00002000
00003000
00100000
00001000
,
00020000
00030000
00200000
00300000
,
10000000
00000000
02000000
03200000
,
00320000
00030000
02000000
03002000
,
00023000
00030000
00000200
00002300
,
00003002
00000003
00000200
00000300
,
00000020
00000030
00020000
00030000
,
00020200
00030300
02002000
03003000
,
00022000
00000000
00033000
00001000
,
01000000
00000000
00010000
01000000
00010000
00000000
10000000
00000000
,
01000000
00100000
01000000
10000000
,
00010000
00000000
01000000
00001000
01000000
00000000
00001000
00000000
,
00010000
00000100
00001000
00000100
,
00000010
00000000
00000001
00000010
00000001
00000000
00001000
00000000
,
00000010
00010000
00000010
00010000
,
00001000
00000000
00100000
00010000
00100000
00000000
01000000
00000000
,
10000000
01000000
00100000
00001000
,
00011000
00010000
00010010
00000010
,
00002020
00003030
00001000
00000100
,
00000110
00000000
00000000
00000000
00000010
00000001
00000010
00000000
,
00000100
00010000
00001000
00000000
,
00011000
00001000
01001000
01000000
,
02020000
03030000
00010000
10000000
,
01000000
00000000
00000000
01000000
00000000
00000000
00000000
00000000
00100000
00000000
00000000
00100000
00000000
00000000
00000000
00000000
,
00001000
00000000
00000000
00001000
00000000
00000000
00000000
00000000
00020000
00000000
00000000
00000000
00030020
00000000
00000000
00000000
,
00002030
00000000
00003000
00000100
,
00020000
00000000
00030000
00001000
,
01000000
01000000
00010000
00010000
,
10000000
01000000
00200000
00300000
,
01100000
00000000
01000000
10000000
01000000
00000000
00100000
00010000
,
00100000
00000000
00001000
00010000
00001000
00000000
00010000
00000000
,
00000010
00000000
00001000
00000010
00001000
00000000
00000010
00000100
,
00000020
00000230
00000302
00002003
,
00003200
00000000
00010300
00000100
00010000
00000000
00001000
00010000
,
00001000
00000000
00100000
00001000
00100000
00000000
00010000
00000000
,
10000000
00000000
00100000
00000000
01000000
00010000
01000000
00000000
,
00002000
00000000
00000000
00000000
00023000
00000000
00000000
00000000
00030100
00000000
00000000
00000100
00000000
00000000
00000000
00000000
,
00001000
00000000
00000000
00000010
00000000
00000000
00001000
00000000
00000000
00000010
00000000
00000000
00000000
00000000
00000000
00000000
,
00010000
00000000
00000000
00001000
00000000
00000000
00010000
00000000
00000000
00000000
00000000
00000000
00000000
00000000
00000000
00000000
,
00001000
00000000
00000000
00100000
00000000
00000000
00001000
00000000
00000000
00100000
00000000
00000000
00000000
00000000
00000000
00000000
,
00010000
00000000
00000000
01000000
00000000
00000000
00001000
00000000
00000000
00000000
00000000
00000000
00010000
00000000
00000000
00000100
,
00000000
00000000
00001000
00000000
00000000
00000000
00000000
00000000
00000010
00000000
00000000
00010000
00000000
00000000
00001000
00000000
,
00000000
00000000
00000000
00200000
00000000
00000000
00000000
00000000
00000000
00000000
00000000
00000000
00000000
00000000
00000000
00000000
,
00000000
00000000
00000000
02000000
00000000
00000000
00000000
00000000
,
00000000
00000000
00000000
00000000
,
00000000
00000000
00000000
00000000
,
00000000
00000000
00000000
00000000
,
00000000
00000000
00000000
00000000
00000000
03300000
00000000
00000000
00000000
00000000
00000000
00000000
00000000
00000000
00000000
00000000
;

//--------------- dance-double - forcednature ----------------
#NOTEDATA:;
#STEPSTYPE:dance-double;
#DESCRIPTION:forcednature;
#DIFFICULTY:Medium;
#METER:12;
#RADARVALUES:0,0,0,0,0;
#CREDIT:forcednature;
#NOTES:
00000000
00000000
00000000
00000000
,
00000000
00000000
00000000
00000000
,
00000000
00000000
00000000
00000000
,
00000000
00000000
00000000
00000000
,
00000000
00000000
00000000
00000000
,
00000000
00000000
00000000
00000000
,
00000000
00000000
00000000
00000000
,
00011000
00000100
00001000
00000010
,
00010000
00001000
01000000
00010000
,
10010000
00000000
00000000
00000000
10000000
00000000
00000000
00000000
01000000
00000000
00000000
00000000
00000000
01100000
00000000
00000000
,
10010000
00000000
00000000
00001000
00000000
00000000
00010000
00000100
00010000
00000100
00010000
00000100
,
00002000
00000000
00000000
00000000
,
00000000
00000000
00000000
00003001
,
00000201
00000000
00001300
00000100
00000010
00000010
00010000
00000000
,
00001000
00000000
00000000
00100000
00000000
00000000
01000000
00000000
00100000
00010000
00000000
10000000
00000000
00100000
00000000
00000000
,
02000000
00000000
03001000
00010000
00000100
00000100
00000010
00000000
,
00000001
00000100
00000010
00001000
00010000
01000000
00100000
10000000
,
02000000
00000000
03100000
00001000
00010000
00010000
00000010
00000000
,
00000100
00000000
00000000
00001000
00000000
00000000
00000100
00000000
00000001
00000010
00000000
00000100
00000000
00001000
00000000
00000000
,
00000010
00000000
00021000
00000000
00130000
00100000
01000000
00000000
,
00010000
00100000
01000000
00100000
00001000
00010000
00000010
00001000
,
00001100
00000000
00000000
00000100
00000001
00000000
00000100
00000000
,
00020000
00000000
00030000
00010000
00001000
00000000
01000000
00000000
,
00020000
00030000
20000000
30000000
,
01000000
00000000
00020000
00032000
,
00003020
00000000
00000030
00000010
00000100
00000000
00010000
00000000
,
00002000
00000000
00003000
00001000
01000000
00000000
10000000
00000000
,
02000000
03100000
00002000
00013000
,
00000200
00000310
00000002
00000003
,
00002002
00003003
00022000
00033000
,
20020000
00000000
00000000
00000000
30030000
00000000
10000000
01000000
,
00100000
00001000
00010000
00100000
00010000
00000100
00001000
00000010
,
00000001
00000010
00000100
00000001
00000010
00000001
00001000
00000100
,
00000010
00001000
00010000
01000000
00100000
00001000
00010000
00100000
,
10000000
01000000
00010000
00001000
00000100
00000001
00000010
00000100
,
00000010
00000001
00000100
00001000
00010000
01000000
00100000
00001000
,
00010000
00100000
10000000
01000000
00010000
00001000
00000010
00000100
,
00020000
00000000
00030010
00001000
00000200
00000000
00000000
00000301
,
00000200
00000000
00000300
00010000
00001000
01000000
00010000
00100000
,
10000000
00100000
00001000
00010000
00000010
00001000
00000100
00000001
,
00000100
00000000
00000010
00000000
00001000
00000000
00010000
00000000
00100000
00000000
00000000
01000000
00000000
00000000
00100000
00000000
,
20000000
00000000
31000000
00010000
00001000
00000000
00000100
00000001
,
00000010
00000000
00000002
00000000
00000000
00000000
00000103
00000000
00001000
00000000
00000000
00001000
00000000
00000000
00010000
00000000
,
00100000
10000000
01000000
00010000
01000000
10000000
00100000
00010000
,
00001000
00000000
00000010
00000000
00000001
00000000
00000100
00000000
00001000
00000000
00000000
00001000
00000000
00000000
00000100
00000000
,
00000001
00000000
00000000
00000010
00000000
00000000
00001000
00000000
00010000
00000000
00000000
00100000
00000000
00000000
10000000
00000000
,
01000000
00000000
00000000
00010000
00000000
00000000
00000100
00000000
00002000
00000000
00000000
00000000
00003002
00000000
00000000
00000000
,
00000103
00000000
00000100
00000000
00001000
00000000
00010000
01000000
,
10000000
10000000
00100000
00010000
,
00001000
00000010
00001000
00000010
00000001
00000100
00000001
00000100
,
00001000
00010000
01000000
00100000
00001000
00010000
00100000
00000000
,
01100000
00000000
01000000
10000000
01000000
00010000
00100000
00001000
,
00010000
00000010
00000100
00001000
00000100
00000001
00000010
00000000
,
00000110
00000000
00000100
00010000
00001000
00100000
01000000
00100000
,
00001000
00010000
00100000
10000000
01000000
00010000
00001000
00000000
,
00011000
00000000
00010000
00001000
00000100
00000001
00000010
00000100
,
00010000
00001000
00000100
00000010
00001000
00010000
01000000
00010000
,
00200000
00000000
01300000
10000000
01000000
00010000
00001000
00000100
,
00000001
00000000
00000100
00000000
00000010
00000000
00010000
00000000
00001000
00000000
00000000
00001000
00000000
00000000
00100000
00000000
,
01000000
00000000
00000000
00010000
00000000
00000000
00000100
00000000
00000000
00010000
00000000
00000000
00001000
00000000
00000000
00000000
,
00000100
00000000
00000000
00001000
00000000
00000000
01000000
00000000
00001000
00000000
00000000
00100000
00000000
00000000
00010000
00000000
,
00001000
00000000
00000000
00000100
00000000
00000000
00001000
00000000
00000000
00000010
00000000
00000000
00000001
00000000
00000000
00000000
,
00000010
00000000
00000000
00000100
00000000
00000000
00000110
00000000
00000000
00000000
00000000
00000000
00001000
00000000
00000000
00010000
,
00000000
00000000
00011000
00000000
00000000
00000000
00000000
00000000
01000000
00000000
00000000
00100000
00000000
00000000
01100000
00000000
,
00000000
00000000
00000000
20020000
00000000
00000000
00000000
00000000
00000000
00000000
00000000
00000000
00000000
00000000
00000000
00000000
,
00000000
30030000
00000000
00022000
00000000
00000000
00000000
00000000
,
00000000
00000000
00000000
00000000
,
00000000
00000000
00000000
00000000
,
00000000
00000000
00000000
00000000
,
00000000
00000000
00000000
00000000
00000000
00033000
00000000
00000000
00000000
00000000
00000000
00000000
00000000
00000000
00000000
00000000
;

//--------------- dance-double - forcednature ----------------
#NOTEDATA:;
#STEPSTYPE:dance-double;
#DESCRIPTION:forcednature;
#DIFFICULTY:Hard;
#METER:15;
#RADARVALUES:0,0,0,0,0;
#CREDIT:forcednature;
#NOTES:
00000000
00000000
00000000
00000000
,
00000000
00000000
00000000
00000000
,
00000000
00000000
00000000
00000000
,
00000000
00000000
00000000
00000000
,
00000000
00000000
00000000
00000000
,
00000000
00000000
00000000
00000000
,
00000000
00000000
00000000
00000000
,
00011000
00000000
00010000
00000100
00010000
00000100
00001000
00000001
,
00001000
00000001
00000010
00001000
00000010
00001000
00010000
00100000
,
01100000
00000000
00000000
00000000
01000000
00010000
01000000
00010000
01000000
00001000
01000000
00001000
00000000
00011000
00000000
00000000
,
00010100
00000000
00000000
00001100
00000000
00000000
00000100
00000010
00000001
00000100
00001000
00010000
,
00002000
00100000
00010000
00000010
,
00010000
01000000
00203000
00300000
,
21000000
00000000
00000000
00000000
00000000
00000000
00000000
00000000
00000000
00000000
00000000
00000000
30010000
00000000
00000000
00000000
01000000
00000000
00000000
00000000
00010000
00000000
00000000
00000000
00100000
00000000
00000000
00010000
00000000
00000000
00100000
00000000
00000000
00010000
00000000
00000000
00100000
00000000
00000000
00000000
00000000
00000000
00000000
00000000
00000000
00100000
00000000
00000000
,
00001000
00000000
00010000
00000010
00000000
00000010
00001000
00000000
00000100
00000010
00000000
00000001
00000000
00000100
00000000
00000010
,
00002000
00000000
00000000
00000000
00000000
00000000
00000000
00000000
00000000
00000000
00000000
00000000
00003100
00000000
00000000
00000000
00010000
00000000
00000000
00000000
00000100
00000000
00000000
00000000
00010000
00000000
00000000
00001000
00000000
00000000
00010000
00000000
00000000
00001000
00000000
00000000
02000000
00000000
00000000
00000000
00000000
00000000
00000000
00000000
00000000
00000000
00000000
00000000
,
03100000
10000000
00100000
10000000
00010000
00000000
00100000
00000000
00001000
00010000
00000000
00000010
00000000
00001000
00000100
00000000
,
00000120
00000000
00000000
00000000
00000000
00000000
00000000
00000000
00000000
00000000
00000000
00000000
00000031
00000000
00000000
00000000
00000100
00000000
00000000
00000000
00000001
00000000
00000000
00000000
00001000
00000000
00000000
00000100
00000000
00000000
00001000
00000000
00000000
00000100
00000000
00000000
00010000
00000000
00000000
00000000
00000000
00000000
00000000
00000000
00000000
00010000
00000000
00000000
,
00001000
00000000
00001000
01000000
00000000
01000000
00010000
00000000
10000000
01000000
00000000
00010000
00000000
00001000
00000000
00010000
,
00000020
00000000
00000000
00000000
00001030
00000100
00000010
00000000
00000001
00001000
00000001
00000100
00000020
00000000
00000000
00000000
,
00010030
00001000
00010000
00001000
00100000
00010000
00100000
00000000
01000000
10000000
00010000
10000000
00000000
00100000
01000000
00000000
,
01100000
00000000
00000000
01000000
00001000
00010000
00000100
00001000
,
00000020
00000000
00000030
00000100
00000001
00000010
00000100
00010000
,
00002000
00000000
00003000
01000000
00020000
00000000
00000000
00000000
,
10030000
00000000
00002000
00023000
,
00030200
00000000
00000300
00000010
00001000
00010000
00100000
00010000
,
00002000
00000000
00003000
00010000
01000000
10000000
00010000
10000000
,
00200000
00000000
00300000
00010000
00002000
00000000
00000000
00003010
,
00000002
00000000
00000003
00000100
00002000
00000000
00003000
00000000
,
02002000
03003000
00020200
00030300
,
00022000
00000000
00000000
00000000
00033000
00000000
00001000
01000000
,
01200000
00000000
00000000
00000000
10300000
00000000
01000000
10000000
01000000
00000000
00100000
01000000
00100000
00000000
00010000
00100000
,
00010000
01000000
00001000
00010000
00000100
00000010
00000100
00000000
,
00002010
00000000
00000000
00000000
00003001
00000000
00000010
00000100
00000010
00000000
00000100
00001000
00000100
00000000
00010000
00001000
,
00010000
00000000
00100000
00000000
01000000
00000000
00100000
00000000
10000000
00010000
00100000
01000000
10000000
00000000
00010000
01000000
,
00002000
00000000
00000000
00000000
00013000
00000000
00000100
00001000
00000100
00000000
00000010
00000100
00000010
00000000
00000001
00000010
,
00000001
00000000
00000100
00000000
00001000
00000000
00010000
00000000
00100000
01000000
00000000
00100000
10000000
00100000
10000000
00010000
,
00200000
00000000
00000000
00000000
01300000
00000000
00100000
00001000
00010000
00000000
00000010
00000000
00000110
00000000
00000100
00000001
,
00001000
00000000
00000100
00010000
00000000
00001000
00100000
00000000
00010000
01000000
00010000
01000000
00100000
10000000
00010000
10000000
,
01000000
00000000
00100000
00001000
00010000
00000000
00000010
00010000
00001000
00000000
01000000
00001000
00010000
00000000
00000100
00000000
,
00000120
00000000
00000000
00000000
00000031
00000000
00001000
00000000
00000010
00010000
00000000
00010000
00001000
00000000
00100000
00000000
,
02100000
00000000
00000000
00000000
13000000
00000000
00010000
00000000
01000000
00000000
00001000
00010000
00001000
00000000
00000010
00000000
,
00000100
00000000
00002100
00000000
00000000
00000000
00003010
00000000
00000010
00000000
00010000
00001000
00000000
00100000
00010000
00000000
,
01000000
00010000
01000000
00100000
10000000
00000000
01000000
00100000
00001000
00000000
00010000
00000100
00000010
00000000
00000001
00001000
,
00000020
00000000
00000000
00000000
00000130
00000000
00001000
00000000
00011000
00000000
00010000
00001000
00000000
01000000
00010000
00000000
,
00110000
00000000
00000000
01001000
00000000
00000000
00000010
00000000
00001010
00000000
00000000
00010100
00000000
00000000
00100000
00000000
,
00110000
00000000
00000000
00011000
00000000
00000000
00000010
00000000
00002002
00000000
00000000
00000000
00003003
00000000
00000000
00000000
,
00020100
00000000
00000100
00000000
00001000
00000000
00030010
00010000
,
01002000
01000000
00010000
00103000
,
00021000
00000000
01030000
00100000
00001000
00010000
00000100
00000010
,
00000001
00000100
00000001
00000100
00000010
00001000
00000010
00001000
00000010
00010000
00001000
00100000
00010000
00000000
00000000
00000000
,
02010000
00000000
00000000
00000000
03100000
10000000
01000000
00100000
00010000
00000000
01000000
00001000
00010000
00000000
00000100
00000000
,
00001000
00000010
00000100
00000001
00000100
00000010
00001000
00000000
00000100
00010000
00001000
00100000
00010000
00100000
00001000
00010000
,
00000200
00000000
00000000
00000000
00001300
00000010
00010000
00001000
01000000
00000000
00010000
10000000
01000000
00000000
00100000
00000000
,
00001000
00010000
00000100
00010000
00001000
00000010
00000100
00000010
00000001
00001000
00000001
00000100
00000010
00010000
00001000
01000000
,
00020000
00000000
00000000
00000000
00130000
01000000
10000000
01000000
00100000
00000000
00001000
00010000
00000010
00000000
00000100
00000000
,
00001000
00000100
00000001
00000100
00000001
00001000
00000010
00000000
00010000
00001000
00000000
00100000
00000000
01000000
00000000
00100000
,
00020000
00000000
00000000
00000000
01030000
00100000
10000000
00000000
01000000
00100000
00010000
00100000
00001000
00000000
00010000
00000000
,
00000010
00001000
00000010
00000100
00000001
00000100
00000010
00001000
00000100
00000000
00010000
00001000
00000000
00010000
01000000
00000000
,
01100000
00000000
00000000
00101000
00000000
00000000
00010010
00000000
00000000
00000110
00000000
00000000
00000002
00000000
00000003
00000000
,
00000011
00000000
00000000
00010100
00000000
00000000
00101000
00000000
00100000
00000000
00010000
01000000
00000000
10000000
01000000
00000000
,
01100000
00000000
00000000
01001000
00000000
00000000
00010100
00000000
00000000
00000110
00000000
00000000
00002002
00000000
00003003
00000000
,
00010100
00000000
00000000
00101000
00000000
00000000
00010100
00000000
00000100
00001000
00000010
00000000
00010010
00000000
00000000
01001000
,
00000000
00000000
00010010
00000000
00010000
00001000
00100000
00000000
01100000
00000000
00000000
10010000
00000000
00000000
00011000
00000000
,
00000100
00001000
00000000
00000220
00000000
00000000
00000000
00000000
00000000
00000000
00000000
00000000
00000000
00000000
00000000
00000000
,
00000000
00000330
00000000
00002002
00000000
00000000
00000000
00000000
,
00000000
00000000
00000000
00000000
,
00000000
00000000
00000000
00000000
,
00000000
00000000
00000000
00000000
,
00000000
00000000
00000000
00000000
00000000
00003003
00000000
00000000
00000000
00000000
00000000
00000000
00000000
00000000
00000000
00000000
;
