#VERSION:0.83;
#TITLE:モモンが門番ばんっ☆;
#SUBTITLE:;
#ARTIST:ねこみりん feat.みゆ;
#TITLETRANSLIT:Momonga monbanban;
#SUBTITLETRANSLIT:;
#ARTISTTRANSLIT:Nekomirin feat. miyu;
#GENRE:;
#CREDIT:;
#MUSIC:Momonga monbanban.ogg;
#BANNER:Momonga monbanban.png;
#BACKGROUND:Momonga monbanban-bg.png;
#CDTITLE:./CDTitles/SDVX II -infinite infection-.png;
#SAMPLESTART:92.175;
#SAMPLELENGTH:15.000;
#SELECTABLE:YES;
#OFFSET:0.715;
#BPMS:0.000=186.000;
#STOPS:;
#TIMESIGNATURES:0.000=4=4;
#BGCHANGES:0.000=../BGAs/19po.mp4=1.000=0=0=0=StretchNoLoop====,
99999.000=-nosongbg-=1.000=0=0=0=StretchNoLoop====
;
#FGCHANGES:;

//--------------- dance-single - forcednature ----------------
#NOTEDATA:;
#STEPSTYPE:dance-single;
#DESCRIPTION:forcednature;
#CREDIT:forcednature;
#DIFFICULTY:Beginner;
#METER:3;
#RADARVALUES:0,0,0,0,0;
#NOTES:
0000
0000
0000
0000
,
0000
0000
0000
0000
,
0000
0000
0000
0000
,
0000
0000
0000
0000
,
0000
0000
0000
0000
,
1000
0000
0000
0000
,
0000
0000
0000
0000
,
0001
0000
0000
0000
,
0000
0000
0000
0000
,
1000
0000
0000
0000
,
0000
0000
0000
0000
,
0010
0000
0000
0000
,
0000
0000
0000
0000
,
0100
0000
0000
0000
,
0000
0000
0000
0000
,
0001
0000
0000
0000
,
0000
0000
0000
0000
,
0010
0000
0000
0000
,
0000
0000
0000
0000
,
0100
0000
0000
0000
,
0000
0000
0000
0000
,
1000
0000
0000
0000
,
0000
0000
0000
0000
,
0001
0000
0000
0000
,
0100
0000
0000
0000
,
0010
0000
0000
0000
,
0000
0000
0000
0000
,
1000
0000
0000
0000
,
0001
0000
0000
0000
,
0010
0000
0000
0000
,
0000
0000
0000
0000
,
0100
0000
0000
0000
,
1000
0000
0000
0000
,
1001
0000
0000
0000
,
0001
0000
0000
0000
,
0100
0000
0000
0000
,
0010
0000
0000
0000
,
1000
0000
0000
0000
,
0001
0000
0000
0000
,
1000
0000
0000
0000
,
0100
0000
0000
0000
,
0000
0010
0000
0000
,
0010
0000
0000
0010
,
0000
0010
0000
0001
,
0000
0100
0000
0000
,
0100
0000
0000
0100
,
0000
0010
0000
1000
,
0000
0100
0000
0000
,
0100
0000
0000
0100
,
0000
0010
0000
0001
,
0000
1000
0000
0000
,
1000
0000
0000
0000
,
0010
0000
0000
0000
,
1001
0000
0000
0000
,
1000
0000
0001
0000
,
1000
0000
0000
0000
,
0010
0000
0100
0000
,
0010
0000
0000
0000
,
1000
0000
0000
1000
,
0001
0000
0000
0001
,
1000
0000
0001
0000
,
1000
0000
0000
0000
,
0010
0000
0100
0000
,
0010
0000
0000
0000
,
1000
0000
0001
0000
,
1000
0000
0000
0000
,
0100
0000
0000
0100
,
0010
0000
0000
0010
,
0001
0000
0001
0000
,
1000
0000
1000
0000
,
0020
0000
0000
0000
,
0000
0000
0030
0000
,
0100
0000
0001
0000
,
0100
0000
0000
0000
,
0010
0000
1000
0000
,
0010
0000
0000
0000
,
1000
0000
0100
0000
,
1000
0000
0000
0000
,
0001
0000
0010
0000
,
0001
0000
0000
0000
,
0100
0000
0100
0000
,
0100
0000
0000
0000
,
0010
0000
0010
0000
,
0010
0000
0000
0000
,
1000
0000
1000
0000
,
1000
0000
0000
0000
,
0001
0000
0001
0000
,
0001
0000
0000
0000
,
0110
0000
0000
0000
,
1001
0000
0000
0000
;

//--------------- dance-single - forcednature ----------------
#NOTEDATA:;
#STEPSTYPE:dance-single;
#DESCRIPTION:forcednature;
#CREDIT:forcednature;
#DIFFICULTY:Easy;
#METER:7;
#RADARVALUES:0,0,0,0,0;
#NOTES:
0000
0000
0000
0000
,
0000
0000
0000
0000
,
0000
0000
0000
0000
,
0000
0000
0000
0000
,
0000
0000
0000
0000
,
1000
0001
1000
0010
,
0000
0100
2002
3003
,
0001
1000
0001
0010
,
0000
0100
2002
3003
,
1000
0100
1000
0010
,
1000
0001
2002
3003
,
0001
0100
0001
0010
,
0001
1000
0020
0000
,
0130
0001
1000
0001
,
0010
0100
0220
0330
,
0100
1000
0001
1000
,
0010
0100
0220
0330
,
0001
0100
1000
0000
,
0100
0010
0110
0000
,
1000
0100
0001
0000
,
0100
0010
0110
0000
,
0001
1000
0010
0100
,
0000
0100
0010
1000
,
0001
0010
0100
1000
,
0010
0110
0010
0110
,
0000
1001
0000
1000
,
0100
0010
0001
0100
,
0001
0010
0100
0000
,
1000
0001
1001
0000
,
1000
0010
1000
1000
,
0001
0010
0001
0001
,
0100
0010
1000
0001
,
0010
0100
0220
0330
,
1000
0001
1001
0000
,
0001
0100
1000
0100
,
0010
1000
0001
0010
,
0100
0010
1001
0000
,
1000
0010
1001
0000
,
0001
0010
0100
1000
,
1001
0000
0110
0000
,
1000
0001
0100
0010
,
0000
0000
1000
0000
0001
1000
0000
0000
,
0001
0000
1000
0001
0000
0000
0100
0000
,
0020
2030
3002
0023
,
0030
0000
0001
0000
1000
0001
0000
0000
,
1000
0000
0001
1000
0000
0000
0010
0000
,
0200
0302
2003
3200
,
0300
0000
0010
0000
0100
0010
0000
0000
,
0100
0000
0010
0100
0000
0000
1000
0000
,
0002
0203
0320
2030
,
3000
0000
0010
0000
0100
0010
0000
0000
,
0100
0000
0010
0100
0000
0000
0001
0000
,
1000
0100
0010
0001
,
2002
0000
0000
3003
,
1000
0010
0100
0001
,
0010
0100
0220
0330
,
0010
0001
1000
0100
,
1000
0010
0100
0001
,
0010
0100
1000
1001
,
0001
0100
0010
0110
,
0100
0001
1000
0100
,
1000
0000
0000
0010
0000
0000
1000
0000
,
0001
0010
0100
1000
,
0010
0100
0220
0330
,
0100
0001
0010
0100
,
1000
0001
0100
0010
,
1000
0001
0010
0100
,
0010
0110
0100
0110
,
0010
0001
1000
0010
,
0100
0000
0000
0001
0000
0000
1000
0000
,
2002
0000
0000
0000
,
0000
0000
0000
3003
,
1000
1000
0100
1000
,
0001
0010
0022
0033
,
0001
0001
0100
0001
,
1000
0010
2020
3030
,
1000
1000
0001
0010
,
0100
1000
2002
3003
,
0001
0001
1000
0010
,
0100
0001
2002
3003
,
1000
1000
0100
0010
,
0001
0100
0220
0330
,
0001
0001
0100
0010
,
1000
0100
0020
0000
,
0031
0001
1000
0100
,
0010
0001
2002
3003
,
1000
0000
1000
0000
0001
0000
0000
0110
,
0000
0010
2002
3003
,
1100
0000
0000
0101
0000
0000
0010
0000
,
2002
3003
0000
0000
;

//--------------- dance-single - forcednature ----------------
#NOTEDATA:;
#STEPSTYPE:dance-single;
#DESCRIPTION:forcednature;
#CREDIT:forcednature;
#DIFFICULTY:Medium;
#METER:11;
#RADARVALUES:0,0,0,0,0;
#NOTES:
0000
0000
0000
0000
,
0000
0000
0000
0000
,
0000
0000
0000
0000
,
0000
0000
0000
0000
,
0000
0000
0000
0000
,
1000
0000
0001
0000
1000
0000
0010
0100
,
0000
0110
2002
3003
,
0001
0000
1000
0000
0001
0000
0010
0100
,
0000
1000
0010
0000
0220
0000
0330
0000
,
0101
0000
1001
0000
0011
0000
0100
1000
,
0000
0010
1000
0000
2002
0000
3003
0000
,
1100
0000
1001
0000
1010
0000
0100
0001
,
0000
0000
0000
0010
0000
0000
0001
0000
0000
0000
0000
0000
0100
0000
0000
0000
0100
0000
0000
0000
0100
0000
0000
0000
,
0101
0000
0011
0000
1001
0000
1000
0100
,
0001
0100
0220
0330
,
1100
0000
1010
0000
1001
0000
0001
0100
,
0000
1000
0100
0000
0220
0000
0330
0000
,
0010
1000
0001
0000
0010
0000
0100
0000
,
1100
0011
1100
0000
,
0010
0001
1000
0000
0010
0000
0100
0000
,
0101
1010
0101
0000
,
1000
0001
0010
0000
0100
0000
1000
0001
,
0000
0100
0010
0000
1000
0000
0001
0000
,
0010
0100
1000
0000
0010
0000
0100
0000
,
0101
0011
0101
0011
,
0100
0000
1001
0000
1000
0010
1000
0000
,
0001
0010
0110
0100
,
1000
0010
1000
0000
0001
0010
0001
0000
,
0100
0110
1001
0000
,
1000
0100
0010
0000
0001
0000
0011
0000
,
0001
0100
0010
0000
1000
0000
1010
0000
,
0010
0000
0100
0000
0001
1000
0001
0000
,
0010
1100
0202
0303
,
0011
0000
0011
0000
0101
0000
0001
1000
,
0010
0000
1010
0000
1000
0100
0000
0010
,
0001
0000
0100
0000
0010
1000
0010
0000
,
0100
0110
1001
0000
,
1100
0000
1100
0000
1010
0000
0001
0010
,
0001
0000
0100
0000
0010
1000
0010
0000
,
0101
0010
1100
0010
,
1001
0110
2002
3003
,
0000
1000
0100
0000
1000
1000
0000
0001
,
0100
0000
0001
0001
0000
0010
0100
0000
,
1000
0010
1000
0000
0001
0010
0001
0000
,
0000
1000
0100
0000
0010
0010
0000
0001
,
0100
0000
0010
0010
0000
1000
0001
0000
,
0001
0100
0001
0000
1000
0100
1000
0000
,
0000
0010
0100
0000
0001
0001
0000
0010
,
0100
0000
1000
1000
0000
0010
0100
0000
,
0001
0010
0001
0000
1000
0001
1000
0000
,
0000
0001
0100
0000
0010
0010
0000
1000
,
0100
0000
0010
0010
0000
0001
1000
0000
,
0010
1100
0010
0101
,
0020
0000
0130
1001
,
1000
0100
1000
0100
0010
0000
0001
0000
,
0100
0000
0010
1000
0020
0000
0030
0000
,
0100
0001
0100
0000
0001
0010
0001
0000
,
0100
0000
0010
1000
0010
0000
0100
0000
,
0001
0000
0010
0100
0010
0000
1001
0000
,
1000
0000
0010
0100
0010
0000
1001
0000
,
0011
0000
0101
0000
1000
0010
1000
0000
,
0100
0000
0010
0001
0000
0001
0100
0000
,
0010
1000
0010
1000
0100
0000
0010
0000
,
0110
0000
0001
1000
0002
0000
0003
0000
,
1000
0010
1000
0000
0001
0010
0001
0000
,
0100
0000
0010
1000
0001
0000
0010
0000
,
0100
1000
0100
1000
0001
0000
0100
0000
,
0010
0000
0000
0010
0000
0000
1000
0000
0001
0000
0000
0010
0000
0000
0001
0000
,
0100
0000
0001
0000
0010
0100
0010
0000
,
0001
0000
1000
0010
0000
0100
0001
0000
,
0020
0000
0000
0000
,
0000
0000
0000
0030
,
1100
0000
1010
0000
1100
0000
0001
0010
,
0000
0001
0100
0000
2002
0000
3003
0000
,
0101
0000
0011
0000
0101
0000
1000
0010
,
0000
1000
0100
0000
2002
0000
3003
0000
,
0101
0000
1010
0000
1001
0000
1000
0100
,
0000
0001
0100
0000
0220
0000
0330
0000
,
1100
0000
0011
0000
1001
0000
0001
0100
,
0000
1000
0100
0000
0110
0000
1001
0000
,
1010
0000
0011
0000
1010
0000
0001
0010
,
0000
0100
1000
0000
2002
0000
3003
0000
,
0011
0000
1010
0000
0011
0000
1000
0010
,
0000
0000
0000
0100
0000
0000
0001
0000
0000
0000
0000
0000
0010
0000
0000
0000
0010
0000
0000
0000
0010
0000
0000
0000
,
0100
0000
0110
0000
1001
0000
0001
0100
,
1000
0000
1000
0100
0001
0000
0010
0000
,
0110
0000
1100
0000
1000
0000
0001
0100
,
0000
1000
0100
0000
0220
0000
0330
0000
,
0001
0001
0000
1000
1000
0000
1001
0000
,
0220
0330
0000
0000
;

//--------------- dance-single - forcednature ----------------
#NOTEDATA:;
#STEPSTYPE:dance-single;
#DESCRIPTION:forcednature;
#CREDIT:forcednature;
#DIFFICULTY:Hard;
#METER:15;
#RADARVALUES:0,0,0,0,0;
#NOTES:
0000
0000
0000
0000
,
0000
0000
0000
0000
,
0000
0000
0000
0000
,
0000
0000
0000
0000
,
0000
0000
0000
0000
,
1100
0000
0110
0000
0011
0000
0001
1000
,
0000
0110
2002
3003
,
0101
0000
0110
0000
1010
0000
1000
0001
,
0000
0010
0100
1000
0001
0001
0100
0000
,
0010
1000
0100
1000
0010
1000
0100
0020
,
0000
0031
0100
1000
0100
0001
1000
0001
,
0010
0001
0100
0001
0010
0010
0001
0200
,
0000
0000
0000
0310
0000
0000
1000
0000
0000
0001
0000
0000
0010
0000
0000
0000
0110
0000
0000
0000
0100
0000
0000
0000
,
1000
0010
1000
0100
1000
0010
0001
0010
,
0100
0000
0100
0001
1000
0000
0100
0000
0010
0000
0001
1000
0020
0000
0000
0000
,
0130
1000
0100
0001
0010
0010
0100
0110
,
0000
0000
0010
0000
0001
0000
1000
0000
0010
0100
0000
0100
0001
0000
0000
0000
,
1000
0100
0001
0100
1000
1000
1010
0000
,
0001
0010
0000
0000
1000
0010
0000
0000
0110
0000
0000
0000
0000
0000
0000
0000
,
0001
0100
1000
0100
0001
0001
0011
0000
,
1000
0010
0000
0000
0001
0010
0000
0000
0110
0000
0000
0000
0000
0000
0000
0000
,
1000
0100
1000
0010
0001
0001
0010
0110
,
0000
0100
0001
0010
0100
0001
0100
1000
,
0001
0010
0001
0100
1000
1000
1000
0000
,
1200
0301
1200
0301
,
0010
0000
1001
0000
1000
1000
1000
0000
,
0001
0010
0001
0100
0010
0000
1001
0000
,
0001
0010
0001
0100
0010
0010
0010
0000
,
0001
0010
0000
0000
1000
0010
0000
0000
1100
0000
0000
0000
0000
0000
0000
0000
,
0100
0001
0100
0010
0001
0001
0001
0000
,
1000
0010
0001
0010
0100
0000
1001
0000
,
0001
0010
1000
0000
0010
0010
0010
0100
,
1000
0010
0000
0000
0100
0001
0000
0000
2002
0000
0000
0000
3003
0000
0000
0000
,
1000
0100
0001
0100
0010
0010
0001
0100
,
0001
0000
0100
0000
1000
0000
0100
0000
0010
0000
1000
0010
1000
0000
0000
0000
,
0001
0010
0100
1000
0100
0100
0100
0001
,
0100
0010
0000
0000
0001
0100
0000
0000
1010
0000
1000
0000
1000
0000
0000
0000
,
0001
0010
0001
0100
1000
1000
0100
0001
,
0010
0100
1000
0010
0100
0001
0000
0010
,
0110
0000
1000
0001
1001
0000
0010
0100
,
0110
0000
0000
0000
1001
0000
0000
0000
1000
0000
0100
0000
0010
0001
0010
0000
,
0000
0001
0100
1000
1100
0101
0000
1000
,
0100
0001
0101
1100
0000
0001
0010
1000
,
0010
0000
0011
0000
0101
0000
0000
0000
1000
0010
1000
0000
0100
1000
0100
0000
,
0000
1000
0010
0001
0011
1010
0000
0001
,
0010
1000
1010
0011
0000
1000
0001
0100
,
0010
0000
0110
0000
1001
0000
0000
0000
0001
0010
0001
0000
1000
0010
1000
0000
,
0000
0100
0001
0100
1100
0011
0000
0100
,
1000
0100
0101
1010
0000
0001
0010
0001
,
0100
0000
0110
0000
1010
0000
0000
0000
0001
0010
0001
0000
1000
0100
1000
0000
,
0000
0010
0001
0010
1010
0101
0000
0010
,
1000
0010
0011
1100
0000
0001
0100
1000
,
0100
0000
0010
0000
1000
0001
1000
0000
0100
0000
0010
0000
0001
0000
0100
0000
,
0110
0000
0000
0000
0010
0000
1000
0000
0001
0000
1000
0100
0010
0000
0000
0000
,
0001
0000
0100
0000
1000
0000
0100
0000
0010
0000
1000
0010
1000
0000
0000
0000
,
0012
0000
0103
1000
0100
0001
0010
0000
,
0100
1000
1010
0000
0100
0001
0011
0000
,
0100
0000
1000
0000
0001
0000
0100
0000
0010
1000
0001
0000
0010
0000
0100
1000
,
0100
0000
0001
0000
0100
0000
0010
0000
0001
0000
0100
0001
0200
0000
0000
0000
,
0310
0000
1000
0000
0001
0000
0010
0000
0100
1000
0000
0000
0012
0000
0000
0000
,
0103
0000
0001
0000
1000
0000
0010
0000
0001
0000
0001
0010
0100
0000
0001
0000
,
1000
1100
0001
0010
0000
0001
0100
1000
,
0100
0000
0001
0000
0010
0000
0100
0000
1000
0000
0001
0010
0001
0000
0000
0000
,
0201
0000
1300
0100
0001
0010
0100
0000
,
1000
0010
0110
0000
0001
0010
0110
0100
,
1000
0000
0001
0000
0100
0000
0010
0000
1000
0001
0010
0000
0100
0000
1000
0100
,
1000
0000
0010
0000
0001
0000
0010
0000
0100
0000
0001
1000
0010
0000
0000
0000
,
1100
0000
0000
1010
0000
0000
0001
0000
0101
0000
0000
0011
0000
0000
1000
0000
,
0100
0000
0001
0000
0100
0000
1000
0000
0010
0000
0010
0100
0001
0000
0010
0000
,
0100
0110
1000
0001
0000
0100
0110
0010
,
2002
0000
0000
0000
,
0000
0000
0000
3003
,
0001
0000
0100
0000
1000
0000
0100
0010
1000
0000
0100
0000
0001
0000
0200
0000
,
0000
0310
0001
0100
1000
0001
0010
1000
,
0001
0000
0010
0000
0001
0000
0100
0000
0010
0000
0010
1000
0001
0000
0020
0000
,
0000
0000
0130
0000
0010
0000
0001
0000
1000
0010
0100
0000
0001
0100
0010
0000
,
1000
0000
0100
0000
0001
0000
0100
0010
0001
0000
1000
0000
0010
0000
0200
0000
,
0000
1300
0100
0001
0010
0100
0001
0100
,
1000
0000
0001
0000
0010
0000
0001
0000
0100
0000
0010
1000
0001
0000
0020
0000
,
0000
0000
0130
0000
0001
0000
0100
0000
0010
0001
1000
0000
1001
0000
0000
0000
,
1000
0000
0010
0000
0001
0000
0010
1000
0001
0000
0001
0000
0010
0000
0200
0000
,
0000
0301
0100
1000
0010
0001
1000
0100
,
0001
0000
0010
0000
0001
0000
0100
0000
0010
0000
0010
1000
0001
0000
0020
0000
,
0000
0000
0000
0130
0000
0000
1000
0000
0000
0010
0000
0000
0101
0000
0000
0000
1010
0000
0000
0000
0101
0000
0000
0000
,
0001
0000
0010
0000
1000
0000
0010
0100
1000
0000
1000
0000
0010
0000
0100
0000
,
0101
0000
0001
0010
0100
0000
1000
0000
0010
0000
1000
0100
0002
0000
0000
0000
,
0103
0000
0010
0000
0001
0000
0100
0000
0010
0000
0010
1000
0001
0000
0021
0000
,
0000
0000
0130
0000
1000
0000
0010
0000
0100
0001
0000
0001
0020
0000
0100
0000
,
0031
0101
0000
1000
1100
0000
0110
0000
,
2002
3003
0000
0000
;

//--------------- dance-double - forcednature ----------------
#NOTEDATA:;
#STEPSTYPE:dance-double;
#DESCRIPTION:forcednature;
#CREDIT:forcednature;
#DIFFICULTY:Easy;
#METER:7;
#RADARVALUES:0,0,0,0,0;
#NOTES:
00000000
00000000
00000000
00000000
,
00000000
00000000
00000000
00000000
,
00000000
00000000
00000000
00000000
,
00000000
00000000
00000000
00000000
,
00000000
00000000
00000000
00000000
,
00001000
00010000
00001000
01000000
,
00000000
00001000
00022000
00033000
,
00010000
00001000
00010000
00000100
,
00000000
00010000
00022000
00033000
,
00001000
01000000
00010000
00100000
,
00001000
00010000
00020020
00030030
,
00010000
00000100
00001000
00000010
,
00010000
00001000
00200000
00000000
,
01300000
10000000
00010000
00100000
,
00001000
00010000
00000020
00000030
,
00001000
00000001
00000100
00000001
,
00000010
00000100
00002000
00003000
,
00000010
00010000
00001000
00000000
,
00100000
00100000
01000000
00000000
,
00100000
00001000
00010000
00000000
,
00000010
00000010
00000100
00000000
,
00000010
00001000
00000001
00000010
,
00000000
00000100
00000010
00000001
,
00001000
00000010
00010000
00001000
,
00100000
01100000
00100000
01100000
,
00000000
10010000
00000000
10000000
,
01000000
00100000
00010000
00000000
,
01000000
00001000
00010000
00000000
,
00000100
00000100
00000010
00000000
,
00000001
00000100
00000001
00000000
,
00001000
00000100
00001000
00000000
,
00000010
00010000
00001000
01000000
,
00010000
00010000
20000000
30000000
,
00010000
01000000
00001000
00000000
,
00010000
00000100
00001000
00000100
,
00000010
00000001
00000100
00000001
,
00000010
00000100
00001000
00000000
,
00000010
00010000
00001000
00000000
,
00100000
00010000
10000000
00010000
,
01000000
00000000
01100000
00000000
,
00100000
10000000
00010000
00100000
,
00000000
00000000
00001000
00000000
00010000
00001000
00000000
00000000
,
00010000
00000000
00001000
00010000
00000000
00000000
00000100
00000000
,
00002000
00003020
00020030
00032000
,
00003000
00000000
00010000
00000000
00001000
00010000
00000000
00000000
,
00001000
00000000
00010000
00001000
00000000
00000000
00100000
00000000
,
00020000
02030000
03200000
20300000
,
30000000
00000000
01000000
00000000
00100000
01000000
00000000
00000000
,
00100000
00000000
01000000
00100000
00000000
00000000
00001000
00000000
,
00020000
00030020
00002030
00003002
,
00000003
00000000
00000010
00000000
00000100
00000010
00000000
00000000
,
00000100
00000000
00000010
00000100
00000000
00000000
00010000
00000000
,
00001000
01000000
00010000
00100000
,
02200000
00000000
00000000
03300000
,
01000000
10000000
00010000
01000000
,
00001000
00010000
00022000
00033000
,
00001000
00010000
00000100
00001000
,
00000010
00010000
00001000
00100000
,
00010000
01000000
00100000
00100000
,
10000000
01000000
00100000
00100000
,
01000000
10000000
00010000
01000000
,
00001000
00000000
00000000
00010000
00000000
00000000
00001000
00000000
,
00010000
00000100
00001000
00000100
,
00000010
00000001
00000200
00000300
,
00000010
00001000
00000001
00000010
,
00000100
00010000
00001000
00100000
,
00010000
10000000
00010000
01000000
,
00100000
01100000
00100000
01100000
,
01000000
00010000
10000000
01000000
,
00100000
00000000
00000000
00001000
00000000
00000000
00010000
00000000
,
00000200
00000000
00000000
00000000
,
00000000
00000000
00000000
00000300
,
00001000
00001000
00000010
00010000
,
00001000
01000000
02020000
03030000
,
00010000
00010000
00100000
00001000
,
00010000
00000010
00002020
00003030
,
00001000
00001000
00000100
00010000
,
00001000
00100000
00220000
00330000
,
00010000
00010000
01000000
00001000
,
00010000
00000010
00002020
00003030
,
00000001
00000001
00000100
00001000
,
00010000
01000000
02200000
03300000
,
10000000
10000000
01000000
00010000
,
00001000
00000100
00000020
00000000
,
00001030
00001000
00000001
00000010
,
00000100
00010000
00022000
00033000
,
01000000
00000000
01000000
00000000
00010000
00000000
00000000
01100000
,
00000000
10000000
20020000
30030000
,
10000000
00000000
00000000
01000000
00000000
00000000
00010000
00000000
,
00022000
00033000
00000000
00000000
;

//--------------- dance-double - forcednature ----------------
#NOTEDATA:;
#STEPSTYPE:dance-double;
#DESCRIPTION:forcednature;
#CREDIT:forcednature;
#DIFFICULTY:Medium;
#METER:11;
#RADARVALUES:0,0,0,0,0;
#NOTES:
00000000
00000000
00000000
00000000
,
00000000
00000000
00000000
00000000
,
00000000
00000000
00000000
00000000
,
00000000
00000000
00000000
00000000
,
00000000
00000000
00000000
00000000
,
00001000
00000000
00010000
00000000
01000000
00000000
10000000
00010000
,
00000000
10010000
02002000
03003000
,
00010000
00000000
00001000
00000000
00000100
00000000
00000001
00001000
,
00000000
00000100
00000010
00000000
00002002
00000000
00003003
00000000
,
00001100
00000000
00011000
00000000
00110000
00000000
10000000
01000000
,
00000000
10000000
00100000
00000000
20020000
00000000
30030000
00000000
,
01010000
00000000
00011000
00000000
00001010
00000000
00000010
00000100
,
00000000
00000000
00000000
00000001
00000000
00000000
00000010
00000000
00000000
00000000
00000000
00000000
00000100
00000000
00000000
00000000
00000100
00000000
00000000
00000000
00000100
00000000
00000000
00000000
,
00010100
00000000
00011000
00000000
00101000
00000000
00100000
00010000
,
01000000
00100000
02200000
03300000
,
01001000
00000000
00011000
00000000
00010010
00000000
00000010
00001000
,
00000000
00000001
00000010
00000000
00000220
00000000
00000330
00000000
,
00000100
00010000
00001000
00000000
01000000
00000000
00010000
00000000
,
00110000
11000000
00110000
00000000
,
01000000
00001000
00010000
00000000
00000100
00000000
00001000
00000000
,
00001010
00000101
00001010
00000000
,
00001000
00000100
00010000
00000000
00001000
00000000
01000000
00010000
,
00000000
00100000
01000000
00000000
00100000
00000000
00010000
00000000
,
10000000
00100000
01000000
00000000
00001000
00000000
00010000
00000000
,
00010100
00010010
00010100
00010010
,
00000010
00000000
00001001
00000000
00001000
00000100
00001000
00000000
,
00000010
00000100
00000101
00000001
,
00000010
00000100
00000010
00000000
00000100
00001000
00000100
00000000
,
00010000
00011000
01001000
00000000
,
01000000
00010000
01000000
00000000
00100000
00000000
10100000
00000000
,
10000000
01000000
10000000
00000000
00010000
00000000
00110000
00000000
,
00100000
00000000
00001000
00000000
00010000
00000010
00010000
00000000
,
00000100
00000110
00002002
00003003
,
00001100
00000000
00001100
00000000
00010100
00000000
00010000
00001000
,
01000000
00000000
01010000
00000000
00010000
10000000
00000000
01000000
,
00100000
00000000
00010000
00000000
01000000
00010000
01000000
00000000
,
00001000
00011000
00010100
00000000
,
00001010
00000000
00001010
00000000
00010010
00000000
00010000
00001000
,
00010000
00000000
00000100
00000000
00001000
00000001
00001000
00000000
,
00010010
00001000
00101000
00010000
,
01100000
10010000
02200000
03300000
,
00000000
10000000
01000000
00000000
00010000
00010000
00000000
00001000
,
00000100
00000000
00000001
00000001
00000000
00000010
00000100
00000000
,
00001000
00000010
00001000
00000000
00000001
00000010
00000001
00000000
,
00000000
00000001
00000100
00000000
00001000
00001000
00000000
00010000
,
01000000
00000000
10000000
10000000
00000000
00100000
01000000
00000000
,
00010000
01000000
00010000
00000000
10000000
01000000
10000000
00000000
,
00000000
10000000
00100000
00000000
00010000
00010000
00000000
00001000
,
00000010
00000000
00000001
00000001
00000000
00000100
00000010
00000000
,
00001000
00000010
00001000
00000000
00000001
00000010
00000001
00000000
,
00000000
00000001
00000010
00000000
00001000
00001000
00000000
00010000
,
00100000
00000000
10000000
10000000
00000000
01000000
00100000
00000000
,
00001000
00010010
00010000
00101000
,
00020000
00000000
01030000
10010000
,
10000000
01000000
10000000
01000000
00100000
00000000
00001000
00000000
,
00010000
00000000
00000010
00001000
00000020
00000000
00000030
00000000
,
00000100
00000001
00000100
00000000
00001000
00010000
00001000
00000000
,
00100000
00000000
00010000
01000000
00010000
00000000
10000000
00000000
,
01000000
00000000
00100000
00010000
00100000
00000000
00001000
00000000
,
00010000
00000000
00000100
00000010
00000100
00000000
00001001
00000000
,
00000101
00000000
00000011
00000000
00000010
00000100
00000010
00000000
,
00000001
00000000
00001000
00000010
00000000
00010000
00000010
00000000
,
00001000
00000100
00001000
00000100
00010000
00000000
00001000
00000000
,
01001000
00000000
01000000
00010000
02000000
00000000
03000000
00000000
,
00100000
10000000
00100000
00000000
10000000
01000000
10000000
00000000
,
00010000
00000000
01000000
00001000
00010000
00000000
00000100
00000000
,
00001000
00000010
00001000
00000010
00000100
00000000
00000001
00000000
,
00000010
00000000
00000000
00000010
00000000
00000000
00000100
00000000
00010000
00000000
00000000
00010000
00000000
00000000
00001000
00000000
,
00100000
00000000
00010000
00000000
01000000
00100000
01000000
00000000
,
00010000
00000000
10000000
01000000
00000000
01000000
00010000
00000000
,
00002000
00000000
00000000
00000000
,
00000000
00000000
00000000
00003000
,
00010100
00000000
00011000
00000000
00010010
00000000
00000010
00001000
,
00000000
00000100
00010000
00000000
00022000
00000000
00033000
00000000
,
01001000
00000000
00011000
00000000
00101000
00000000
00100000
00010000
,
00000000
01000000
00001000
00000000
00022000
00000000
00033000
00000000
,
00010010
00000000
00011000
00000000
00010100
00000000
00000100
00001000
,
00000000
00000010
00010000
00000000
00022000
00000000
00033000
00000000
,
00101000
00000000
00011000
00000000
01001000
00000000
01000000
00010000
,
00000000
00100000
00001000
00000000
00010000
00010000
00001000
00000000
,
00010100
00000000
00101000
00000000
00010100
00000000
00000100
00001000
,
00000000
00000010
00010000
00000000
00022000
00000000
00033000
00000000
,
01001000
00000000
00010010
00000000
01001000
00000000
01000000
00010000
,
00000000
00000000
00000000
00100000
00000000
00000000
00001000
00000000
00000000
00000000
00000000
00000000
00010000
00000000
00000000
00000000
00010000
00000000
00000000
00000000
00010000
00000000
00000000
00000000
,
00010010
00000000
01001000
00000000
00010010
00000000
00000010
00001000
,
00000100
00000000
00010000
00001000
01000000
00000000
00010000
00000000
,
01001000
00000000
00010010
00000000
01000000
00001000
01000000
00001000
,
00000000
00010000
00000100
00000000
00000220
00000000
00000330
00000000
,
00000001
00000100
00000000
00001000
00010000
00000000
01000000
00000000
,
02200000
03300000
00000000
00000000
;

//--------------- dance-double - forcednature ----------------
#NOTEDATA:;
#STEPSTYPE:dance-double;
#DESCRIPTION:forcednature;
#CREDIT:forcednature;
#DIFFICULTY:Hard;
#METER:15;
#RADARVALUES:0,0,0,0,0;
#NOTES:
00000000
00000000
00000000
00000000
,
00000000
00000000
00000000
00000000
,
00000000
00000000
00000000
00000000
,
00000000
00000000
00000000
00000000
,
00000000
00000000
00000000
00000000
,
00001000
00000000
00010000
00000000
00100000
00000000
10000000
01000000
,
00000000
01100000
00022000
00033000
,
00010000
00000000
00001000
00000000
00000010
00000000
00000001
00000100
,
00000000
00001000
00010000
00000000
00100000
00100000
01000000
00000000
,
00010000
10000000
01000000
10000000
00100000
10000000
01000000
00020000
,
00000000
00031000
00000010
00000100
00001000
00000010
00000001
00000010
,
00000100
00000001
00000010
00000001
00001000
00001000
00000100
00020000
,
00000000
00000000
00000000
00031000
00000000
00000000
01000000
00000000
00000000
00010000
00000000
00000000
00100000
00000000
00000000
00000000
01100000
00000000
00000000
00000000
01000000
00000000
00000000
00000000
,
10000000
00100000
10000000
01000000
10000000
00100000
00010000
00001000
,
00000100
00000000
00000010
00000100
00000010
00000000
00001000
00000000
00000001
00000000
00000010
00000100
00002000
00000000
00000000
00000000
,
00003010
00000100
00001000
00000100
00000010
00000010
00010000
00011000
,
00000000
00000000
00001000
00000000
00100000
00000000
00010000
00000000
10000000
00100000
00000000
00100000
02000000
00000000
00000000
00000000
,
03010000
00100000
01000000
00100000
00001000
00001000
00001000
00000000
,
00020010
00001000
00130000
00000000
,
00010000
00000010
00000100
00000010
00001000
00001000
00001000
00000000
,
00020100
00001000
01030000
00000000
,
01000000
10000000
01000000
00100000
00001000
00001000
00010000
00000010
,
00000000
00000100
00001000
00000100
00000001
00000010
00000100
00010000
,
00001000
01000000
00100000
10000000
01000000
01000000
01000000
00000000
,
00102000
00003100
00102000
00003100
,
00001000
00000000
00000110
00000000
00000001
00000001
00000001
00000000
,
00000100
00000010
00000100
00001000
00010000
00000000
00011000
00000000
,
00001000
00100000
00001000
00010000
00100000
00100000
00100000
00000000
,
01002000
00010000
00003100
00000000
,
00001000
00010000
00001000
01000000
00010000
00010000
00010000
00000000
,
00100000
10000000
00100000
00010000
01000000
00000000
00011000
00000000
,
00001000
00000100
00000001
00000000
00000010
00000010
00000010
00000100
,
00020100
00001000
02000000
03030000
,
01000000
00100000
01000000
10000000
00100000
00100000
00100000
01000000
,
00001000
00010000
00001000
00000010
00000100
00000110
00000000
00000010
,
00000001
00000100
00001000
00010000
00100000
00100000
00100000
00001000
,
01002000
00000000
00010000
00000000
00003100
00001000
00010000
00000000
,
00000010
00010000
00001000
00000010
00000100
00000100
00000100
00010000
,
00001000
01000000
00010000
00100000
01000000
00010000
00000000
01000000
,
11000000
00000000
10000000
00100000
00110000
00000000
00010000
00001000
,
00011000
00000000
00000000
00000000
00010100
00000000
00000000
00000000
00000100
00000000
00001000
00000000
00000001
00000010
00000001
00000000
,
00000000
00000100
00001000
00010000
01000000
01100000
00000000
01000000
,
00010000
00001000
00000100
00000110
00000000
00000100
00001000
00010000
,
00001000
00000000
00100000
00000000
01100000
00000000
00000000
00000000
00010000
10000000
00010000
00000000
01000000
00010000
01000000
00000000
,
00000000
00100000
00010000
00001000
00000010
00000110
00000000
00000010
,
00001000
00010000
00100000
01100000
00000000
01000000
00001000
00010000
,
00001000
00000000
00000010
00000000
00000110
00000000
00000000
00000000
00000100
00001000
00000100
00000000
00000010
00000001
00000010
00000000
,
00000000
00000001
00000100
00001000
00010000
00110000
00000000
10000000
,
01000000
00010000
00001000
00001010
00000000
00000001
00000100
00001000
,
00010000
00000000
01000000
00000000
01100000
00000000
00000000
00000000
00100000
00010000
00100000
00000000
01000000
10000000
01000000
00000000
,
00000000
10000000
00100000
00010000
00001000
00001100
00000000
00000001
,
00000010
00001000
00010000
01010000
00000000
01000000
00100000
00001000
,
00010000
00000000
00000010
00000000
00001000
00000100
00001000
00000000
00000001
00000000
00000100
00000000
00001000
00000000
00010000
00000000
,
00011000
00000000
00000000
00000000
00001000
00000000
01000000
00000000
00010000
00000000
00100000
01000000
00100000
00000000
00000000
00000000
,
01000000
00000000
10000000
00000000
01000000
00000000
00010000
00000000
00001000
00000000
00100000
00010000
00100000
00000000
00000000
00000000
,
00101000
00000000
00001000
00010000
00000010
00001000
00000100
00000000
,
00000010
00001000
00020000
00000000
00130000
00010000
00002000
00000000
,
00013000
00000000
01000000
00000000
10000000
00000000
01000000
00000000
00100000
00010000
00100000
00000000
00001000
00000000
00010000
00000010
,
00010000
00000000
00001000
00000000
00000010
00000000
00000100
00000000
00000010
00000000
00000000
00000010
00000002
00000000
00000000
00000000
,
00000103
00000000
00001000
00000000
00010000
00000000
00001000
00000000
00100000
00000000
00000000
00100000
02000000
00000000
00000000
00000000
,
13000000
00010000
10000000
00100000
00010000
00001000
00000010
00000001
,
00000100
00000100
00001000
00020000
00000000
01030000
00100000
01000000
,
00010000
00000000
00001000
00000000
00000100
00000000
00000010
00000000
00001000
00000000
00000001
00000010
00000001
00000000
00000000
00000000
,
00000101
00000000
00000100
00001000
00010000
00100000
10000000
00000000
,
01000000
00010000
00002000
00000000
00003100
00001000
00010000
00001000
,
00000010
00000000
00000100
00000000
00000010
00000000
00000001
00000000
00001000
00000000
00000000
00000000
00000100
00000000
00001000
00000100
,
00001000
00000000
00000010
00000000
00010000
00000000
00001000
00000000
00100000
00000000
00000000
00100000
01000000
00000000
00000000
00000000
,
10000000
00000000
00000000
00100000
00000000
00000000
00010000
00000000
00001000
00000000
00000000
00000010
00000000
00000000
00000001
00000000
,
00000100
00000001
00000010
00000100
00010000
00001000
01000000
00100000
,
10000000
01000000
00010000
00012000
00000000
00003100
00000001
00000010
,
00000220
00000000
00000000
00000000
,
00000000
00000000
00000000
00000330
,
00000010
00000000
00001000
00000000
00010000
00000000
00001000
01000000
00001000
00000000
00100000
00000000
00010000
00000000
02000000
00000000
,
00000000
03100000
10000000
01000000
00010000
00001000
00000100
00000001
,
00000010
00000100
00000010
00000001
00000100
00000100
00000010
00020000
,
00000000
00000000
00031000
00000000
00100000
00000000
01000000
00000000
10000000
00100000
10000000
00000000
00010000
01000000
00010000
00000000
,
10000000
00000000
01000000
00000000
00010000
00000000
00001000
00100000
00001000
00000000
00010000
00000000
00000010
00000000
00002000
00000000
,
00000000
00003100
00000001
00000100
00000010
00001000
00010000
00001000
,
01000000
00100000
00010000
00100000
10000000
00010000
00100000
02000000
,
00000000
00000000
03010000
00000000
00001000
00000000
00000010
00000000
00000100
00001000
00000100
00000000
00000011
00000000
00000000
00000000
,
00000001
00000000
00000100
00000000
00001000
00000000
00010000
00001000
00010000
00000000
00001000
00000000
00100000
00000000
02000000
00000000
,
00000000
03100000
00001000
00010000
00100000
10000000
01000000
00010000
,
00001000
00000010
00000100
00001000
00000001
00000001
00000100
00002000
,
00000000
00000000
00000000
00013000
00000000
00000000
01000000
00000000
00000000
00100000
00000000
00000000
00001000
00000000
00000000
00000000
00011000
00000000
00000000
00000000
00010000
00000000
00000000
00000000
,
00000010
00000000
00000100
00000000
00001000
00000000
00000100
00000001
00000100
00000000
00000010
00000000
00010000
00000000
00001000
00000000
,
00100000
00000000
00010000
00100000
01000000
00000000
10000000
00000000
00010000
00000000
01000000
00001000
00020000
00000000
00000000
00000000
,
00030100
00001000
00000010
00000100
00000001
00000001
00000010
00000210
,
00000000
00000000
00010300
00000000
00001000
00000000
01000000
00000000
00010000
10000000
00000000
10000000
01000000
00000000
00100000
00000000
,
00001000
01001000
00000000
00010000
00010100
00000000
00000110
00000000
,
00002002
00003003
00000000
00000000
;
