#VERSION:0.83;
#TITLE:魅惑のYUMMYスイーツ;
#SUBTITLE:;
#ARTIST:BEMANI Sound Team "TATSUYA";
#TITLETRANSLIT:Miwaku no YUMMY sweets;
#SUBTITLETRANSLIT:;
#ARTISTTRANSLIT:TATSUYA;
#GENRE:TWINKLE POP;
#CREDIT:;
#MUSIC:Miwaku no YUMMY sweets.ogg;
#BANNER:Miwaku no YUMMY sweets.png;
#BACKGROUND:Miwaku no YUMMY sweets-bg.png;
#CDTITLE:./CDTitles/bm IIDX 27 HEROIC VERSE.png;
#SAMPLESTART:71.967;
#SAMPLELENGTH:15.000;
#SELECTABLE:YES;
#OFFSET:0.707;
#BPMS:0.000=208.000;
#STOPS:;
#TIMESIGNATURES:0.000=4=4;
#BGCHANGES:0.000=Miwaku no YUMMY sweets.mp4=1.000=0=0=1,
99999.000=-nosongbg-=1.000=0=0=0=StretchNoLoop====
;
#FGCHANGES:;

//--------------- dance-single - t7r ----------------
#NOTEDATA:;
#STEPSTYPE:dance-single;
#DESCRIPTION:t7r;
#DIFFICULTY:Beginner;
#METER:7;
#RADARVALUES:0,0,0,0,0;
#CREDIT:t7r;
#NOTES:
0000
0000
0000
0000
,
0000
0000
0000
0000
,
0000
0000
0000
0000
,
0000
0000
0000
0000
,
0000
0000
0000
0000
,
0000
0000
0000
0000
,
0000
0000
0000
0000
,
1000
0000
1000
0000
,
0001
0100
0001
0000
,
1000
0000
1000
0000
,
0001
0010
0001
0000
,
0100
0000
0100
0000
,
0010
0100
0001
0000
,
0010
0000
0010
0000
,
0100
0100
0100
0000
,
0000
1000
1000
0000
,
0001
0000
0100
0000
,
0000
0001
0001
0000
,
1000
0000
0010
0010
,
0000
1000
1000
0000
,
0100
0000
1000
0000
,
0002
0003
0200
0300
,
0020
0030
2000
3000
,
0100
0000
0100
0000
,
0010
0000
0100
0000
,
1000
0000
1000
0000
,
0001
0000
2002
3003
,
0001
0000
0001
0000
,
0100
0000
0100
0000
,
0010
0000
0010
0000
,
1000
0000
1000
0000
,
0000
0001
0001
0000
,
0010
0000
0100
0000
,
0000
1000
1000
0000
,
0010
0000
0100
0100
,
0000
0001
0001
0000
,
1000
0000
0100
0000
,
0010
0000
0010
0000
,
0100
0000
0100
0000
,
1000
0000
0000
0000
,
1100
0000
0000
0000
,
0001
0000
0000
0000
,
0101
0000
0101
0000
,
1000
0000
0000
0000
,
1010
0000
0000
0000
,
0001
0000
0001
0000
,
0010
0000
0010
0000
,
0200
0000
0000
0300
,
2000
0000
0000
3000
,
0002
0000
0000
0003
,
0200
0000
0000
0300
,
0020
0000
0000
0030
,
2000
0000
0000
3000
,
0001
0001
0001
0001
,
2002
0000
0000
3003
,
0220
0000
0000
0330
,
1000
1000
0001
0001
,
0100
0100
0010
0010
,
1000
0000
0001
0000
,
1001
0000
0000
0000
,
0000
0000
0000
0000
,
1000
0000
0100
0200
,
0000
0000
0000
0300
,
1000
1000
0001
0000
,
0001
0001
1000
0000
,
0000
0010
0000
0010
,
0000
0100
0100
0100
,
0000
0001
0001
0000
,
1000
1000
1000
0000
,
0000
0100
0000
0100
,
0000
0010
0010
0000
,
0001
0001
0001
0000
,
1000
1000
1000
0000
,
0000
1001
0000
1001
,
0000
1001
0001
0001
,
0000
1000
1000
0000
,
0000
0100
0100
0000
,
0010
0000
0010
0000
0010
0000
0000
0010
,
0000
0010
0010
0000
,
0001
1000
0001
0000
,
0100
0010
0100
0000
,
0001
0101
0000
0101
,
0000
0101
0101
0000
,
1000
0001
1000
0000
,
0100
0010
0100
0000
,
0000
1100
0000
1100
,
0000
1100
1100
0000
,
1000
0010
1000
0000
,
0001
0100
0001
0000
,
0000
0011
0000
0011
,
0000
0011
0011
0000
,
1000
0100
1000
0000
,
0001
0100
0001
0000
,
1000
0000
1000
0000
1000
0000
0000
1000
,
0000
1000
1000
0000
,
0001
0000
0001
0000
0001
0000
0000
0001
,
0000
0001
0001
0000
,
0110
0000
0110
0000
0110
0000
0000
0110
,
0000
0110
0110
0000
,
1001
0000
1001
0000
1001
0000
0000
1001
,
0000
1001
1001
0000
;

//--------------- dance-single - forcednature ----------------
#NOTEDATA:;
#STEPSTYPE:dance-single;
#DESCRIPTION:forcednature;
#DIFFICULTY:Easy;
#METER:11;
#RADARVALUES:0,0,0,0,0;
#CREDIT:forcednature;
#NOTES:
0000
0000
0000
0000
,
0000
0000
0000
0000
,
0000
0000
0000
0000
,
0000
0000
0000
0000
,
0000
0000
0000
0000
,
0000
0000
0000
0000
,
0000
0000
0000
0000
,
0001
0100
0010
1000
,
0001
0100
0000
0001
0000
0000
1000
0000
,
0001
0010
0100
1000
,
0001
0000
0010
0100
0000
0000
1000
0000
,
1001
0001
0100
0010
,
1000
0001
0000
0100
0000
0000
0010
0000
,
0202
0303
2020
3030
,
0100
1001
0010
1001
,
0000
1000
0100
0010
0001
0000
0010
0100
,
1000
0000
0100
0010
0001
0000
0001
1000
,
0000
0001
0100
0010
1000
0000
0010
0100
,
0001
0000
0100
0010
1000
0000
1001
0000
,
0000
0001
0010
0100
1000
0000
0100
0010
,
0001
0000
0010
0100
1000
0000
1000
0001
,
0200
0000
0320
0000
,
1030
0000
1001
0000
0001
0010
0001
0000
,
2000
0010
0001
0100
,
0001
0010
0001
0100
,
3002
0010
1000
0100
,
1000
0010
2003
3002
,
0023
1000
0100
0001
,
0100
1000
0100
0001
,
0130
0010
0100
0000
0010
0100
0010
0000
,
0110
0000
1001
0000
1000
0001
1000
0001
,
0000
1000
0010
0100
0001
0000
0010
0100
,
1000
0000
0010
0100
0001
0000
0001
1000
,
0000
0001
0010
0100
1000
0000
0010
0100
,
0001
0000
0010
0100
1000
0000
1001
0000
,
0000
1000
0001
0100
0010
0000
1000
0001
,
0010
0000
0001
1000
0100
0000
1000
0001
,
0200
0000
0320
0000
,
1030
0000
1001
0000
0001
0010
0100
1000
,
0002
0100
1000
0010
,
0100
0010
1000
0010
,
2003
0100
0001
0010
,
0100
0010
0100
0010
,
3002
0100
1000
0010
,
0100
0010
1000
0103
,
0202
0303
2020
3030
,
1100
0000
0011
0000
1000
0001
1000
0000
,
1001
0000
0000
0000
0000
0000
0000
0002
,
0000
0000
0000
0000
0000
0000
0000
0203
,
0000
0000
0000
0000
0000
0000
0000
0320
,
0000
0000
0000
0000
0000
0000
0000
2030
,
0000
0000
0000
0000
0000
0000
0000
3002
,
0000
0000
0000
0000
0000
0000
0000
0023
,
0100
0100
0100
0130
,
0110
0000
0100
0000
1000
0001
0100
0000
,
0110
0000
0100
0000
0001
1000
0100
0000
,
0010
0001
0010
0001
1000
0000
0000
0000
,
0010
1000
0010
1000
0100
1000
0100
1000
,
0001
0000
1000
0000
0001
0000
1000
0000
0000
0000
0000
0000
,
2002
0000
0000
0000
,
3003
0000
0000
0000
,
0010
0000
0000
0000
0000
0000
0000
0000
0000
0000
0000
0000
0000
0000
0000
0000
0000
0000
0000
0000
0000
0000
0000
0000
0000
0000
0000
0000
0000
0000
0000
0000
0100
0000
0000
0000
0000
0000
0000
0000
0000
0000
0000
0000
0000
0000
0100
0000
0000
0000
0000
0000
0000
0002
0000
0000
0000
0000
0000
0000
0000
0000
0000
0000
,
0000
0000
0000
0000
,
1003
0001
1000
0000
0001
0010
0000
0010
,
0000
0100
1000
0000
0001
0100
0001
0000
,
1000
1001
0001
1001
,
1000
1001
0110
1001
,
0001
0010
0001
0000
1000
0100
0000
0100
,
0000
0010
0001
0000
1000
0010
1000
0000
,
0001
1001
1000
1001
,
0100
1001
0110
1001
,
0001
0100
0001
0000
1000
0010
0000
1000
,
0000
0001
0010
0000
0100
1000
0100
0000
,
0010
1001
0100
1001
,
0010
1001
0110
1001
,
1000
0100
1000
0000
0001
0100
0000
0100
,
0000
0010
1000
0000
0001
0010
0001
0000
,
1001
0000
1001
0000
1000
0001
0000
1001
,
0000
0001
1000
0000
2002
0000
3003
0000
,
0001
0100
0001
0100
0001
0100
0000
0010
,
0000
1000
0001
0000
1000
0100
1000
0000
,
0001
0011
0010
0011
,
0001
0011
1100
0011
,
0001
1000
0001
0000
0100
0001
0000
1000
,
0000
0010
1000
0000
0001
0100
0010
0000
,
1000
1010
0010
1010
,
1000
1010
0101
1010
,
0001
0010
0001
0000
1000
0100
0000
0010
,
0000
0001
1000
0000
0001
0100
0001
0000
,
1000
1100
0001
0101
,
1000
1001
0110
1001
,
0001
0010
0001
0000
1000
0010
0000
0010
,
0000
0100
0001
0000
1000
0100
1000
0000
,
1001
0000
1001
0000
1000
0001
0000
1001
,
0000
0001
1000
0000
2002
0000
3003
0000
,
0110
0000
0110
0000
0010
0100
0000
0110
,
0000
0100
0010
0000
0220
0000
0330
0000
,
1001
0000
1001
0000
0001
1000
0000
1001
,
0000
1000
0001
0000
2002
0000
3003
0000
,
1001
0000
0110
0000
1000
0001
0000
0110
,
0000
0001
1000
0000
2002
0000
0000
0000
,
0000
0000
0000
0000
,
0000
0000
0000
0000
,
3003
0000
0000
0000
;

//--------------- dance-single - t7r ----------------
#NOTEDATA:;
#STEPSTYPE:dance-single;
#DESCRIPTION:t7r;
#DIFFICULTY:Medium;
#METER:13;
#RADARVALUES:0,0,0,0,0;
#CREDIT:t7r;
#NOTES:
0000
0000
0000
0000
,
0000
0000
0000
0000
,
0000
0000
0000
0000
,
0000
0000
0000
0000
,
0000
0000
0000
0000
,
0000
0000
0000
0000
,
0000
0000
0000
0000
,
1000
0000
0100
0010
0000
0000
0100
0000
,
1000
1000
0000
1000
0000
0000
0001
1000
,
0001
0000
0100
0010
0000
0000
0100
0000
,
0001
0000
0000
0001
0000
1000
0100
0010
,
0001
0000
1000
0010
0000
0000
0100
0000
,
0010
0010
0000
0010
0000
0000
1000
0000
,
0002
0010
2003
0010
,
3001
0011
1001
0101
,
0000
1000
0100
0010
0001
1000
0010
0100
,
0010
1000
0001
0100
0010
1000
0001
1000
,
0000
0001
0010
0100
1000
0100
0010
0001
,
0100
0010
0100
0001
1000
0000
1001
0000
,
0000
1000
0010
0100
0001
1000
0100
0010
,
0001
0010
0100
1000
0010
0100
0001
1000
,
0002
0100
2003
0100
,
3001
0101
1001
1010
,
1000
0100
0020
0000
0031
0100
0020
0000
,
1030
0100
0020
0000
0031
0000
0001
0000
,
1000
0010
0200
0000
0301
0010
0200
0000
,
1300
0010
0100
0001
1000
0000
1001
0000
,
0001
0010
0200
0000
1300
0010
0200
0000
,
0310
1000
0200
0000
0310
0000
0010
0000
,
0100
1000
0010
0000
0100
0001
0010
0000
,
0100
1000
0010
0100
0001
0000
1001
0000
,
0000
1000
0100
0010
0100
1000
0100
0001
,
0100
0010
0100
1000
0001
0100
0001
1000
,
0000
0001
0100
0010
0100
0001
0100
1000
,
0100
0010
0100
0001
1000
0000
1001
0000
,
0000
0001
0010
0100
0010
0001
0010
1000
,
0010
0001
0100
0010
1000
0100
0010
0001
,
1000
0010
2000
0000
3001
0010
0002
0000
,
1003
1100
1001
0011
,
0001
0200
1000
0000
0301
0100
0010
0000
,
0101
0000
1000
0100
0010
0100
1000
0001
,
1000
0200
0001
0000
1300
0100
0010
0000
,
1100
0000
1000
0001
0200
0300
0200
0300
,
0001
0020
1000
0000
0031
0010
0100
0000
,
0011
0000
1000
0010
0100
0010
1000
0001
,
2000
0010
3002
0010
,
1003
1000
0100
0000
0110
0000
1001
0000
,
2010
0000
0000
0000
0000
0000
0000
3100
,
0020
0000
0000
0000
0000
0000
0000
0230
,
0000
0000
0000
0000
0000
0000
0000
2300
,
0001
0000
0000
0000
0000
0001
0000
0000
0000
0000
0000
0000
0000
0000
3002
0000
,
0000
0000
0000
0000
0000
0000
0000
0203
,
0010
0000
0000
0000
0000
0000
0000
0320
,
0001
0100
1000
1030
,
1001
0001
0100
0100
0010
0010
1000
0000
,
0001
0001
0010
0010
0100
0000
0000
1000
,
0001
1000
0001
1000
0010
0000
0000
0000
,
1000
0100
0001
0100
1000
0100
0001
0100
,
1000
0000
0010
0000
0100
0000
0001
0000
0000
0000
0000
0000
,
2001
0000
0000
0000
,
0000
0000
0000
0000
,
3010
0000
0000
0000
0000
0000
0000
0000
0000
0000
0000
0000
0000
0000
0000
0000
0000
0000
0000
0000
0000
0000
0000
0000
0000
0000
0000
0000
0000
0000
0000
0000
0100
0000
0000
0000
0000
0000
0000
0000
0000
0000
0000
0000
0000
0000
0100
0000
0000
0000
0000
0000
0000
0002
0000
0000
0000
0000
0000
0000
0000
0000
0000
0000
,
0000
0000
0000
0000
,
1003
0100
0010
0100
1000
0001
0000
0100
,
0000
0001
0010
0000
0001
0100
0010
1000
,
0100
0011
0100
1010
,
0100
1001
0110
1001
,
0001
0010
0100
0010
0001
1000
0000
0010
,
0000
1000
0100
0000
1000
0010
0100
0001
,
0010
1100
0010
0101
,
0010
1001
0110
1001
,
1000
0001
0100
0010
1000
0001
0000
0010
,
0000
0100
1000
0000
0100
0010
0001
0100
,
0010
1001
0100
1001
,
0010
1001
0110
1001
,
0001
1000
0010
0100
0010
1000
0000
0001
,
0000
0010
0000
0001
1000
0010
0100
0001
,
1000
0000
1100
0000
0001
0001
0000
0101
,
0000
1000
1000
0000
2001
0000
3010
0000
,
1000
0100
1000
0100
0010
0001
0100
0001
,
0000
1000
0001
0010
0100
1000
0001
0100
,
0010
0100
0001
0100
0010
0100
1000
0100
,
0010
0100
0001
0000
1001
0000
0110
0000
,
0001
0010
0001
0010
0100
1000
0010
1000
,
0000
0001
1000
0100
0010
0001
1000
0010
,
0100
0010
1000
0010
0100
0010
0001
0010
,
0100
0010
1000
0000
1001
0000
0110
0000
,
1000
0100
0010
0001
1000
0010
0100
0001
,
0000
0010
0100
1000
0001
0010
0001
1000
,
0001
0100
0110
0000
1000
0100
0110
0000
,
0001
0100
0110
0000
1001
0000
0110
0000
,
0001
0010
0100
1000
0001
0100
0010
1000
,
0000
0100
0010
0001
1000
0100
1000
0001
,
1000
0000
1100
0000
0001
0001
0000
0101
,
0000
1000
1000
0000
0010
0100
0002
0000
,
0013
0000
1100
0000
0001
0001
0000
0110
,
0000
1000
1000
0000
0100
0010
0002
0000
,
0103
0000
1010
0000
0001
0001
0000
0110
,
0000
0100
0100
0000
1000
0010
0100
0001
,
1001
0000
0101
0000
1001
1001
0000
1100
,
0000
0000
1001
0000
1001
0000
0001
1000
0002
0000
0000
0000
0000
0000
0000
0000
,
0000
0000
0000
0000
,
0000
0000
0000
0000
,
0003
0000
0000
0000
;

//--------------- dance-single - 47R ----------------
#NOTEDATA:;
#STEPSTYPE:dance-single;
#DESCRIPTION:47R;
#DIFFICULTY:Hard;
#METER:16;
#RADARVALUES:0,0,0,0,0;
#CREDIT:47R;
#NOTES:
0000
0000
0000
0000
,
0000
0000
0000
0000
,
0000
0000
0000
0000
,
0000
0000
0000
0000
,
0000
0000
0000
0000
,
0000
0000
0000
0000
,
0000
0000
0000
0000
,
1000
0000
0100
0010
0000
0100
1000
0000
,
0001
0000
0001
0000
0100
0000
0001
0000
0000
0000
1000
0000
0001
0100
0001
0000
,
1000
0000
0010
0100
0000
0010
1000
0000
,
0100
0000
0000
0000
0001
0000
0100
0000
0000
0000
1000
0001
1000
0000
0001
0000
,
1000
0000
0010
0001
0000
0000
0010
0000
,
0100
0000
0100
0000
0001
0000
1000
0000
0000
0000
0000
0000
0100
0010
0100
0000
,
2000
0010
3002
0010
,
1003
0000
0100
1000
0001
0000
0000
0000
1001
0000
0000
0000
1001
0000
0000
0000
,
0000
0000
0001
0000
0010
0000
0001
0000
1000
0000
0001
0100
0001
0000
1000
0000
,
0001
0000
1000
0100
1000
0000
0001
0000
0100
0000
0001
1000
0001
0000
1000
0000
,
0000
0000
0001
0000
0010
0000
0001
0000
0100
0000
0010
0100
0010
0000
0100
0000
,
1000
0100
0001
1000
1001
0000
1001
0000
,
0000
0000
1000
0000
0010
0000
1000
0000
0001
0000
1000
0100
1000
0000
0001
0000
,
1000
0000
0001
0100
0001
0000
1000
0000
0001
0000
1000
0100
1000
0000
0010
0000
,
2000
0100
3002
0010
,
1003
0000
0100
0010
0001
0000
0000
0000
1001
0000
0000
0000
0110
0000
0000
0000
,
0001
0010
0100
1000
0001
0010
0100
1000
,
0020
0000
0001
0000
0100
0000
1030
0001
,
1000
0010
0100
0001
1000
0010
0100
0001
,
1000
0100
0001
0100
2000
3000
2000
3000
,
0001
0100
0010
1000
0001
0100
0010
1000
,
0200
0000
0001
0000
0010
0000
1300
0010
,
0200
1000
0320
0100
,
1030
0000
0001
1000
0001
0000
0000
0000
1000
0100
0000
0100
1000
0000
0001
0000
,
0000
0000
0100
0000
0010
0000
0100
0000
0001
0000
1000
0100
1000
0000
0001
0000
,
0010
0000
0001
0100
0001
0000
1000
0000
0010
0000
1000
0001
1000
0000
0100
0000
,
0000
0000
0010
0000
0001
0000
1000
0000
0010
0000
0100
0001
0100
0000
0010
0000
,
1000
0100
0001
0100
0110
0000
0100
0010
,
0000
0000
0001
0000
0100
0000
1000
0000
0100
0000
0010
1000
0010
0000
0100
0000
,
0001
0000
0010
0001
0010
0000
0100
0000
1000
0000
0001
1000
0001
0000
0100
0000
,
0020
0001
0230
1000
,
0301
0000
0100
0001
0100
0000
0010
0000
1000
0000
0100
1000
0100
0000
0010
0000
,
0001
0100
0010
0100
1000
0100
0010
0100
,
0002
0000
0103
0000
0010
0000
0100
0000
1000
0000
0100
0000
0010
0000
0100
0001
,
1000
0100
0010
0100
0001
0100
0010
0100
,
2000
0000
3100
0000
0010
0000
0100
0000
0002
0000
0103
0000
0010
0000
0100
1000
,
0001
0100
0010
0100
1000
0100
0010
0100
,
0002
0000
0103
0000
0010
0000
0100
0000
1000
0000
0100
0000
0010
0000
0100
0001
,
2000
0100
3002
0100
,
0013
0000
0001
1000
0001
0000
1000
0100
1000
0000
0001
0100
0001
0000
0010
0000
,
0100
0000
0000
0000
0000
0000
0000
2000
,
0010
0000
0000
0000
0000
0000
0000
3002
,
0000
0000
0000
0000
0000
0000
0000
0203
,
1000
0000
0000
0000
0000
1000
0000
0000
0000
0000
0000
0000
0000
0000
0302
0000
,
0000
0000
0000
0000
0000
0000
0000
0023
,
0100
0000
0000
0000
0000
0000
0000
0032
,
1000
0000
1000
0000
1000
0000
1000
0003
,
0001
0100
0001
0000
1000
0000
1000
0000
0010
0000
0100
0000
0001
0000
0000
0000
,
1000
0100
1000
0000
0001
0000
0001
0000
0010
0000
0100
0000
1000
0000
0000
0000
,
0001
0100
0001
0000
1000
0010
1000
0000
0001
0000
0000
0000
0000
0000
0000
0000
,
1000
0100
1000
0000
0001
0010
0001
0000
1000
0010
1000
0000
0001
0100
0001
0000
,
0010
0000
0010
0000
0010
0000
0010
0000
0000
0000
0000
0000
,
2002
0000
0000
0000
,
3003
0000
0000
0000
,
0010
0000
0000
0000
0000
0000
0000
0000
0000
0000
0000
0000
0000
0000
0000
0000
0000
0000
0000
0000
0000
0000
0000
0000
0000
0000
0000
0000
0000
0000
0000
0000
0100
0000
0000
0000
0000
0000
0000
0000
0000
0000
0000
0000
0000
0000
0100
0000
0000
0000
0000
0000
0000
0002
0000
0000
0000
0000
0000
0000
0000
0000
0000
0000
,
0000
0000
0000
0000
,
1003
0100
0010
0100
1000
1000
0010
0100
,
0000
0000
0010
0000
0001
0000
0010
0000
1000
0100
1000
0000
0001
0000
0010
0000
,
0100
1000
1020
0000
0130
0001
0021
0000
,
0130
1000
1001
0000
0110
0000
1001
0000
,
0001
0010
0100
0010
0001
0001
0100
0010
,
0000
0000
0100
0000
1000
0000
0100
0000
0001
0010
0001
0000
1000
0000
0010
0000
,
0100
0001
0201
0000
0310
1000
1200
0000
,
0310
0001
1001
0000
0110
0000
1001
0000
,
1000
0100
0001
0100
1000
1000
0010
0100
,
0000
0000
1000
0000
0100
0000
0001
0000
0010
0100
1000
0000
0001
0000
0010
0000
,
0100
0010
0100
0010
0002
0000
0000
0000
0103
0010
0100
0010
2000
0000
0000
0000
,
3100
0010
0001
0000
1001
0000
0000
0000
0110
0000
0000
0000
1001
0000
0000
0000
,
1000
0010
0001
0010
1000
1000
0100
0010
,
0000
0000
1000
0000
0010
0000
0100
0000
1000
0010
1000
0000
0001
0010
0001
0000
,
1001
0000
0110
0000
0001
1001
0000
0110
,
0000
0000
0001
0000
0101
0000
0000
0000
1100
0000
1000
0010
2000
0000
0000
0000
,
3100
0010
1000
0010
0001
0001
0100
0010
,
0000
0000
1000
0000
0001
0000
0010
0000
0100
1000
0100
1000
0100
0000
0010
0000
,
0001
0000
0010
0100
2000
0000
0000
0000
3001
0000
0100
0010
2000
0000
0000
0000
,
3100
0010
0011
0000
1100
0000
0011
0000
,
0001
0010
1000
0010
0100
0100
1000
0001
,
0000
0000
0100
0000
0010
0000
1000
0000
0001
0100
0001
0100
0010
0000
1000
0000
,
0001
0010
0001
0000
2000
0000
0010
0000
3001
0100
0001
0000
2000
0000
0100
0000
,
3001
1000
1010
0000
0101
0000
1010
0000
,
0001
0100
1000
0100
0010
0010
1000
0001
,
0000
0000
0010
0000
0100
0000
1000
0000
0001
0100
0001
0000
1000
0000
0010
0000
,
1000
0100
0010
0001
0020
0000
0000
0000
0031
0100
0010
1000
0020
0000
0000
0000
,
0130
0001
1000
0000
1001
0000
0000
0000
0110
0000
0000
0000
1001
0000
0000
0000
,
1000
0100
0001
0100
0010
0010
0001
1000
,
0000
0000
0010
0000
0100
0000
0001
0000
1000
0100
0010
0001
1000
0000
0001
0000
,
0101
0000
1100
0000
0101
0101
0000
1100
,
0000
0000
0101
0000
0101
0000
0000
0000
1000
0010
0100
0001
1000
0000
0000
0000
,
1100
0000
0101
0000
1100
1100
0000
0101
,
0000
0000
1100
0000
1100
0000
0000
0000
0001
0010
0100
1000
0001
0000
0000
0000
,
1001
0000
0110
0000
1001
1001
0000
0110
,
0000
0000
1001
0000
1001
0000
0000
0000
0001
1000
0001
1000
0010
0000
0000
0000
,
1000
0000
0001
0100
0010
0000
1000
0100
0010
0000
0110
0000
0000
0000
1001
0000
,
0000
0000
1100
0000
1100
0000
1000
0001
0200
0000
0000
0000
0000
0000
0000
0000
,
0000
0000
0000
0000
,
0000
0000
0000
0000
,
0300
0000
0000
0000
;

//--------------- dance-double - forcednature ----------------
#NOTEDATA:;
#STEPSTYPE:dance-double;
#DESCRIPTION:forcednature;
#DIFFICULTY:Easy;
#METER:11;
#RADARVALUES:0,0,0,0,0;
#CREDIT:forcednature;
#NOTES:
00000000
00000000
00000000
00000000
,
00000000
00000000
00000000
00000000
,
00000000
00000000
00000000
00000000
,
00000000
00000000
00000000
00000000
,
00000000
00000000
00000000
00000000
,
00000000
00000000
00000000
00000000
,
00000000
00000000
00000000
00000000
,
00001000
00010000
00001000
01000000
,
00010000
00010000
10000000
00000000
,
01000000
10000000
00010000
00100000
,
00001000
00010000
00001000
00000000
,
00010000
00001000
00010000
00000100
,
00001000
00001000
00000001
00000000
,
00000200
00000001
00000302
00001000
,
00002003
00003020
00000230
00000302
,
00000003
00000000
00000100
00000001
00000100
00000000
00000001
00000000
,
00001000
00000010
00010000
00001000
,
00000000
00000000
00010000
00001000
00010000
00000000
00001000
00000000
,
00100000
00010000
00100000
01000000
,
00000000
00000000
10000000
01000000
10000000
00000000
01000000
00000000
,
00100000
00010000
00100000
00001000
,
00000000
00000000
00010000
00001000
00010000
00000000
00001000
00000000
,
00010000
00000100
00001000
00000100
,
00000020
00000000
00000001
00000000
,
00000100
00000000
00000001
00000000
,
00000230
00000000
00001000
00000000
,
00010000
00000000
00001000
00000000
,
00020300
00000000
00000010
00000000
,
00001000
00000000
00000010
00000000
,
00031000
00001000
00010000
00010000
,
00001000
00010000
00001000
00000000
00011000
00000000
00011000
00000000
,
00000000
00000000
01000000
00010000
01000000
00000000
00010000
00000000
,
10000000
00100000
10000000
01000000
,
00000000
00000000
00100000
00010000
00100000
00000000
00010000
00000000
,
01000000
00001000
00010000
00000010
,
00000000
00000000
00001000
00000100
00001000
00000000
00000100
00000000
,
00000010
00000001
00001000
00000010
,
00000000
00000000
00000100
00000001
00000100
00000000
00000001
00000000
,
00001000
00000100
00010000
00001000
,
02000000
00000000
00010000
00010000
,
03020000
00000000
00100000
00100000
,
00230000
00000000
01000000
01000000
,
02300000
00000000
00010000
00010000
,
03020000
00000000
00001000
00001000
,
00032000
00000000
00000010
00000010
,
00003010
00000001
00000100
00000001
,
00000010
00001000
00010000
00001000
,
00011000
00000000
00000000
00000000
00000000
00000000
00000000
00020000
,
00000000
00000000
00000000
00000000
00000000
00000000
00000000
00032000
,
00000000
00000000
00000000
00000000
00000000
00000000
00000000
02003000
,
00000000
00000000
00000000
00000000
00000000
00000000
00000000
03020000
,
00000000
00000000
00000000
00000000
00000000
00000000
00000000
00230000
,
00000000
00000000
00000000
00000000
00000000
00000000
00000000
02300000
,
10000000
10000000
10000000
13000000
,
10010000
00010000
01000000
00001000
,
00011000
00010000
00000100
00001000
,
00000001
00001000
00000001
00001000
00000001
00000000
00000000
00000000
,
00000100
00000010
00000100
00000000
00000010
00000100
00000010
00000000
,
00001000
00000000
00000001
00000000
00001000
00000000
00000001
00000000
00000000
00000000
00000000
00000000
,
00002002
00000000
00000000
00000000
,
00003003
00000000
00000000
00000000
,
00010000
00000000
00000000
00000000
00000000
00000000
00000000
00000000
00000000
00000000
00000000
00000000
00000000
00000000
00000000
00000000
00000000
00000000
00000000
00000000
00000000
00000000
00000000
00000000
00000000
00000000
00000000
00000000
00000000
00000000
00000000
00000000
00001000
00000000
00000000
00000000
00000000
00000000
00000000
00000000
00000000
00000000
00000000
00000000
00000000
00000000
00001000
00000000
00000000
00000000
00000000
00000000
00000000
00020000
00000000
00000000
00000000
00000000
00000000
00000000
00000000
00000000
00000000
00000000
,
00000000
00000000
00000000
00000000
,
00030100
00010000
00001000
00100000
,
00010000
00000000
00100000
00000000
00001000
00010000
00001000
00000000
,
01000000
10010000
00100000
10010000
,
01000000
10010000
10010000
10010000
,
00010000
01000000
00001000
00010000
,
00000010
00000000
00001000
00000000
00000001
00000100
00000001
00000000
,
00000010
00001001
00000100
00001001
,
00000010
00001001
00001001
00001001
,
00001000
00000010
00010000
00001000
,
01000000
00000000
00010000
00000000
00100000
00010000
00100000
00000000
,
01000000
10010000
00100000
10010000
,
01000000
10010000
10010000
10010000
,
00010000
00100000
00001000
00010000
,
00000010
00000000
00001000
00000000
00000001
00000010
00000001
00000000
,
00000100
00000000
00001001
00000000
00000001
00001000
00000000
00000001
,
00000000
00001000
00000001
00000000
00002002
00000000
00003003
00000000
,
00001000
00000100
00010000
00001000
,
00100000
00010000
00100000
00000000
00001000
00000000
00010000
00000000
,
00000010
00011000
00100000
00011000
,
00000010
00011000
00011000
00011000
,
01000000
00010000
10000000
01000000
,
00100000
00010000
00100000
00000000
00001000
00000000
00010000
00000000
,
00000100
00011000
01000000
00011000
,
00000100
00011000
00011000
00011000
,
00000010
00001000
00000001
00000010
,
00000100
00001000
00000100
00000000
00010000
00000000
00001000
00000000
,
00100000
00011000
00000100
00011000
,
01000000
00011000
00011000
00011000
,
00100000
00010000
10000000
00100000
,
10000000
01000000
10000000
00000000
00010000
00000000
00100000
00000000
,
01100000
00000000
01100000
00000000
01000000
00100000
00000000
01100000
,
00000000
01000000
00100000
00000000
02200000
00000000
03300000
00000000
,
00011000
00000000
00011000
00000000
00010000
00001000
00000000
00011000
,
00000000
00010000
00001000
00000000
00022000
00000000
00033000
00000000
,
00000110
00000000
00000110
00000000
00000100
00000010
00000000
00000110
,
00000000
00000100
00000010
00000000
00000220
00000000
00000330
00000000
,
00011000
00000000
00011000
00000000
00001000
00010000
00000000
00011000
,
00000000
00001000
00010000
00000000
00022000
00000000
00000000
00000000
,
00000000
00000000
00000000
00000000
,
00000000
00000000
00000000
00000000
,
00033000
00000000
00000000
00000000
;

//--------------- dance-double - t7r ----------------
#NOTEDATA:;
#STEPSTYPE:dance-double;
#DESCRIPTION:t7r;
#DIFFICULTY:Medium;
#METER:14;
#RADARVALUES:0,0,0,0,0;
#CREDIT:t7r;
#NOTES:
00000000
00000000
00000000
00000000
,
00000000
00000000
00000000
00000000
,
00000000
00000000
00000000
00000000
,
00000000
00000000
00000000
00000000
,
00000000
00000000
00000000
00000000
,
00000000
00000000
00000000
00000000
,
00000000
00000000
00000000
00000000
,
00000010
00000000
00000000
00001000
00000000
00000000
00000001
00000000
,
00000100
00000100
00000000
00000010
00000000
00000000
00010000
00000000
,
00001000
00000000
00000000
00010000
00000000
00000000
00001000
00000000
,
00100000
00000000
00000000
00010000
00000000
00000000
10000000
00000000
,
00010000
00000000
00000000
10000000
00000000
00000000
01000000
00000000
,
00100000
00100000
00000000
00001000
00000000
00000000
00010000
00000000
,
00002000
00000000
02003000
00000000
,
03010000
10000000
01000000
00010000
,
00000000
00001000
00000010
00000000
00000100
00001000
00000001
00000000
,
00000100
00000001
00000100
00000000
00000001
00000010
00000100
00001000
,
00000000
00000001
00000100
00000000
00000010
00001000
00000010
00000000
,
00001000
00000100
00010000
00000000
00011000
00000000
00011000
00000000
,
00000000
00010000
01000000
00000000
00100000
00010000
00100000
00000000
,
00010000
10000000
00100000
00000000
01000000
00010000
10000000
01000000
,
00100000
00000000
00011000
00000000
,
00000010
00000100
00000110
00000110
,
00000001
00000010
00000200
00000000
00001300
00000001
00000200
00000000
,
00001300
00000000
00000000
00000000
00010000
00001000
01000000
00010000
,
10000000
01000000
00200000
00000000
00310000
01000000
00200000
00000000
,
10300000
00100000
00010000
00000000
00011000
00000000
00011000
00000000
,
00001000
00000010
00000200
00000000
00001300
00000010
00000200
00000000
,
00000301
00000000
00000100
00001000
00010000
00000000
00001000
00000000
,
00010000
01000000
00200000
00000000
00310000
01000000
00200000
00000000
,
10300000
00010000
02000000
00000000
03001000
00010000
00001000
00010000
,
00000000
00001000
00000100
00000010
00001000
00000100
00000010
00000001
,
00000010
00000100
00001000
00000000
00010000
00100000
01000000
10000000
,
00000000
00010000
00100000
01000000
00010000
00000000
00001000
00000000
,
00000100
00000010
00001000
00000100
00010000
00000000
00011000
00000000
,
00000000
00010000
01000000
00100000
00010000
01000000
00100000
10000000
,
01000000
00100000
00010000
00000000
00001000
00000010
00000100
00000001
,
00001000
00000100
00020000
00000000
00031000
01000000
00020000
00000000
,
00130000
00010000
10000000
00010000
01000000
00000000
01100000
00000000
,
10000000
01000000
00010000
00000000
00001000
00000100
00000001
00000000
,
00001001
00000000
00000000
00000000
00000001
00000100
00000010
00000100
,
00000001
00000010
00001000
00000000
00010000
00100000
10000000
00000000
,
10010000
00000000
00011000
00011000
,
00000001
00000100
00001000
00000000
00010000
01000000
10000000
00000000
,
10010000
00000000
00000000
00000000
10000000
00100000
01000000
00010000
,
00001000
00000000
00001001
00000000
,
00000001
00001000
00010000
10000000
,
01200000
00000000
00000000
00000000
00000000
00000000
00000000
10300000
,
00020000
00000000
00000000
00000000
00000000
00000000
00000000
20030000
,
00000000
00000000
00000000
00000000
00000000
00000000
00000000
32000000
,
00100000
00000000
00000000
00000000
00000000
00100000
00000000
00000000
00000000
00000000
00000000
00000000
00000000
00000000
23000000
00000000
,
00000000
00000000
00000000
00000000
00000000
00000000
00000000
30200000
,
01000000
00000000
00000000
00000000
00000000
00000000
00000000
00320000
,
00001000
00001000
00001000
00001000
,
00031000
00000100
00000001
00000000
00000010
00000100
00001000
00000000
,
00010000
00100000
01000000
00010000
00001000
00000000
00000100
00000010
,
00001000
00000001
00000010
00001000
00010000
00000000
00001000
00000000
,
00010000
00100000
10000000
01000000
00100000
00000000
00001000
00010000
,
00001000
00000000
00000100
00000000
00000001
00000000
00001000
00000000
00000000
00000000
00000000
00000000
,
00002001
00000000
00000000
00000000
,
00000000
00000000
00000000
00000000
,
00003010
00000000
00000000
00000000
00000000
00000000
00000000
00000000
00000000
00000000
00000000
00000000
00000000
00000000
00000000
00000000
00000000
00000000
00000000
00000000
00000000
00000000
00000000
00000000
00000000
00000000
00000000
00000000
00000000
00000000
00000000
00000000
00000100
00000000
00000000
00000000
00000000
00000000
00000000
00000000
00000000
00000000
00000000
00000000
00000000
00000000
00000100
00000000
00000000
00000000
00000000
00000000
00000000
00000002
00000000
00000000
00000000
00000000
00000000
00000000
00000000
00000000
00000000
00000000
,
00000000
00000000
00000000
00000000
,
00001003
00000100
00000010
00000100
00001000
00000001
00000000
00000100
,
00000000
00000010
00001000
00000000
00000001
00000000
00000010
00000000
,
00001000
00011000
00010000
00011000
,
00001000
00011000
00011000
00011000
,
00001000
01000000
00010000
10000000
00100000
01000000
00000000
00010000
,
00000000
10000000
01000000
00000000
00100000
00001000
00010000
00000000
,
00001000
00011000
00010000
00011000
,
00001000
00011000
00011000
00011000
,
00001000
00000010
00000100
00000010
00000001
00001000
00000000
00000001
,
00000000
00000100
00000010
00000000
00001000
00000100
00010000
00000000
,
00001000
00011000
00010000
00011000
,
00001000
00011000
00011000
00011000
,
00010000
00100000
01000000
00100000
10000000
01000000
00000000
10000000
,
00000000
00010000
00000000
00100000
00001000
00010000
00001000
00000000
,
00011000
00000000
00011000
00000000
00010000
00010000
00000000
00011000
,
00000000
00001000
00001000
00000000
00011000
00000000
00000000
00000000
,
00000010
00001000
00000001
00001000
00000001
00000100
00000000
00000001
,
00000000
00000010
00001000
00000000
00010000
00100000
01000000
00010000
,
10000000
00110000
00001000
00011000
,
00010000
00011000
00011000
01100000
,
10000000
01000000
00100000
01000000
10000000
00100000
00000000
01000000
,
00000000
00010000
00000000
00100000
00001000
00010000
00001000
00000100
,
00000001
00001010
00010000
00011000
,
00001000
00011000
00011000
00000110
,
00000001
00000010
00000100
00000010
00000001
00000100
00000000
00001000
,
00000000
00010000
00000000
00001000
01000000
00010000
10000000
00000000
,
00010000
10010000
10000000
10010000
,
00010000
00110000
00101000
00011000
,
00000010
00000100
00000010
00001000
00000001
00001000
00000000
00000100
,
00000000
00010000
00000000
00001000
00010000
00100000
10000000
00010000
,
10000000
00000000
10010000
00000000
00010000
00010000
00000000
00001000
,
00000000
00000001
00001000
00000000
00001001
00000000
00000000
00000000
,
00000001
00000000
00001001
00000000
00001000
00001000
00000000
00010000
,
00000000
10000000
00010000
00000000
10010000
00000000
00000000
00000000
,
10010000
00000000
10010000
00000000
10000000
00010000
00000000
00011000
,
00000000
00000001
00001000
00000000
00001001
00000000
00000000
00000000
,
00000001
00001000
00000001
00000000
00000001
00001000
00000000
00011000
,
00000000
10000000
10010000
00000000
00022000
00000000
00000000
00000000
,
00000000
00000000
00000000
00000000
,
00000000
00000000
00000000
00000000
,
00033000
00000000
00000000
00000000
;

//--------------- dance-double - 47R ----------------
#NOTEDATA:;
#STEPSTYPE:dance-double;
#DESCRIPTION:47R;
#DIFFICULTY:Hard;
#METER:16;
#RADARVALUES:0,0,0,0,0;
#CREDIT:47R;
#NOTES:
00000000
00000000
00000000
00000000
,
00000000
00000000
00000000
00000000
,
00000000
00000000
00000000
00000000
,
00000000
00000000
00000000
00000000
,
00000000
00000000
00000000
00000000
,
00000000
00000000
00000000
00000000
,
00000000
00000000
00000000
00000000
,
10000000
00000000
01000000
00100000
00000000
01000000
10000000
00000000
,
00010000
00010000
01000000
00010000
00000000
00100000
00001000
00000000
,
00010000
00000000
00000100
00000010
00000000
00000100
00001000
00000000
,
00000001
00000000
00000000
00000000
00000100
00000000
00000010
00000000
00000000
00000000
00001000
00000001
00001000
00000000
00000001
00000000
,
00001000
00000000
00000010
00000100
00000000
00000010
00001000
00000000
,
00000100
00000100
00010000
00001000
00000000
00010000
01000000
00000000
,
20000000
00100000
30020000
00100000
,
10030000
00000000
01000000
00100000
00010000
00000000
10000000
00000000
00100000
00000000
00000000
00000000
01100000
00000000
00000000
00000000
,
00000000
10000000
00100000
00010000
00001000
01000000
00010000
00001000
,
00000100
00000000
00000010
00000001
00000010
00000000
00000001
00000000
00000100
00000000
00000010
00001000
00000010
00000000
00001000
00000000
,
00000000
00000001
00000010
00001000
00010000
00000100
00001000
00000001
,
00000100
00000000
00001000
00010000
00001000
00000000
00010000
00000000
00001000
00000000
00000000
00000000
00011000
00000000
00000000
00000000
,
00000000
00010000
01000000
10000000
00010000
00100000
00001000
00010000
,
00001000
00000000
00000100
00000000
00000001
00000000
00001000
00000000
00000100
00000000
00010000
00001000
00010000
00000000
00001000
00000000
,
00020000
00000100
00032000
01000000
,
00013000
00000000
00000100
00000010
00000001
00000000
00000000
00000000
00001001
00000000
00000000
00000000
00000110
00000000
00000000
00000000
,
00000001
00000010
00000100
00001000
00000001
00000010
00000100
00001000
,
00020000
00000000
01000000
00000000
10000000
00000000
00130000
00010000
,
10000000
00100000
01000000
00010000
10000000
00100000
01000000
00010000
,
00001000
00000100
00000010
00000001
00001000
00000000
00001001
00000000
,
00000001
00000100
00000010
00001000
00000001
00000100
00000010
00001000
,
00020000
00000000
00000000
00000000
00100000
00000000
00000000
00000000
10000000
00000000
00000000
00000000
01030000
00000000
00010000
10000000
,
00010000
00000000
10010000
00000000
,
10000000
01000000
00100000
00010000
00001000
00000100
00010000
00001000
,
00000000
00000000
00010000
00000000
00001000
00000000
01000000
00000000
00010000
00000000
01000000
00100000
10000000
00000000
00010000
00000000
,
10000000
00000000
01000000
00100000
00010000
00000000
00100000
00000000
00001000
00000000
00010000
00001000
00010000
00000000
00001000
00000000
,
00000000
00000000
00010000
00000000
00000100
00000000
00001000
00000000
00000100
00000000
00000010
00000001
00001000
00000000
00000001
00000000
,
00000100
00001000
00000100
00000001
00000011
00000000
00001100
00000000
,
00000000
00000000
00010000
00000000
00001000
00000000
01000000
00000000
00010000
00000000
01000000
00100000
10000000
00000000
00010000
00000000
,
10000000
00000000
01000000
00100000
00010000
00000000
00100000
00000000
00001000
00000000
00010000
00001000
00010000
00000000
00000100
00000000
,
00002000
00000000
00000010
00000010
00003020
00000000
00000100
00000100
,
00000130
00000000
00000001
00000100
00000001
00000000
00001000
00000010
00001000
00000000
00000010
00010000
00001000
00000000
00010000
00001000
,
00020000
00000000
01030000
00100000
01000000
10000000
01000000
00010000
,
00002000
00000000
00000000
00000000
00103000
00000000
00001000
00000000
00000010
00000000
00000100
00000000
00001000
00000000
00000100
00010000
,
00002000
00000000
00003100
00000010
00000100
00000001
00000100
00001000
,
00020000
00000000
00000000
00000000
00030100
00000000
00010000
00000000
02000000
00000000
00000000
00000000
03100000
00000000
00010000
00100000
,
00002000
00000000
00003010
00000100
00000010
00000001
00000010
00001000
,
00020000
00000000
00000000
00000000
00030010
00000000
00010000
00000000
00100000
00000000
01000000
00000000
00010000
00000000
01000000
00001000
,
00020000
00000000
00000100
00001000
00032000
00000000
01000000
00013000
,
00011000
00000000
00000000
00001000
00010000
00000000
00000100
00010000
00001000
00000000
00010000
00000100
00001000
00000000
00000100
00000010
,
00000001
00000000
00000000
00000000
00000000
00000000
00000000
00000002
,
00000100
00000000
00000000
00000000
00000000
00000000
00000000
00000203
,
00000000
00000000
00000000
00000000
00000000
00000000
00000000
00002300
,
00010000
00000000
00000000
00000000
00000000
00010000
00000000
00000000
00000000
00000000
00000000
00000000
00000000
00000000
00023000
00000000
,
00000000
00000000
00000000
00000000
00000000
00000000
00000000
00230000
,
10000000
00000000
00000000
00000000
00000000
00000000
00000000
20300000
,
01000000
01000000
01000000
31000000
,
10000000
00010000
00100000
00000000
00001000
00000000
00010000
00000000
00000100
00000000
00001000
00000000
00000001
00000000
00000100
00000000
,
00000001
00001000
00000010
00000000
00010000
00000000
00001000
00000000
01000000
00000000
00010000
00000000
10000000
00000000
00000000
00000000
,
01000000
00100000
01000000
00100000
00010000
00100000
00010000
00100000
00010000
00000000
00000000
00000000
00000000
00000000
00000000
00000000
,
00100000
00001000
00100000
00000000
00001000
00010000
00001000
00000000
00010000
00000010
00010000
00000000
00000010
00001000
00000010
00000000
,
00000100
00000000
00000100
00000000
00000001
00000000
00000101
00000000
00000000
00000000
00000000
00000000
,
00002002
00000000
00000000
00000000
,
00003003
00000000
00000000
00000000
,
00000000
00000000
00000000
00000000
00000000
00000000
00000000
00000000
00000000
00000000
00000000
00000000
00000000
00000000
00000000
00000000
00000000
00000000
00000000
00000000
00000000
00000000
00000000
00000000
00000000
00000000
00000000
00000000
00000000
00000000
00000000
00000000
10000000
00000000
00000000
00000000
00000000
00000000
00000000
00000000
00000000
00000000
00000000
00000000
00000000
00000000
10000000
00000000
00000000
00000000
00000000
00000000
00000000
00020000
00000000
00000000
00000000
00000000
00000000
00000000
00000000
00000000
00000000
00000000
,
00000000
00000000
00000000
00000000
,
10030000
01000000
00100000
00010000
10000000
10000000
00000000
01000000
,
00000000
00000000
00100000
00000000
00010000
00000000
00001000
00000000
00000100
00000010
00000100
00000000
00000010
00000000
00000001
00000000
,
00000100
00001000
00010000
00000000
01000000
00010000
00001000
00000000
,
00000100
00000001
00001000
00000000
00001001
00000000
00000110
00000000
,
00000001
00000100
00000010
00001000
00000001
00000001
00000000
00000100
,
00000000
00000000
00000010
00000000
00001000
00000000
00010000
00000000
01000000
00100000
01000000
00000000
00100000
00000000
10000000
00000000
,
01000000
00010000
00001000
00000000
00000100
00001000
00010000
00000000
,
01000000
10000000
00010000
00000000
10010000
00000000
01100000
00000000
,
10000000
00100000
01000000
00010000
10000000
10000000
00000000
00100000
,
00000000
00000000
01000000
00000000
00010000
00000000
00001000
00000000
00000010
00000100
00000010
00000000
00000100
00000000
00000001
00000000
,
00000010
00000000
00001000
00010000
00001000
00000000
00000000
00000000
00100000
00000000
00001000
00010000
00001000
00000000
00000000
00000000
,
00000010
00000000
00000001
00001000
00000001
00000000
00000000
00000000
00001001
00000000
00000001
00000000
00000100
00000000
00001000
00000000
,
00010000
00100000
10000000
01000000
00010000
00010000
00000000
00001000
,
00000000
00000000
01000000
00000000
00010000
00000000
00001000
00000000
00000100
00001000
00000100
00000000
00001000
00000001
00001000
00000000
,
00001001
00000000
00001001
00000000
00010000
00001000
00000000
00011000
,
00000000
00000000
10000000
00000000
00010000
00000000
00000000
00000000
10010000
00000000
10000000
01000000
00100000
00000000
00000000
00000000
,
00001000
00010000
01000000
00100000
00001000
00010000
00000100
00001100
,
00000000
00000000
00001000
00000000
00000001
00000000
00000100
00000000
00000010
00001000
00000001
00000100
00000010
00000000
00001000
00000000
,
00000100
00000000
00010000
00001000
00200000
00000000
00310000
00000000
01000000
00000000
00001000
00010000
00000020
00000000
00001030
00000000
,
00000100
00000010
00000110
00000000
00011000
00000000
01100000
00000000
,
00010000
00001000
00000100
00000010
00010000
00001000
01000000
01010000
,
00000000
00000000
00010000
00000000
10000000
00000000
01000000
00000000
00100000
00010000
10000000
01000000
00100000
00000000
00010000
00000000
,
01000000
00000000
00001000
00010000
00000020
00000000
00001030
00000000
00000100
00000000
00010000
00001000
00200000
00000000
00310000
00000000
,
01000000
00100000
01100000
00000000
00011000
00000000
00000110
00000000
,
00000001
00001000
00000010
00000100
00010000
01000000
00001000
00101000
,
00000000
00000000
00100000
00000000
01000000
00000000
10000000
00000000
00010000
00100000
01000000
00100000
00010000
00000000
01000000
00000000
,
00010000
01000000
00010000
01000000
00002000
00000000
00000000
00000000
00013000
00000010
00010000
00000010
00002000
00000000
00000000
00000000
,
00003001
00000010
00000001
00000010
00000200
00000000
00000000
00000000
00000310
00000100
00001000
00000001
00000020
00000000
00000000
00000000
,
00000031
00000100
00001000
00000100
00000010
00010000
00001000
01001000
,
00000000
00000000
01000000
00000000
00001000
00000000
00010000
00000000
00001000
00010000
00001000
00100000
00010000
00000000
10000000
00000000
,
10010000
00000000
01100000
00000000
00011000
00011000
00000000
00000110
,
00000000
00000000
00001001
00000000
00001001
00000000
00000000
00000000
00000001
00000010
00000100
00001000
00000001
00000000
00000000
00000000
,
00001001
00000000
00000110
00000000
00011000
00011000
00000000
01100000
,
00000000
00000000
10010000
00000000
10010000
00000000
00000000
00000000
10000000
01000000
00100000
00010000
10000000
00000000
00000000
00000000
,
10100000
00000000
11000000
00000000
01010000
00011000
00000000
00001010
,
00000000
00000000
00000011
00000000
00000101
00000000
00000000
00000000
00001000
00000010
00000100
00000001
00001000
00000000
00000000
00000000
,
00001001
00000000
00011000
00000000
10010000
10010000
00000000
00011000
,
00000000
00000000
00000001
00001000
00000001
00000000
00001000
00000100
00020000
00000000
00000000
00000000
00000000
00000000
00000000
00000000
,
00000000
00000000
00000000
00000000
,
00000000
00000000
00000000
00000000
,
00030000
00000000
00000000
00000000
;
