#VERSION:0.83;
#TITLE:禊;
#SUBTITLE:;
#ARTIST:Nhato;
#TITLETRANSLIT:Misogi;
#SUBTITLETRANSLIT:;
#ARTISTTRANSLIT:;
#GENRE:HARD PSY TRANCE;
#CREDIT:;
#MUSIC:Misogi.ogg;
#BANNER:Misogi.png;
#BACKGROUND:Misogi-bg.png;
#CDTITLE:./CDTitles/bm IIDX 29 CastHour.png;
#SAMPLESTART:78.990;
#SAMPLELENGTH:15.008;
#SELECTABLE:YES;
#OFFSET:0.502;
#BPMS:0.000=160.000
,164.000=80.000
,170.000=160.000
,195.000=320.000
,198.000=240.000
,199.500=160.000
,201.000=320.000
,205.000=160.000
;
#STOPS:170.000=1.125
,201.000=0.047
,201.250=0.047
,201.500=0.047
,201.750=0.047
,202.000=0.047
,202.250=0.047
,202.500=0.047
,202.750=0.047
,203.000=0.047
,203.250=0.047
,203.500=0.047
,203.750=0.047
,204.000=0.188
;
#TIMESIGNATURES:0.000=4=4,
168.000=3=4,
171.000=4=4,
199.000=2=4,
205.000=4=4
;
#DISPLAYBPM:160.000;
#BGCHANGES:4.000=Misogi.mp4=1.000=0=0=0=StretchNoLoop====,
99999.000=-nosongbg-=1.000=0=0=0=StretchNoLoop====
;
#FGCHANGES:;

//--------------- dance-single - forcednature ----------------
#NOTEDATA:;
#STEPSTYPE:dance-single;
#DESCRIPTION:forcednature;
#CREDIT:forcednature;
#DIFFICULTY:Beginner;
#METER:5;
#RADARVALUES:0,0,0,0,0;
#NOTES:
0000
0000
0000
0000
,
0000
0000
0000
0000
,
0000
0000
0000
0000
,
0000
0000
0000
0000
,
0000
0000
0000
0000
,
0002
0000
0003
0000
,
2000
0000
3000
0000
,
0002
0000
0003
0000
,
2000
0000
3000
0000
,
0010
0000
0000
0000
,
0100
0000
0000
0000
,
0001
0000
0000
0000
,
0100
0000
0000
0000
,
0010
0000
0000
0000
,
1000
0000
0000
0000
,
0001
0000
0000
0000
,
0010
0000
0000
0000
,
1001
0000
0000
0000
,
1000
0000
0000
0000
,
0100
0000
0000
0000
,
1000
0000
0010
0000
,
0100
0000
0000
0000
,
0001
0000
0001
0000
,
0010
0000
0100
0000
,
0010
0000
0000
0000
,
1001
0000
0000
0000
,
0001
0000
0000
0000
,
0100
0000
0100
0000
,
0100
0000
0000
0000
,
0010
0000
0000
0000
,
1000
0000
0000
0000
,
0001
0000
0001
0000
,
0010
0000
0000
0000
,
1001
0000
0000
0000
,
1000
0000
0000
0000
,
0100
0000
0100
0000
,
1000
0000
0000
0000
,
1001
0000
1001
0000
,
0110
0000
0110
0000
,
1001
0000
0110
0000
,
2002
0000
3003
0000
,
0220
0000
0000
0000
,
0000
0000
0330
0001
,
0000
0001
0001
0100
,
0000
0100
0100
0010
,
0000
0010
0010
1000
,
0000
1000
0001
0010
,
0000
0010
0000
0000
0100
0000
0000
0100
,
0000
0000
0010
0000
0000
2002
0000
0000
,
0000
0000
0000
0000
,
0000
3003
0000
0000
,
0000
1000
0000
0100
,
0000
1000
1000
0010
,
0000
0100
0000
0001
,
0000
0010
0010
0001
,
0000
0100
0000
0010
,
0000
1000
1000
0001
,
0000
0010
0010
0001
,
0000
0100
0000
0010
,
0000
2000
0000
0001
,
0001
3002
0000
0100
,
0100
0203
0000
0010
,
0000
1000
0000
0310
,
0000
0001
0000
0001
,
0001
1000
0000
1000
,
1000
0020
0000
0100
,
0130
0001
0000
0000
,
0000
0000
1001
0000
0000
0100
0000
0000
,
0000
0000
0110
0000
0000
0010
0000
0000
,
0000
0000
1001
0000
0000
0010
0000
0000
,
0000
0000
0110
0000
0000
0100
0000
0000
,
0000
1001
0000
1000
,
1000
0100
0000
1000
,
1000
0010
0000
0100
,
0100
0002
0000
0010
,
0013
1001
0000
0000
;

//--------------- dance-single - forcednature ----------------
#NOTEDATA:;
#STEPSTYPE:dance-single;
#DESCRIPTION:forcednature;
#CREDIT:forcednature;
#DIFFICULTY:Easy;
#METER:9;
#RADARVALUES:0,0,0,0,0;
#NOTES:
0000
0000
0000
0000
,
0000
0000
0000
0000
,
0000
0000
0000
0000
,
0000
0000
0000
0000
,
0000
0000
0000
0000
,
0002
0000
0000
0003
,
0200
0000
0000
0300
,
0020
0000
0000
0030
,
2002
0000
0000
3003
,
1000
0100
1000
0010
,
1000
0100
0010
0000
,
0001
0100
0001
0010
,
0001
0100
0010
0000
,
1000
1000
0100
1000
,
0001
0001
0100
0001
,
0010
0010
0100
0010
,
0220
0000
0330
0000
,
0001
1000
0100
1000
,
0010
1000
0100
1000
,
0001
0010
0100
1000
,
0100
0010
0002
0000
,
1003
1000
0010
0010
,
0100
0100
0001
0001
,
0020
0100
0100
0130
,
2000
0000
0000
3001
,
1001
1000
0010
0100
,
0001
0010
0100
1000
,
0010
0010
0100
0010
,
0100
0100
0010
0000
,
1000
0100
1000
0001
,
0100
0001
0010
0100
,
1000
1000
0001
0001
,
0010
0100
0010
0000
,
0110
1000
0001
0100
,
0010
1000
0001
0000
,
0010
0001
0100
0001
,
1000
0001
0010
0000
,
0220
0330
2002
3003
,
0220
0330
2002
3003
,
2200
3300
0202
0303
,
1001
0010
0110
0100
,
2002
0000
0000
0000
,
0000
0000
0000
0000
0000
0000
0000
0000
3003
0000
0000
0000
0001
0000
0000
0001
,
0000
0000
0001
0000
0200
0000
0000
0000
0300
0000
0000
0000
0010
0000
0000
0010
,
0000
0000
0010
0000
2000
0000
0000
0000
3000
0000
0000
0000
0001
0000
0000
0001
,
0000
0000
0001
0000
0020
0000
0000
0000
0030
0000
0000
0000
0100
0000
0000
0100
,
0000
0000
0100
0000
2000
0000
0000
0000
3020
0000
0000
0000
1030
0000
0000
1000
,
0000
0000
0100
0000
0000
0100
0000
0000
0010
0000
0000
0010
0000
0000
0001
0000
,
0000
0001
0000
0000
0100
0000
0000
0010
0000
0000
0220
0000
0000
0000
0000
0000
,
0000
0000
0000
0000
,
0000
0330
0000
0000
,
0000
0000
1001
0000
1000
0100
1000
0000
,
0001
0000
0010
0000
0001
0100
0001
0000
,
1000
0000
0010
0000
0100
0010
0100
0000
,
0001
0100
0001
0000
0010
0001
0010
0000
,
0100
0000
1001
0000
1000
0100
1000
0000
,
0010
0000
1000
0000
0001
0100
0001
0000
,
0010
0000
0001
0000
1000
0001
1000
0000
,
0010
0000
1000
0000
0020
0000
0000
0000
0230
0000
0000
0000
0301
0000
0000
0001
,
0000
1000
0020
0000
0100
0100
0100
0000
,
0100
0000
2030
0000
0001
0001
0001
0000
,
0001
0000
3200
0000
0010
0010
0010
0000
,
1000
1000
1000
0000
0010
0010
0010
0000
,
0301
0000
0110
0000
0010
0000
0001
1000
,
0001
0000
0100
0000
0010
0000
1000
0001
,
1000
0000
0020
0000
0100
0100
0100
0100
,
0130
2002
0000
0000
,
3003
0000
0000
0000
0110
0000
0000
0000
0000
0000
0001
0000
0000
0001
0000
0000
,
0001
0000
0000
0000
0110
0000
0000
0000
0000
0000
1000
0000
0000
1000
0000
0000
,
1000
0000
0000
0000
1001
0000
0000
0000
0000
0000
0100
0000
0000
0100
0000
0000
,
0100
0000
0000
0000
1001
0000
0000
0000
0000
0000
0010
0000
0000
0010
0000
0000
,
0010
0000
1001
0000
1000
0100
1000
0000
,
0010
0000
1001
0000
0001
0100
0001
0000
,
0010
0000
1001
0000
1000
0010
1000
0000
,
0001
0001
0200
0000
0000
0000
0310
0010
,
0010
2002
0000
0000
,
0000
0000
0000
0000
,
0000
3003
0000
0000
;

//--------------- dance-single - forcednature ----------------
#NOTEDATA:;
#STEPSTYPE:dance-single;
#DESCRIPTION:forcednature;
#CREDIT:forcednature;
#DIFFICULTY:Medium;
#METER:14;
#RADARVALUES:0,0,0,0,0;
#NOTES:
0000
0000
0000
0000
,
0000
0000
0000
0000
,
0000
0000
0000
0000
,
0000
0000
0000
0000
,
0000
0000
0000
0000
,
2002
0000
0003
0000
,
0200
0000
3000
0000
,
0020
0000
0300
0000
,
0031
0000
0000
0000
0010
0001
0000
0000
0010
0000
0100
0000
1000
0000
0000
0000
,
1001
0000
0001
0100
0001
1000
0010
0000
,
1000
0100
0001
0000
0100
1000
0010
0000
,
0110
0000
0100
0001
0010
0001
1000
0000
,
0001
0010
1000
0000
0010
0001
0100
0000
,
0020
0000
1000
1000
1000
0000
1000
0000
,
0230
0000
0001
0001
0001
0000
0001
0000
,
0310
1000
0001
0000
0100
0001
2000
0000
,
3100
0000
0000
0100
0000
0000
0010
0000
0001
0000
0000
1000
0010
0000
0000
0000
,
0100
0001
0010
0001
0100
0010
1000
0001
,
0010
0100
1000
0100
0001
0100
1000
0000
,
0010
0100
0001
1000
0010
0100
1000
0100
,
0001
0000
0001
0000
1000
0000
0001
0000
0100
0010
0000
0100
0010
0000
0100
0000
,
0001
0001
0010
0001
0010
0010
0100
0010
,
0100
0100
1000
0100
1000
1000
0001
1000
,
0010
0000
0100
0010
0100
0000
0001
0100
0001
0000
1000
0100
1000
0000
0010
0000
,
0200
0000
0000
0000
0010
0010
0310
0000
,
1001
0000
0001
0100
1000
0100
0001
1000
,
0010
0100
0001
0010
0100
1000
0010
0100
,
0101
0000
0000
0001
0010
0000
0000
0100
1000
0000
0000
0010
0100
0000
0001
0000
,
1000
0000
0000
0100
0010
0000
0000
0001
1000
0000
0000
0010
0100
0000
0001
0000
,
0010
1000
0010
0001
0100
0001
0010
1000
,
0010
0000
0100
0000
1000
0000
0010
0000
0100
0000
0001
0100
0001
0000
0000
0000
,
1010
0000
0000
0010
0100
0000
0000
0001
0010
0000
0000
0100
1000
0000
0001
0000
,
0020
0000
0000
0030
0100
0010
0100
0000
1000
0000
0001
0000
0100
0001
0100
0001
,
1000
0000
0010
0000
0100
0000
1000
0000
0100
0000
0010
0000
1000
0000
0001
1000
,
0001
0000
0010
0000
0100
0000
0001
0000
0100
0000
0010
0000
0001
0000
1000
0001
,
1000
0000
0010
0000
0100
0000
0010
0000
0001
0000
0010
0000
1000
0000
0001
0100
,
0001
0000
0000
1000
0010
0000
0000
0100
0001
0000
0000
0010
0100
0000
0010
0000
,
0110
0000
1000
0001
1001
0000
0010
0100
,
0110
0000
1000
0001
1001
0000
0100
0010
,
0110
0000
0010
0100
1001
0000
0020
0000
,
0031
0000
0000
0001
0000
0000
0100
0000
0010
0000
1000
0001
1000
0000
0000
0000
,
2002
0000
0000
0000
,
0000
0000
0000
0000
0000
0000
0000
0000
3003
0000
0000
0000
1000
0000
0000
0100
,
0000
1000
0010
0000
0100
0010
0100
0000
0001
0000
1000
0000
0001
0000
0000
0100
,
0000
0001
0010
0000
0100
0010
0100
0000
1000
0000
0001
0000
1000
0000
0000
0010
,
0000
1000
0100
0000
0010
0100
0010
0000
0001
0000
1000
0000
0001
0000
0000
0010
,
0000
0001
0100
0000
0020
0000
0000
2030
0000
0000
3002
0000
0013
0000
0000
0011
,
0000
0000
1100
0000
0000
1100
0000
0000
1010
0000
0000
1010
0000
0000
0101
0000
,
0000
0101
0000
0000
1001
0000
0000
0110
0000
0000
1000
0001
2000
0000
0000
0000
,
0000
0000
0000
0000
,
0000
0000
0000
0000
3010
0000
0010
0000
0100
0000
0100
0000
0001
1000
0000
1000
,
0001
0000
0000
0000
0010
0100
0010
0000
0100
0000
1000
0000
0001
0000
0100
0000
,
0010
0000
1000
0000
0001
0010
0001
0000
0010
0000
0100
0000
1000
0000
0010
0000
,
0100
0000
0001
0000
1000
0100
1000
0000
0100
0000
0001
0000
0100
0000
1000
0000
,
0100
0000
0001
0000
0100
0000
0010
0000
0001
0000
1000
0000
0010
0100
0000
0100
,
0010
0000
1000
0000
0001
0010
0001
0000
1000
0000
0100
0000
0010
0000
0001
0000
,
1000
0000
0010
0000
0100
0001
0100
0000
0010
0000
1000
0000
0001
0000
0010
0000
,
0100
0000
1000
0000
0010
0100
0010
0000
1000
0000
0001
0000
0010
0000
1000
0000
,
0010
0000
0001
0000
1001
0000
0000
0000
0110
0000
0000
0000
0010
0000
0000
0110
,
0000
0000
1000
0001
2000
0000
0100
0000
0100
0000
0100
0000
0001
0000
0001
0000
,
0010
0000
3002
0100
0100
0100
1000
1000
,
0010
0000
0203
1000
1000
1000
0000
0010
,
0010
0010
0000
0001
0001
0301
0100
0000
,
0110
0000
0000
0000
0001
1000
0001
0000
1000
0000
0100
0000
1000
0001
1000
0000
,
0001
0000
0010
0000
0001
0100
0001
0000
1000
0000
0010
0000
1000
0100
1000
0000
,
0001
0000
0010
0000
0002
0000
1000
0000
1000
0000
1000
0000
1000
0000
1000
0003
,
1000
0001
1000
0001
0020
0000
0000
0000
0000
0000
0000
0000
0000
0000
0000
0000
,
0030
0000
0000
0000
2002
0000
0000
0000
3003
0000
0001
0000
0000
0100
0000
0000
,
0101
0000
0000
0000
2002
0000
0000
0000
3003
0000
1000
0000
0000
0100
0000
0000
,
1100
0000
0000
0000
0220
0000
0000
0000
0330
0000
0001
0000
0000
0010
0000
0000
,
1100
0000
0000
0000
0220
0000
0000
0000
0330
0000
1000
0000
0000
0010
0000
0010
,
0100
0001
1002
0000
1003
0100
0001
0000
,
0101
0000
2100
0000
3001
0010
1000
0000
,
0010
0000
0001
0010
0001
0000
0000
0000
0100
0000
0110
0000
0001
0000
0000
0000
,
1000
0001
1000
0001
2000
0000
0000
0000
0100
0000
0000
0000
3001
0000
1000
0001
,
0010
2002
0000
0000
,
0000
0000
0000
0000
,
0000
3003
0000
0000
;

//--------------- dance-single - forcednature ----------------
#NOTEDATA:;
#STEPSTYPE:dance-single;
#DESCRIPTION:forcednature;
#CREDIT:forcednature;
#DIFFICULTY:Hard;
#METER:17;
#RADARVALUES:0,0,0,0,0;
#NOTES:
0000
0000
0000
0000
,
0000
0000
0000
0000
,
0000
0000
0000
0000
,
0000
0000
0000
0000
,
0000
0000
0000
0000
,
2002
0000
0000
3000
,
0200
0000
0000
0300
,
0020
0000
0000
0003
,
0130
0000
0010
0000
0100
1000
0000
0000
0001
0000
0100
0010
1000
0000
0000
0000
,
1001
0000
0000
0000
0001
0010
0000
0001
0100
0000
0001
0000
1000
0000
0010
0000
,
0100
0000
0001
0000
1000
0000
0000
0100
0010
0000
0001
0000
0100
0000
0100
0001
,
1000
0000
0000
0000
0010
0000
0000
0100
0001
0000
0010
0000
0011
0000
0000
0000
,
0001
0000
1000
0001
1000
0000
0100
0000
1000
0000
0000
0010
0100
0000
0001
0000
,
2001
0000
0100
0100
0100
0000
0001
0000
,
3020
0000
0000
0000
1000
0000
1000
0000
1000
0000
0000
0000
0130
0000
0001
0100
,
0002
0000
0000
0000
1000
0000
1000
0000
1000
0000
0000
0000
0013
0100
0010
0100
,
1000
0000
0010
1000
0000
0010
0100
0000
0001
0000
0010
0001
0020
0000
0000
0000
,
0130
0000
1000
0100
0010
0000
0100
1000
0001
0000
0100
0000
0010
0000
1000
0000
,
0001
0000
0010
0001
0100
0000
0010
1000
0001
0000
0010
0000
0100
1000
0100
1000
,
0001
0000
0100
0010
1000
0000
0100
0010
0001
0000
1000
0000
0010
0000
0100
0000
,
0101
0000
0000
0001
0010
0000
0100
1000
0010
0100
0000
0001
0100
0000
0010
1000
,
0001
0000
0000
0000
0000
0000
0001
0000
0000
0010
0000
0000
0001
0000
0000
0000
0000
0000
0001
0000
0000
1000
0000
0000
0001
0000
0000
0000
0000
0000
0001
0000
0000
0100
0000
0000
0001
0000
0000
0000
0000
0000
0001
0000
0010
0000
0100
0000
,
1000
0000
1000
0010
1000
0000
1000
0001
1000
0000
1000
0100
1000
0000
1000
0000
,
0001
0100
0010
0100
0001
1000
0010
1000
0001
0010
0100
1000
0100
0010
0001
1000
,
0020
0000
0100
0000
0100
0000
0000
1000
0000
0000
1030
0000
0001
0010
0100
1000
,
0002
0000
0103
0010
2000
0000
3100
0010
0002
0000
0103
0010
2000
0000
3001
0000
,
0020
0000
0130
1000
0002
0000
0103
0001
2000
0000
3010
1000
0002
0000
0013
0000
,
0010
0001
0000
0010
0100
0000
0010
0001
0000
0010
0100
0000
1000
0010
0000
0100
,
0010
0000
1000
0010
0000
0100
0010
0000
1000
0001
0100
0001
1000
0100
1000
0001
,
0020
0000
0100
0000
0031
0000
0010
0100
1000
0000
0010
0100
0001
0000
1000
0000
,
0020
0000
0100
0000
1030
0000
0010
0100
0001
0000
0010
0100
1000
0000
0001
0000
,
0100
0010
0000
1000
0010
0000
0100
0001
0000
0100
0010
1000
0001
0000
0010
0000
,
0001
1000
0100
1000
0001
0010
0001
0010
0000
0100
1000
0001
0100
0010
0100
0010
,
2000
0000
3001
0100
1000
0000
0100
0001
1000
0000
0010
0100
0001
0000
0010
0000
,
0002
0000
1003
0100
0001
0000
0100
1000
0001
0000
0010
0100
1000
0000
0010
0000
,
0100
0001
0000
0010
0001
0000
1000
0001
0000
0010
0001
0000
1000
0010
0000
1000
,
0100
0000
1000
0001
0000
1000
0010
1000
0001
0010
0001
0010
0100
1000
0001
0000
,
2001
0000
3100
0010
1002
0000
0103
0010
,
2001
0000
3010
0100
1002
0000
0013
0100
,
2001
0000
0000
3010
0100
0000
0001
0000
1002
0000
0000
0013
0100
1000
0100
0000
,
0110
0000
0000
0010
0001
0010
0001
0000
1000
0010
0100
0001
1000
0100
0010
0001
,
0200
0000
0000
0000
,
0000
0000
0000
0000
0000
0000
0000
0000
0300
0000
0000
0000
1001
0000
1000
0100
,
0000
0000
0000
0010
0000
0000
0100
0000
0000
0000
0000
0000
1000
0000
0001
0000
1000
0000
0001
0000
0000
1000
0000
0000
0010
0000
0000
0100
0000
0000
0010
0000
0000
0100
0000
0000
0001
0000
0000
0000
0000
0000
0100
0000
0000
0010
0000
0000
,
0000
0000
0000
1000
0000
0000
0010
0000
0000
0000
0000
0000
0100
0000
0001
0000
0100
0000
0001
0000
0000
0100
0000
0000
0010
0000
0000
1000
0000
0000
0010
0000
0000
1000
0000
0000
0001
0000
0000
0000
0000
0000
0010
0000
0000
0100
0000
0000
,
0000
0000
0000
0010
0000
0000
0001
0000
0000
0000
0000
0000
1000
0000
0100
0000
1000
0000
0100
0000
0000
1000
0000
0000
0010
0000
0000
0100
0000
0000
0010
0000
0000
0100
0000
0000
0001
0000
0000
0000
0000
0000
0010
0000
0000
0100
0000
0000
,
0000
0010
0001
0000
0100
0001
0100
1000
0100
0001
1000
0000
1001
0000
0001
0010
,
0000
0100
1000
0000
0010
0100
0000
0001
0010
0000
0100
0001
0000
0100
1000
0000
,
0010
0000
0000
0001
0000
0000
0000
0000
0000
0010
0000
0000
1000
0000
0000
0000
0000
0000
0001
0000
0000
0010
0000
0000
0000
0000
0000
0100
0000
0000
1000
0000
0001
0000
1000
0000
0020
0000
0000
0000
0000
0000
0000
0000
0000
0000
0000
0000
,
0000
0000
0000
0000
,
0000
0000
0000
0000
1030
0100
1000
0100
0010
0001
0010
0001
0100
0010
1000
0001
,
0100
0000
0000
0000
0001
0010
0100
0010
0001
0000
1000
0010
0100
0000
0010
1000
,
0100
0000
0010
0000
0001
1000
0010
1000
0001
0000
0100
0010
1000
0000
0100
0010
,
0001
0000
1000
0000
0010
1000
0100
0010
0100
0000
1000
0001
0010
0000
0001
1000
,
0010
0000
0100
0001
0010
0100
0010
0001
0100
0000
0010
1000
0001
0010
0100
0000
,
1000
0010
0100
0000
0001
1000
0100
1000
0001
0000
0010
0001
0100
0000
0010
1000
,
0100
0000
0010
0000
0100
1000
0001
0100
0010
0000
0100
0001
0010
0000
0100
1000
,
0010
0000
1000
0001
1000
0100
0010
0100
1000
0000
0001
0010
0100
0000
0010
0001
,
0100
0000
0010
0000
2010
0000
3100
0010
0002
0000
0103
0010
1000
0100
1000
0001
,
0100
0001
0010
0000
0200
0000
1000
0001
0000
0000
0001
1000
0000
0000
1000
0001
,
0000
0000
0301
1000
0020
0000
1000
0001
0000
0000
0001
1000
0000
0000
1000
0001
,
0000
0000
0130
0010
0002
0000
0010
0100
0000
0000
0100
0010
0000
0000
0010
0100
,
0000
0000
0100
0010
0000
0000
0010
0100
0000
0000
0100
0010
0000
0000
0103
0010
,
1000
0000
0001
0000
0010
0100
1000
0100
0010
0100
1000
0100
0010
0001
1000
0001
,
0010
0001
1000
0001
0100
0010
1000
0100
1000
0010
0100
0001
0010
0001
0100
0010
,
1000
0001
0100
0010
1000
0100
0010
0001
0100
0010
1000
0100
0010
0001
0100
0010
,
1000
0100
0010
0001
0200
0000
0000
0000
0000
0000
0000
0000
0000
0000
0000
0000
,
0300
0000
0000
0000
2002
0000
0000
0000
3003
0000
1100
0000
0000
1010
0000
0000
,
0110
0000
0000
0000
2002
0000
0000
0000
3003
0000
0101
0000
0000
0011
0000
0000
,
0110
0000
0000
0000
2002
0000
0000
0000
3003
0000
1010
0000
0000
1100
0000
0000
,
0110
0000
0000
0000
2002
0000
0000
0000
3003
0000
0011
0000
0000
0101
0000
0100
,
0010
0110
2002
3000
1003
1100
0011
0000
,
0110
0000
2002
0003
3001
0101
1010
0000
,
0110
0000
0001
1000
1001
0000
0000
0000
0110
0000
0000
0000
1001
0000
0000
0000
,
1000
0001
1000
0001
0020
0000
0100
0000
0000
0100
0030
0000
0001
0010
0001
0100
,
1000
0100
0001
1000
0020
0000
0000
0000
0000
0000
0000
0000
0000
0000
0000
0000
,
0000
0000
0000
0000
,
0000
0030
0000
0000
;

//--------------- dance-double - forcednature ----------------
#NOTEDATA:;
#STEPSTYPE:dance-double;
#DESCRIPTION:forcednature;
#CREDIT:forcednature;
#DIFFICULTY:Easy;
#METER:9;
#RADARVALUES:0,0,0,0,0;
#NOTES:
00000000
00000000
00000000
00000000
,
00000000
00000000
00000000
00000000
,
00000000
00000000
00000000
00000000
,
00000000
00000000
00000000
00000000
,
00000000
00000000
00000000
00000000
,
00020000
00000000
00000000
00030000
,
00002000
00000000
00000000
00003000
,
00200000
00000000
00000000
00300000
,
20020000
00000000
00000000
30030000
,
10000000
01000000
10000000
00100000
,
10000000
01000000
00010000
00000000
,
00001000
00000100
00000001
00000010
,
00000001
00000100
00000001
00000000
,
00000010
00000010
00000100
00001000
,
00000100
00000100
00010000
00001000
,
00100000
00100000
00001000
00010000
,
00022000
00000000
00033000
00000000
,
01000000
00010000
00100000
00010000
,
10000000
00100000
10000000
01000000
,
00100000
00010000
00100000
00001000
,
00010000
00000100
00002000
00000000
,
00003001
00000001
00000100
00000100
,
00000001
00000001
00000010
00000010
,
00000200
00001000
00001000
00001300
,
00020000
00000000
00000000
00031000
,
00011000
00100000
00010000
00100000
,
01000000
10000000
00100000
10000000
,
01000000
01000000
00100000
01000000
,
00100000
00001000
00010000
00000000
,
00000010
00001000
00000010
00000100
,
00000001
00000010
00000100
00000010
,
00000100
00000100
00010000
00010000
,
00001000
00100000
00010000
00000000
,
01100000
10000000
00010000
01000000
,
00100000
10000000
00010000
00000000
,
00100000
00001000
00010000
00000100
,
00001000
00000010
00000100
00000000
,
00000220
00000330
00002002
00003003
,
00000220
00000330
00002002
00003003
,
00020200
00030300
00202000
00303000
,
00011000
00100000
01100000
01000000
,
20020000
00000000
00000000
00000000
,
00000000
00000000
00000000
00000000
00000000
00000000
00000000
00000000
30030000
00000000
00000000
00000000
00010000
00000000
00000000
00010000
,
00000000
00000000
00010000
00000000
00200000
00000000
00000000
00000000
00300000
00000000
00000000
00000000
00001000
00000000
00000000
00001000
,
00000000
00000000
00001000
00000000
00020000
00000000
00000000
00000000
00030000
00000000
00000000
00000000
00000100
00000000
00000000
00000100
,
00000000
00000000
00000100
00000000
00002000
00000000
00000000
00000000
00003000
00000000
00000000
00000000
00000010
00000000
00000000
00000010
,
00000000
00000000
00000010
00000000
00000200
00000000
00000000
00000000
00000302
00000000
00000000
00000000
00000013
00000000
00000000
00000010
,
00000000
00000000
00000100
00000000
00000000
00000100
00000000
00000000
00010000
00000000
00000000
00010000
00000000
00000000
00001000
00000000
,
00000000
00001000
00000000
00000000
00100000
00000000
00000000
00100000
00000000
00000000
20020000
00000000
00000000
00000000
00000000
00000000
,
00000000
00000000
00000000
00000000
,
00000000
30030000
00000000
00000000
,
00000000
00000000
10010000
00000000
10000000
01000000
10000000
00000000
,
00010000
00000000
00100000
00000000
00001000
00010000
00001000
00000000
,
00010000
00000000
00000100
00000000
00001000
00000010
00001000
00000000
,
00000010
00000100
00000010
00000000
00000100
00000001
00000100
00000000
,
00000010
00000000
00001001
00000000
00000001
00000010
00000001
00000000
,
00000010
00000000
00000100
00000000
00001000
00000100
00001000
00000000
,
00000010
00000000
00010000
00000000
00001000
00010000
00001000
00000000
,
00100000
00000000
00010000
00000000
00200000
00000000
00000000
00000000
02300000
00000000
00000000
00000000
13000000
00000000
00000000
10000000
,
00000000
01000000
00200000
00000000
00010000
00010000
00010000
00000000
,
00010000
00000000
00302000
00000000
00010000
00010000
00010000
00000000
,
00013000
00000000
00000200
00000000
00001000
00001000
00001000
00000000
,
00000010
00000010
00000010
00000000
00001000
00001000
00001000
00000000
,
00010300
00000000
00011000
00000000
00100000
00000000
00010000
10000000
,
00010000
00000000
01000000
00000000
00100000
00000000
10000000
00010000
,
10000000
00000000
00200000
00000000
01000000
01000000
01000000
01000000
,
01300000
20020000
00000000
00000000
,
30030000
00000000
00000000
00000000
01100000
00000000
00000000
00000000
00000000
00000000
00010000
00000000
00000000
00010000
00000000
00000000
,
00010000
00000000
00000000
00000000
00011000
00000000
00000000
00000000
00000000
00000000
00001000
00000000
00000000
00001000
00000000
00000000
,
00001000
00000000
00000000
00000000
00000110
00000000
00000000
00000000
00000000
00000000
00000010
00000000
00000000
00000010
00000000
00000000
,
00000010
00000000
00000000
00000000
00001001
00000000
00000000
00000000
00000000
00000000
00000001
00000000
00000000
00000001
00000000
00000000
,
00000001
00000000
00000101
00000000
00001000
00000010
00001000
00000000
,
00000100
00000000
00011000
00000000
00100000
00010000
00100000
00000000
,
01000000
00000000
10010000
00000000
00010000
00100000
00010000
00000000
,
00100000
00100000
00002000
00000000
00000000
00000000
00013000
00010000
,
00010000
00022000
00000000
00000000
,
00000000
00000000
00000000
00000000
,
00000000
00033000
00000000
00000000
;

//--------------- dance-double - forcednature ----------------
#NOTEDATA:;
#STEPSTYPE:dance-double;
#DESCRIPTION:forcednature;
#CREDIT:forcednature;
#DIFFICULTY:Medium;
#METER:14;
#RADARVALUES:0,0,0,0,0;
#NOTES:
00000000
00000000
00000000
00000000
,
00000000
00000000
00000000
00000000
,
00000000
00000000
00000000
00000000
,
00000000
00000000
00000000
00000000
,
00000000
00000000
00000000
00000000
,
00022000
00000000
00030000
00000000
,
00000020
00000000
00003000
00000000
,
00000002
00000000
00000030
00000000
,
00000103
00000000
00000000
00000000
00000001
00001000
00000000
00000000
00000001
00000000
00000010
00000000
00001000
00000000
00000000
00000000
,
00011000
00000000
00010000
00100000
10000000
00010000
01000000
00000000
,
00100000
10000000
01000000
00000000
00100000
00010000
01000000
00000000
,
00011000
00000000
00000010
00001000
00000001
00000100
00000001
00000000
,
00000010
00001000
00010000
00000000
00100000
00010000
00001000
00000000
,
02000000
00000000
10000000
10000000
10000000
00000000
10000000
00000000
,
03020000
00000000
00100000
00100000
00100000
00000000
00100000
00000000
,
01030000
00001000
00010000
00000000
00000100
00010000
00002000
00000000
,
00003010
00000000
00000000
00000010
00000000
00000000
00000001
00000000
00000100
00000000
00000000
00000010
00001000
00000000
00000000
00000000
,
00000001
00000100
00001000
00000100
00000001
00000010
00001000
00000000
,
00010000
00100000
10000000
01000000
00010000
01000000
10000000
00000000
,
00100000
01000000
00010000
00100000
01000000
00010000
00001000
00000000
,
00000010
00000000
00000010
00000000
00000100
00000000
00010000
00000000
00000010
00001000
00000000
00000010
00001000
00000000
00000001
00000000
,
00000100
00000100
00001000
00000100
00001000
00001000
00010000
00001000
,
00010000
00010000
00100000
00010000
00100000
00100000
10000000
00100000
,
10000000
00000000
01000000
10000000
01000000
00000000
00100000
01000000
00100000
00000000
00010000
00100000
00010000
00000000
00100000
00000000
,
00002000
00000000
00000000
00000000
01000000
01000000
01003000
00000000
,
00011000
00000000
00001000
00000010
00000001
00000100
00001000
00000100
,
00000001
00000010
00001000
00010000
00100000
10000000
01000000
00000000
,
10010000
00000000
00000000
00010000
00100000
00000000
00000000
00001000
00010000
00000000
00000000
00000100
00001000
00000000
00000010
00000000
,
00000100
00000000
00000000
00000001
00000010
00000000
00000000
00000100
00001000
00000000
00000000
00000010
00010000
00000000
00000000
00000000
,
00001000
00010000
00100000
10000000
01000000
00010000
01000000
10000000
,
00100000
00000000
00010000
00000000
00001000
00000000
00000010
00000000
00000001
00000000
00000100
00000001
00000100
00000000
00000000
00000000
,
00001010
00000000
00000000
00010000
00001000
00000000
00000000
00100000
00010000
00000000
00000000
01000000
00100000
00000000
10000000
00000000
,
02000000
00000000
00000000
03000000
00100000
01000000
00100000
00000000
00001000
00000000
00010000
00000000
00000100
00001000
00000100
00000000
,
00000010
00000001
00000100
00001000
00010000
00100000
10000000
01000000
,
00010000
00000000
00001000
00000000
00000100
00000000
00000001
00000000
00000100
00000000
00001000
00000000
00010000
00000000
00001000
00010000
,
00001000
00000000
00100000
00000000
01000000
00000000
00100000
00000000
00010000
00000000
00100000
00000000
10000000
00000000
00000000
00100000
,
00010000
00000000
00000000
00001000
00000100
00000000
00000000
00000010
00000001
00000000
00000000
00000100
00000010
00000000
00000100
00000000
,
00000110
00000000
00001000
00010000
00011000
00000000
00100000
01000000
,
01100000
00000000
00010000
00001000
00011000
00000000
00000010
00000100
,
00000110
00000000
00001000
00010000
00011000
00000000
00200000
00000000
,
00310000
00000000
00000000
00010000
00000000
00000000
01000000
00000000
00100000
00000000
10000000
00010000
10000000
00000000
00000000
00000000
,
20020000
00000000
00000000
00000000
,
00000000
00000000
00000000
00000000
00000000
00000000
00000000
00000000
30030000
00000000
00000000
00000000
10000000
00000000
00000000
01000000
,
00000000
00000000
00010000
00000000
00001000
00010000
00001000
00000000
00000010
00000000
00000010
00000000
00000001
00000000
00000000
00000100
,
00000000
00000000
00001000
00000000
00010000
00001000
00010000
00000000
00100000
00000000
00100000
00000000
10000000
00000000
00000000
01000000
,
00000000
00000000
00010000
00000000
00001000
00010000
00001000
00000000
00000010
00000000
00000010
00000000
00000001
00000000
00000000
00000100
,
00000000
00000000
00001000
00000000
00020000
00000000
00000000
00230000
00000000
00000000
20300000
00000000
31000000
00000000
00000000
11000000
,
00000000
00000000
00110000
00000000
00000000
00110000
00000000
00000000
00101000
00000000
00000000
00011000
00000000
00000000
00010100
00000000
,
00000000
00001100
00000000
00000000
00001010
00000000
00000000
00000110
00000000
00000000
00000001
00001000
00000002
00000000
00000000
00000000
,
00000000
00000000
00000000
00000000
,
00000000
00000000
00000000
00000000
00000013
00000000
00000010
00000000
00000100
00000000
00000100
00000000
00010000
00001000
00000000
00001000
,
00010000
00000000
00011000
00000000
00001000
00010000
00100000
10000000
,
01000000
10000000
10100000
00000000
00010000
01000000
00010000
00100000
,
00001000
00000010
00000110
00000000
00001000
00000100
00000001
00000100
,
00010000
00000000
00001000
00000000
00000010
00000000
00001000
00000000
00010000
00000000
00100000
00000000
01000000
00010000
00000000
00010000
,
01000000
00100000
10010000
00000000
10000000
01000000
00010000
00001000
,
00100000
00001000
00011000
00000000
00000010
00000100
00001000
00010000
,
00000100
00000010
00000011
00000000
00000001
00000100
00001000
00010000
,
01000000
00000000
10000000
00000000
10010000
00000000
00000000
00000000
01100000
00000000
00000000
00000000
00010000
00000000
00000000
00110000
,
00000000
00000000
00001000
00010000
00002000
00000000
01000000
00000000
01000000
00000000
01000000
00000000
00010000
00000000
00010000
00000000
,
00100000
00000000
00023000
00000100
00000100
00000100
00001000
00001000
,
00000010
00000000
00030200
00001000
00001000
00001000
00000000
00000001
,
00000001
00000001
00000000
00001000
00001000
00001300
00000100
00000000
,
00011000
00000000
00000000
00000000
00100000
00010000
00100000
00000000
00010000
00000000
10000000
00000000
01000000
10000000
01000000
00000000
,
00100000
00000000
00001000
00000000
00010000
00001000
00010000
00000000
00000010
00000000
00001000
00000000
00000010
00000100
00000010
00000000
,
00001000
00000000
00000001
00000000
00000200
00000000
00000010
00000000
00000010
00000000
00000010
00000000
00000010
00000000
00000010
00000300
,
00000010
00000100
00000010
00000100
00000002
00000000
00000000
00000000
00000000
00000000
00000000
00000000
00000000
00000000
00000000
00000000
,
00000003
00000000
00000000
00000000
00002002
00000000
00000000
00000000
00003003
00000000
00001000
00000000
00000000
00010100
00000000
00000000
,
00101000
00000000
00000000
00000000
20020000
00000000
00000000
00000000
30030000
00000000
00010000
00000000
00000000
01001000
00000000
00000000
,
00010010
00000000
00000000
00000000
00002002
00000000
00000000
00000000
00003003
00000000
00001000
00000000
00000000
00010010
00000000
00000000
,
01001000
00000000
00000000
00000000
20020000
00000000
00000000
00000000
30030000
00000000
00010000
00000000
00000000
00100000
00000000
00100000
,
00001000
00010000
00012000
00000000
00003010
00000001
00000100
00000000
,
00001000
00000000
00021000
00000000
00130000
10000000
01000000
00000000
,
00010000
00000000
00001000
00010000
00002000
00000000
00000000
00000000
00003010
00000000
00000001
00000000
00002000
00000000
00000000
00000000
,
00013000
00001000
00010000
00001000
02000000
00000000
00000000
00000000
00010000
00000000
00000000
00000000
03100000
00000000
01000000
00010000
,
10000000
20020000
00000000
00000000
,
00000000
00000000
00000000
00000000
,
00000000
30030000
00000000
00000000
;

//--------------- dance-double - forcednature ----------------
#NOTEDATA:;
#STEPSTYPE:dance-double;
#DESCRIPTION:forcednature;
#CREDIT:forcednature;
#DIFFICULTY:Hard;
#METER:17;
#RADARVALUES:0,0,0,0,0;
#NOTES:
00000000
00000000
00000000
00000000
,
00000000
00000000
00000000
00000000
,
00000000
00000000
00000000
00000000
,
00000000
00000000
00000000
00000000
,
00000000
00000000
00000000
00000000
,
00022000
00000000
00000000
00003000
,
00200000
00000000
00000000
00030000
,
20000000
00000000
00000000
00300000
,
31000000
00000000
00100000
00000000
01000000
10000000
00000000
00000000
01000000
00000000
00010000
00001000
00010000
00000000
00000000
00000000
,
00011000
00000000
00000000
00000000
00000100
00001000
00000000
00000010
00001000
00000000
00000001
00000000
00000100
00000000
00001000
00000000
,
00010000
00000000
01000000
00000000
10000000
00000000
00000000
00100000
01000000
00000000
00010000
00000000
00100000
00000000
00100000
00010000
,
10000000
00000000
00000000
00000000
01000000
00000000
00000000
00010000
00001000
00000000
00010000
00000000
00011000
00000000
00000000
00000000
,
00000100
00000000
00001000
00000100
00001000
00000000
00000001
00000000
00000010
00000000
00000000
00000001
00000100
00000000
00001000
00000000
,
00012000
00000000
01000000
01000000
01000000
00000000
00010000
00000000
,
00203000
00000000
00000000
00000000
10000000
00000000
10000000
00000000
10000000
00000000
00000000
00000000
01300000
00000000
10000000
01000000
,
20000000
00000000
00000000
00000000
00100000
00000000
00100000
00000000
00100000
00000000
00000000
00000000
30010000
00100000
00010000
00100000
,
00001000
00000000
00010000
00001000
00000000
00010000
00000100
00000000
00001000
00000000
00000100
00000010
00000002
00000000
00000000
00000000
,
00000103
00000000
00000001
00001000
00000010
00000000
00001000
00000001
00000100
00000000
00001000
00000000
00010000
00000000
00100000
00000000
,
10000000
00000000
00010000
00100000
01000000
00000000
10000000
01000000
00100000
00000000
00001000
00000000
00010000
00000100
00010000
00000100
,
00001000
00000000
00000010
00000100
00000001
00000000
00000010
00000100
00001000
00000000
00000010
00000000
00010000
00000000
00001000
00000000
,
00011000
00000000
00000000
00100000
00010000
00000000
01000000
00010000
01000000
00100000
00000000
10000000
00100000
00000000
01000000
00100000
,
00010000
00000000
00010000
00001000
00010000
00000000
00010000
00000100
00010000
00000000
00010000
00000010
00010000
00000000
00010000
00001000
,
00000010
00000000
00000010
00000001
00000010
00000000
00000010
00001000
00000010
00000000
00000010
00000100
00000010
00000000
00000010
00000000
,
00000001
00000100
00000010
00001000
00000100
00010000
00001000
00100000
00010000
01000000
00100000
10000000
01000000
00100000
00010000
10000000
,
00200000
00000000
01000000
00000000
01000000
00000000
00000000
10000000
00000000
00000000
10300000
00000000
10010000
00000000
00000000
00000000
,
00002000
00000000
00013000
00100000
00020000
00000000
00031000
00000010
00002000
00000000
00013000
00100000
00020000
00000000
00031000
00000000
,
00000200
00000000
00001300
00010000
02000000
00000000
03010000
00001000
00000200
00000000
00001300
00010000
02000000
00000000
03010000
00000000
,
01000000
10000000
00000000
01000000
00100000
00000000
00010000
00100000
00000000
00001000
00010000
00000000
00000010
00001000
00000000
00000010
,
00000100
00000000
00000001
00000010
00000000
00000100
00000010
00000000
00000100
00001000
00000001
00001000
00000100
00000000
00010000
00001000
,
00200000
00000000
00010000
00000000
01300000
00000000
00100000
00010000
01000000
00000000
00100000
10000000
01000000
00000000
00010000
00000000
,
00002000
00000000
00100000
00000000
00013000
00000000
00001000
00010000
00000100
00000000
00001000
00000010
00000100
00000000
00000001
00000000
,
00000010
00000100
00000000
00001000
00000100
00000000
00010000
00001000
00000000
01000000
00010000
01000000
00100000
00000000
10000000
00000000
,
01000000
10000000
00100000
01000000
00010000
00100000
00001000
00010000
00000000
00000010
00001000
00000010
00000100
00000001
00000100
00000010
,
00002000
00000000
00003001
00000100
00001000
00000000
00010000
00001000
00010000
00000000
00001000
00010000
00100000
00000000
10000000
00000000
,
00020000
00000000
10030000
01000000
00010000
00000000
00001000
00010000
00001000
00000000
00010000
00001000
00000010
00000000
00000001
00000000
,
00001000
00000100
00000000
00010000
00001000
00000000
00100000
00010000
00000000
01000000
00100000
00000000
10000000
01000000
00000000
00010000
,
01000000
00000000
10000000
00010000
00000000
00100000
00001000
00010000
00000100
00001000
00000100
00001000
00000010
00000100
00000001
00000000
,
00002001
00013000
00021000
10030000
,
10020000
00031000
00012000
00003001
,
00000102
00000013
00012000
00103000
,
01100000
00000000
00000000
01000000
10000000
01000000
10000000
00000000
00100000
01000000
00010000
00100000
00001000
00010000
00000100
00001000
,
00000020
00000000
00000000
00000000
,
00000000
00000000
00000000
00000000
00000000
00000000
00000000
00000000
00000030
00000000
00000000
00000000
00001001
00000000
00000001
00000100
,
00000000
00000100
00001000
00000000
00010000
00100000
00010000
00100000
10000000
00010000
01000000
00100000
10000000
00000000
10000000
01000000
,
00000000
01000000
00010000
00000000
00001000
00000010
00001000
00000010
00000001
00001000
00000100
00000010
00000001
00000000
00000001
00000100
,
00000000
00000100
00001000
00000000
00010000
01000000
00010000
01000000
10000000
00100000
01000000
00010000
10000000
00000000
10000000
01000000
,
00000000
01000000
00010000
00000000
00002000
00000000
00000000
00003020
00000000
00000000
00000032
00000000
00000103
00000000
00000001
00000100
,
00000000
00001000
00000100
00000000
00001000
00010000
00000000
00100000
00010000
00000000
00100000
10000000
00000000
01000000
10000000
00000000
,
01000000
00000000
00000000
00010000
00000000
00000000
00000000
00000000
00000000
00001000
00000000
00000000
00010000
00000000
00000000
00000000
00000000
00000000
00001000
00000000
00000000
00000010
00000000
00000000
00000000
00000000
00000000
00000001
00000000
00000000
00000010
00000000
00000100
00000000
00001000
00000000
00000002
00000000
00000000
00000000
00000000
00000000
00000000
00000000
00000000
00000000
00000000
00000000
,
00000000
00000000
00000000
00000000
,
00000000
00000000
00000000
00000000
00000103
00001000
00000100
00001000
00010000
00100000
00010000
00100000
10000000
00010000
01000000
00100000
,
10000000
00000000
00000000
00000000
01000000
00100000
00010000
00100000
01000000
00000000
00010000
00001000
00100000
00000000
00001000
00010000
,
00000100
00000000
00001000
00000000
00000001
00000100
00000010
00000100
00000001
00000000
00001000
00000010
00010000
00000000
00001000
01000000
,
00010000
00000000
00100000
00000000
01000000
10000000
01000000
00100000
01000000
00000000
10000000
00010000
00100000
00000000
01000000
00010000
,
00001000
00000000
00100000
00010000
00100000
00001000
00010000
00000100
00001000
00000000
00000010
00000100
00000001
00000010
00000100
00000000
,
00000010
00000001
00001000
00000000
00000010
00000100
00000001
00000100
00000010
00000000
00001000
00000100
00010000
00000000
00001000
01000000
,
00010000
00000000
00100000
00000000
01000000
10000000
00010000
10000000
01000000
00000000
00010000
00001000
00100000
00000000
00001000
00010000
,
00000100
00000000
00001000
00000010
00000100
00000001
00001000
00000001
00000100
00000000
00001000
00010000
00100000
00000000
00010000
00001000
,
00000010
00000000
00001000
00000000
00011000
00000000
00100000
00001000
00011000
00000000
00000010
00010000
00002000
00000000
00103000
00020000
,
00000000
10030000
00200000
00000000
02300000
00000000
00010000
10000000
00000000
00000000
10000000
00010000
00000000
00000000
00010000
10000000
,
00000000
00000000
13000000
00010000
00200000
00000000
00010000
10000000
00000000
00000000
10000000
00010000
00000000
00000000
00010000
10000000
,
00000000
00000000
01300000
00001000
00020000
00000000
00001000
00100000
00000000
00000000
00100000
00001000
00000000
00000000
00001000
01000000
,
00000000
00000000
01000000
00001000
00000000
00000000
00001000
00100000
00000000
00000000
00100000
00001000
00000000
00000000
00031000
00010000
,
00000100
00000000
00001000
00000000
00000010
00000100
00000010
00000100
00000001
00001000
00000001
00001000
00000100
00010000
00000100
00010000
,
00001000
00100000
00001000
00100000
00010000
01000000
00100000
01000000
00010000
10000000
00100000
10000000
00010000
00100000
00001000
00010000
,
00000100
00001000
00000010
00000100
00000001
00000010
00000100
00000010
00000001
00001000
00000100
00001000
00000001
00000100
00000010
00001000
,
00010000
01000000
00100000
10000000
02000000
00000000
00000000
00000000
00000000
00000000
00000000
00000000
00000000
00000000
00000000
00000000
,
03000000
00000000
00000000
00000000
20020000
00000000
00000000
00000000
30030000
00000000
01010000
00000000
00000000
00011000
00000000
00000000
,
00001010
00000000
00000000
00000000
00002002
00000000
00000000
00000000
00003003
00000000
00001100
00000000
00000000
00011000
00000000
00000000
,
00110000
00000000
00000000
00000000
20020000
00000000
00000000
00000000
30030000
00000000
01100000
00000000
00000000
00011000
00000000
00000000
,
00000110
00000000
00000000
00000000
00002002
00000000
00000000
00000000
00003003
00000000
00000110
00000000
00000000
00011000
00000000
00001000
,
00100000
00110000
20020000
30000000
10030000
00010000
00001000
00000000
,
00011000
00000000
00002002
00000003
00003001
00001000
00011000
00000000
,
01100000
00000000
00010000
10000000
10010000
00000000
00000000
00000000
01100000
00000000
00000000
00000000
00011000
00000000
00000000
00000000
,
00000010
00001000
00000010
00001000
00000002
00000000
00000100
00000000
00000000
00000100
00000003
00000000
00001000
00000100
00010000
00001000
,
00100000
00010000
10000000
01000000
00020000
00000000
00000000
00000000
00000000
00000000
00000000
00000000
00000000
00000000
00000000
00000000
,
00000000
00000000
00000000
00000000
,
00000000
00030000
00000000
00000000
;
