#VERSION:0.83;
#TITLE:Miracle 5ympho X;
#SUBTITLE:;
#ARTIST:USAO;
#TITLETRANSLIT:;
#SUBTITLETRANSLIT:;
#ARTISTTRANSLIT:;
#GENRE:FRENCHCORE;
#CREDIT:;
#MUSIC:Miracle 5ympho X.ogg;
#BANNER:Miracle 5ympho X.png;
#BACKGROUND:Miracle 5ympho X-bg.png;
#CDTITLE:./CDTitles/bm IIDX 21 SPADA.png;
#SAMPLESTART:47.910;
#SAMPLELENGTH:13.708;
#SELECTABLE:YES;
#OFFSET:1.226;
#BPMS:0.000=105.000
,18.000=210.000
,183.000=105.000
,185.000=60.500
,185.500=105.000
,187.000=210.000
,327.000=105.000
,328.000=210.000
;
#STOPS:18.000=0.571
,185.500=1.493
,185.625=0.250
,185.813=0.617
,328.000=0.286
;
#TIMESIGNATURES:0.000=4=4,
184.000=3=4,
187.000=4=4,
327.000=2=4,
329.000=4=4
;
#DISPLAYBPM:105.000:210.000;
#BGCHANGES:3.000=Miracle 5ympho X.mp4=1.000=0=0=0=StretchNoLoop====,
99999.000=-nosongbg-=1.000=0=0=0=StretchNoLoop====
;
#FGCHANGES:;

//--------------- dance-single - forcednature ----------------
#NOTEDATA:;
#STEPSTYPE:dance-single;
#DESCRIPTION:forcednature;
#CREDIT:forcednature;
#DIFFICULTY:Beginner;
#METER:6;
#RADARVALUES:0,0,0,0,0;
#NOTES:
0000
0000
0000
0000
,
0000
0000
0000
0000
,
0000
0000
0000
0000
,
0001
0000
0100
0000
,
0010
0000
1000
0000
,
1001
0000
0000
0000
,
0001
0000
0000
0000
,
0010
0000
0000
0000
,
0001
0000
0000
0000
,
0100
0000
0000
0000
,
0001
0000
0000
0000
,
1000
0000
1000
0000
,
1000
0000
1000
0000
,
0010
0000
0000
0000
,
0200
0000
0000
0000
,
0300
0000
0000
0000
,
0002
0000
0000
0000
,
0003
0000
0000
0000
,
0020
0000
0000
0000
,
0030
0000
0000
0000
,
0200
0000
0000
0000
,
0300
0000
0000
0000
,
2000
0000
0000
0000
,
3001
0000
0000
0000
,
0002
0000
0000
0000
,
1003
0000
0000
0000
,
0200
0000
0000
0000
,
0310
0000
0000
0000
,
0020
0000
0000
0000
,
0130
0000
0000
0000
,
1001
0000
0000
0000
,
1000
0000
0000
0000
,
0100
0000
0000
0000
,
1000
0000
0000
0000
,
0010
0000
0010
0000
,
0010
0000
0000
0000
,
0100
0000
0100
0000
,
0001
0000
0000
0000
,
2002
0000
3003
0000
,
0100
0000
0010
0000
,
0220
0000
0330
0000
,
0010
0000
0100
0000
,
2002
0000
3003
0000
,
0010
0000
0100
0000
,
0220
0000
0330
0000
,
0002
0000
0000
0000
,
0000
0003
0000
1000
,
1000
1000
0000
1000
,
0000
1000
0000
0100
,
0100
0100
0000
0100
,
0000
0100
0000
0010
,
0010
0010
0000
0010
,
0000
0010
0000
0001
,
0001
0001
0000
0001
,
0000
0001
0000
0100
,
0010
0100
0000
0010
,
0000
0100
0000
0001
,
1000
0001
0000
1000
,
0000
1000
0000
0100
,
0010
0100
0000
0010
,
0000
0100
0000
1000
,
0001
1000
0000
0002
,
0000
0003
0000
0100
,
0000
0010
0000
1000
,
0000
0010
0000
0100
,
0000
0001
0000
1000
,
0000
0001
0000
0010
,
0000
0100
0000
1000
,
0000
0100
0000
0010
,
0000
0001
0000
2000
,
0000
0000
0000
3010
,
0000
0100
0000
0001
,
0000
0100
0000
0010
,
0000
1000
0000
0001
,
0000
1000
0000
0100
,
0000
0010
0000
0001
,
0000
0010
0000
0100
,
0000
1000
0000
0002
,
0000
0000
0000
0023
,
0000
0000
0000
0030
,
0000
0000
0000
0200
,
0000
0000
0000
0300
,
0000
1000
1000
0000
,
1000
0000
1000
0000
,
1000
0010
0010
0000
,
0010
0000
0010
0000
,
0010
0100
0100
0000
,
0100
0000
0100
0000
,
0100
0001
0001
0001
,
0000
1000
0001
1000
,
0000
0020
0000
0000
,
0000
0030
0000
0000
,
0000
0200
0000
0000
,
0000
0300
0000
0000
,
0000
0002
0000
0000
,
0000
0003
0000
0000
,
0000
2000
0000
0000
,
0000
3020
0000
0000
,
0000
0030
0000
0000
;

//--------------- dance-single - forcednature ----------------
#NOTEDATA:;
#STEPSTYPE:dance-single;
#DESCRIPTION:forcednature;
#CREDIT:forcednature;
#DIFFICULTY:Easy;
#METER:9;
#RADARVALUES:0,0,0,0,0;
#NOTES:
0000
0000
0000
0000
,
0000
0000
0000
0000
,
0000
0000
0000
0000
,
0001
0001
1000
1000
,
0010
0100
0220
0330
,
0001
1000
0000
1000
,
0100
1000
0000
1000
,
0010
0100
0000
0100
,
0001
0100
0000
0010
,
1000
0001
0000
0001
,
0010
0001
0000
0001
,
0100
0100
0010
0010
,
0100
0010
0100
0010
,
0220
0000
0330
0000
,
2001
0000
0000
3000
,
0200
0000
0000
0300
,
0020
0000
0000
0030
,
0002
0000
0000
0003
,
2000
0000
0000
3000
,
0020
0000
0000
0030
,
0200
0000
0000
0300
,
0002
0000
0000
0003
,
0010
0000
0010
0000
,
0010
0000
0000
0000
,
0001
0000
0001
0000
,
0001
0000
0000
0000
,
0100
0000
0100
0000
,
0100
0000
0010
0000
,
1000
0000
1000
0000
,
0001
0000
0000
0000
,
1001
0000
1000
0100
,
1000
0000
1000
0010
,
1000
0000
1000
0100
,
1000
0000
0010
0000
,
0110
0000
0001
0100
,
0001
0000
0001
0010
,
0001
0000
0001
0100
,
0020
0000
0030
0000
,
1001
0000
0000
1000
1000
0000
0010
0000
,
0000
1000
0100
0000
,
1001
0000
0000
0001
0001
0000
0010
0000
,
0000
0001
0100
0000
,
0110
0000
0000
1000
1000
0000
0100
0000
,
0000
0010
0100
0000
,
0110
0000
0000
0001
0001
0000
0100
0000
,
0020
0000
0000
0000
,
0000
0030
0000
1000
,
1000
0001
0001
1000
,
1000
0010
0000
0001
,
0001
0100
0100
0001
,
0001
0001
0000
0010
,
0010
0100
0100
0010
,
0010
0001
0000
1000
,
1000
0010
0010
0100
,
0100
0000
0100
0000
0000
0000
0001
1000
,
0001
1000
0001
1000
,
0001
0000
1000
0000
0000
0000
0010
0100
,
0010
0100
0010
0100
,
0100
0000
0100
0000
0001
0000
1000
0001
,
1000
0001
1000
0001
,
1000
0000
0100
0000
0100
0000
0010
0100
,
0010
0100
0010
0220
,
0000
0000
0330
0001
,
0100
0001
0010
0001
,
1000
0100
0010
0100
,
1000
0010
1000
0001
,
0010
0100
1000
0010
,
0100
0001
0100
0010
,
1000
0001
0100
0001
,
0010
0000
0100
0000
1000
0000
0010
0100
,
0010
0000
0100
0010
0100
0000
0001
0000
,
0010
0001
0100
0010
,
1000
0100
1000
0001
,
0010
0100
1000
0010
,
0100
0001
1000
0100
,
0001
0100
1000
0001
,
0100
1000
0100
0001
,
0010
0001
1000
0200
,
0000
0000
0300
1001
,
0000
0000
0000
1000
,
0000
0010
0000
0100
,
0000
0001
0000
0020
,
0030
0001
0100
0001
,
0010
0001
0100
0001
,
0000
1000
0100
1000
,
0010
0000
1000
0000
1000
0000
0010
0100
,
0010
0100
0001
0010
,
0001
0100
0001
0010
,
0100
1000
1000
0001
,
0001
2002
0000
0000
,
3003
0110
0000
0000
,
0000
0002
0000
0000
,
0003
0020
0000
0000
,
0030
0200
0000
0000
,
0300
2000
0000
0000
,
3000
0020
0000
0000
,
0030
0200
0000
0000
,
0300
0002
0000
0000
,
0003
0000
0000
0000
;

//--------------- dance-single - forcednature ----------------
#NOTEDATA:;
#STEPSTYPE:dance-single;
#DESCRIPTION:forcednature;
#CREDIT:forcednature;
#DIFFICULTY:Medium;
#METER:13;
#RADARVALUES:0,0,0,0,0;
#NOTES:
0000
0000
0000
0000
,
0000
0000
0000
0000
,
0000
0000
0000
0000
,
0001
0100
0001
0100
0010
1000
0010
1000
,
0001
0010
0100
0000
2002
0000
3003
0000
,
0001
0100
0001
0000
1000
0000
0010
0000
,
0100
0001
0010
0100
,
0010
0001
1000
0000
0010
0000
0100
0001
,
0010
0000
0110
0000
1000
1000
1000
0000
,
0001
0100
0010
0000
1000
0000
1010
0000
,
0001
0101
1000
1100
,
0001
0010
0100
0010
0000
0100
1000
0001
,
0000
0200
0000
0010
0000
0010
0000
0301
,
0000
0000
0000
0000
,
2001
0000
3100
0010
,
0002
0000
0000
0003
0000
0000
1000
0000
,
0020
2030
3002
0203
,
0302
0003
1000
0100
,
2000
0000
3100
0010
,
0002
0000
0000
0003
0000
0000
1000
0000
,
0020
0230
0302
0203
,
0320
2030
3002
0023
,
0230
0000
1300
0001
,
0202
0000
0000
0303
0000
0000
1000
0000
,
0020
0230
0302
0023
,
0230
0320
0032
2003
,
3020
0000
0130
0001
,
2002
3003
1000
0100
,
0020
0000
0000
0030
0002
0000
0003
0000
,
1001
0000
0000
0000
,
1000
0000
0100
0000
1100
0000
0001
0010
,
0000
0100
0000
0010
0001
0000
1000
0000
,
0001
0000
0100
0000
0101
0000
1000
0010
,
0000
0100
0000
0010
1000
0000
0001
0000
,
0010
0100
1000
0000
0010
0100
0001
0000
,
1000
0100
0010
0000
0001
0100
0010
0000
,
1000
0001
0100
0001
1000
0010
0100
0000
,
0220
0000
0000
0330
,
0001
1000
0000
1000
0001
0000
0011
0000
,
1000
0100
0000
1000
0010
0000
0010
0000
,
1000
0001
0000
0001
1000
0000
1010
0000
,
0001
0100
0000
0010
0000
0100
0001
0000
,
0010
0100
0000
0100
0010
0000
1001
0000
,
1000
0010
0000
0100
0001
0000
1000
0000
,
0010
0100
0000
0100
0010
0000
1001
0000
,
0220
0000
0000
0000
,
0000
0000
0330
0000
0000
0000
1000
1000
,
0001
1000
0001
0001
1000
0001
1000
1000
,
0001
0000
1000
0000
0010
0000
0000
0010
0000
0000
0100
0000
0001
0000
0001
0000
,
1000
0001
1000
1000
0001
1000
0100
0000
,
0110
0000
0010
0000
1001
0000
0001
0001
,
0100
0100
0010
0010
1000
1000
0001
0100
,
0010
0000
1000
0000
0001
0000
0000
0001
0000
0000
0001
0000
1000
0000
1000
0000
,
0100
0100
0010
0010
0001
0001
1000
0000
,
1001
0000
0100
0010
1001
0000
0001
0100
,
1000
1000
0100
0001
0100
1000
1000
0100
,
0001
0000
0100
0000
0010
0000
0000
0010
0000
0000
0010
0000
1000
0000
0100
0000
,
0001
0001
0100
1000
0100
0001
0001
0000
,
0110
0000
1000
0000
1001
0000
0001
0100
,
1000
0001
0010
1000
0001
0100
1000
0001
,
0010
0000
1000
0000
0001
0000
0000
0001
0000
0000
0001
0000
1000
0000
0100
0000
,
0001
1000
0010
0001
0100
1000
0200
0000
,
0000
0000
0000
0000
0300
0000
0010
1000
,
0100
0010
0000
0100
1000
0010
0000
0100
,
0001
0010
0000
0001
1000
0010
0000
0100
,
0001
0010
0000
0100
0010
0001
0000
0100
,
0010
1000
0000
1010
0000
0101
0000
0001
,
0010
0100
0000
0010
0001
0100
0000
0010
,
1000
0100
0000
1000
0001
0100
0000
0010
,
1000
0001
0000
0010
0100
1000
0010
0010
,
0100
0100
0001
0001
1000
1000
0010
0100
,
0001
0010
0000
0100
0010
0001
0000
1000
,
0100
0001
0000
0100
1000
0010
0000
1000
,
0001
0100
0000
1000
0100
0001
0000
1000
,
0010
0100
0001
0100
0010
1000
0000
0100
,
0001
0100
0000
0010
0001
1000
0000
0010
,
0100
0001
0000
0010
0100
1000
0010
0010
,
0100
0000
0000
0100
0000
0000
0001
0000
0000
1000
0000
0000
2002
0000
0000
0000
,
0000
0000
3003
0110
,
0000
0000
0000
2000
3200
0320
0032
0000
,
0000
2003
0000
0000
3020
0000
0230
0000
,
0000
0302
0000
0000
0203
0000
0320
0000
,
0030
0000
1000
0100
0001
0100
1000
0001
,
0010
0001
1000
0000
1100
0000
0001
0000
,
0011
0000
0001
0100
1000
0100
0001
1000
,
0010
1000
0100
0000
1001
0000
0010
0010
,
0010
0000
1000
0100
0001
0100
1000
0000
,
1010
0000
0001
0100
1000
0100
0001
0000
,
0011
0000
1000
0010
0100
0001
0010
0000
,
0110
0000
2000
0001
0000
0010
0000
0010
,
0000
3010
0000
0000
0000
0000
0000
0001
,
0100
0010
2000
0000
0000
3002
0000
0000
,
0023
0000
0230
0000
0000
0320
0000
0000
,
0032
0000
2003
0000
0000
3020
0000
0000
,
0230
0000
0000
0000
0000
0300
0000
0001
,
1000
0100
2000
0000
0000
3002
0000
0000
,
0203
0000
0320
0000
0000
2030
0000
0000
,
3002
0000
0023
0030
0000
0200
0300
0000
,
2000
3000
0000
0000
0000
0000
0000
0000
;

//--------------- dance-single - forcednature ----------------
#NOTEDATA:;
#STEPSTYPE:dance-single;
#DESCRIPTION:forcednature;
#CREDIT:forcednature;
#DIFFICULTY:Hard;
#METER:17;
#RADARVALUES:0,0,0,0,0;
#NOTES:
0000
0000
0000
0000
,
0000
0000
0000
0000
,
0000
0000
0000
0000
,
1000
1000
0010
1000
0001
0001
0010
0001
,
0100
0100
0010
0110
2002
0000
3003
0000
,
1000
1000
1000
0100
1000
0010
1000
0100
,
0010
0001
0100
0010
1000
0100
0010
0000
,
0001
0001
0001
0100
0001
0010
0001
0100
,
0010
0000
0000
0000
1001
0000
0000
0000
1000
0001
1000
0000
0100
0000
1000
0001
,
0010
0010
0010
0100
0010
0001
0100
0001
,
0010
0100
1000
0010
0100
0000
1001
0000
,
0001
0001
0001
0100
0001
1000
0010
0010
,
0020
0100
0000
0001
0000
0100
0000
1030
,
0000
0000
0000
0000
,
2001
0000
3200
0320
,
0032
0000
0000
0003
0000
0000
2000
0000
,
3020
0230
0302
0203
,
0320
0030
2000
3002
,
0023
0000
0230
2300
,
3002
0000
0000
0003
0000
0000
0200
0000
,
0320
2030
3002
0023
,
0230
0302
0203
2300
,
3001
0000
0100
0100
0000
0001
0010
0000
,
0001
1000
0001
0000
1000
0100
0010
0000
,
0100
0000
1000
1000
0000
0010
1000
0000
,
0001
0100
0010
0000
1000
0100
0010
0000
,
0001
0000
1000
1000
0000
0010
1000
0000
,
0001
0010
0100
0000
0010
0001
0100
0000
,
0020
0000
0000
0030
2000
0000
3000
0000
,
2001
3200
0320
0032
,
0103
0000
0001
0000
0101
0000
1000
0010
,
0000
1010
0000
0001
0100
0000
0101
0000
,
1000
0000
0100
0000
1100
0000
0001
0010
,
0000
0011
0000
1000
0100
0000
1100
0000
,
0001
0100
0010
0100
0001
1000
0010
1000
,
0001
0010
0100
0010
0001
1000
0100
1000
,
0010
0000
0110
0000
1001
0000
1000
0100
,
0020
0000
0000
0100
0000
0000
0130
0000
0000
0000
0000
0000
0010
0000
0100
0000
0010
0000
0001
0000
0000
0000
0000
0000
,
0201
0000
0000
1000
1000
0000
0301
0000
,
1000
0010
0000
0001
0010
0000
1000
0000
,
1200
0000
0000
0001
0001
0000
1300
0000
,
0001
0010
0000
1000
0000
0010
0100
0000
,
0021
0000
0000
1000
1000
0000
0031
0000
,
1000
0100
0000
0001
0100
0000
1000
0000
,
1020
0000
0000
0001
0001
0000
1030
0000
,
0210
0000
0000
0000
0000
0000
0000
0010
0000
0000
0002
0000
0000
0000
0000
0000
,
0300
0000
0000
0000
0003
0000
0000
0000
0000
0000
0000
0000
1000
0001
1000
0001
,
1000
0001
1000
0001
1000
0001
1000
0001
1000
0001
1000
0001
1000
0001
1000
0001
,
1000
0001
1000
0001
0020
0030
0000
0020
0030
0000
0020
0030
0001
1000
0001
1000
,
0001
1000
0001
1000
0001
1000
0001
1000
0001
1000
0001
1000
0200
0000
0300
0000
,
2002
0000
3003
0000
0020
0000
0030
0000
2002
0000
3003
0000
1000
0001
1000
0001
,
0100
0001
0100
0001
1000
0010
1000
0010
0100
0001
0100
0001
0100
0010
0100
0010
,
1000
0001
1000
0001
0020
0030
0000
0020
0030
0000
0020
0030
0001
1000
0001
1000
,
0100
1000
0100
1000
0001
0010
0001
0010
0001
1000
0001
1000
0020
0000
0030
0000
,
2002
0000
3003
0000
0002
0003
2000
3000
0002
0003
0000
0000
1000
0100
1000
0100
,
1000
0001
1000
0001
1000
0010
1000
0010
1000
0001
1000
0001
1000
0100
1000
0100
,
1000
0001
1000
0001
0020
0030
0000
0220
0330
0000
2000
3000
0001
0100
0001
0100
,
0001
1000
0001
1000
0001
0010
0001
0010
0001
1000
0001
1000
0020
0000
0030
0000
,
0220
0000
0330
0000
2002
0000
3003
0000
0220
0000
0330
0000
1000
0100
1000
0100
,
0010
0001
0010
0001
0100
0010
0100
0010
1000
0001
1000
0001
0010
0100
1000
0100
,
0010
0100
1000
0100
0020
0030
0000
2002
3003
0000
0200
0300
0001
1000
0001
1000
,
0010
0100
0010
1000
0001
0010
0100
1000
0100
0010
0001
1000
0020
0000
0000
0000
,
0000
0000
0000
0000
0030
0000
0100
0001
,
0010
0000
0000
0010
0000
0000
0001
0000
0000
1000
0000
0000
0001
0000
0100
0001
,
0100
0000
0010
0000
0000
1000
0000
0001
0000
0000
1000
0000
0010
0000
0100
0000
,
0001
0000
0000
0001
0000
0000
1000
0100
0000
1000
0000
1000
0001
0000
0100
0000
,
0100
0000
0010
0000
0000
1000
0000
1000
0000
0000
0001
0000
0010
0000
0010
0000
,
0001
0000
0000
0100
0000
0000
0001
0000
0000
1000
0000
0000
0010
0000
0100
0010
,
0100
0000
0001
0000
0000
0010
0000
0010
0000
0000
0001
0000
1000
0000
0100
0000
,
0001
0000
0000
0100
0000
0000
1000
0000
0000
0001
0000
0000
1000
0010
1000
0010
,
1000
0010
1000
0010
0100
0001
0100
0001
0100
0001
0100
0001
1000
0000
0100
0000
,
1000
0000
0000
0011
0000
0000
0001
0000
0000
1010
0000
0000
1000
0000
0001
1000
,
0001
0000
0100
0000
0000
0010
0000
0110
0000
0000
1000
0000
0001
0000
0010
0000
,
0100
0000
0000
1100
0000
0000
0001
0000
0000
0011
0000
0000
1000
0000
0010
1000
,
0010
0000
0100
0000
0001
0010
0000
0010
0000
0001
1000
0000
1100
0000
0001
0000
,
0010
0000
0000
0101
0000
0000
0010
0000
0000
1100
0000
0000
0001
0000
1000
0001
,
1000
0000
0010
0000
0100
0010
0000
0100
0001
0000
0010
0000
0011
0000
1000
0000
,
1100
0000
0000
0101
0000
0000
0011
0000
0000
1010
0000
0000
2002
0000
0000
0000
,
0000
0000
3003
0110
,
0000
0000
0000
0002
2003
3200
0320
0000
,
0000
0032
0000
0000
2003
0000
3020
0000
,
0000
0230
0000
0000
0302
0000
0023
0000
,
0030
0000
0000
0000
0001
0000
0100
0001
0100
0000
0010
0000
1000
0000
0100
0000
,
0010
0001
1000
0010
0100
0010
1000
0001
,
0010
0000
0000
0000
0100
0000
1000
0100
1000
0000
0001
0000
0010
0000
0001
0000
,
1000
0000
0010
0000
0100
0000
0100
0000
0100
0000
0100
0000
0001
1000
0001
1000
,
0010
0100
0010
0100
0001
0000
1000
0001
1000
0000
0010
0000
0100
0000
0001
0000
,
0010
0000
0001
0000
0100
0001
0100
0000
0010
0000
1000
0000
0001
0000
0000
0000
,
0011
0000
1000
1000
0100
0100
0010
0010
,
0001
0000
0001
0000
0100
0010
0100
0010
0100
0010
0100
0010
0100
0010
0100
0010
,
1000
0000
1001
0000
0000
0000
0000
0002
,
0023
0230
2300
0000
0000
3020
0000
0000
,
0230
0000
0302
0000
0000
2003
0000
0000
,
3200
0000
0320
0000
0000
0032
0000
0000
,
2003
0000
0000
0000
0000
3000
0000
0020
,
0230
0302
0023
0000
0000
0032
0000
0000
,
2003
0000
3020
0000
0000
0230
0000
0000
,
0302
0000
0023
0030
0000
0200
0300
0000
,
2000
3000
0000
0000
0000
0000
0000
0000
;

//--------------- dance-double - forcednature ----------------
#NOTEDATA:;
#STEPSTYPE:dance-double;
#DESCRIPTION:forcednature;
#CREDIT:forcednature;
#DIFFICULTY:Easy;
#METER:9;
#RADARVALUES:0,0,0,0,0;
#NOTES:
00000000
00000000
00000000
00000000
,
00000000
00000000
00000000
00000000
,
00000000
00000000
00000000
00000000
,
00010000
00010000
00001000
00001000
,
01000000
00010000
02200000
03300000
,
00010000
10000000
00000000
10000000
,
01000000
00100000
00000000
00100000
,
00001000
00010000
00000000
00010000
,
00000100
00001000
00000000
00001000
,
00000010
00000100
00000000
00000100
,
00000001
00000010
00000000
00000010
,
00000100
00000100
00001000
00001000
,
00000010
00010000
00001000
00010000
,
00022000
00000000
00033000
00000000
,
02000000
00000000
00000000
03000000
,
00020000
00000000
00000000
00030000
,
00200000
00000000
00000000
00300000
,
02000000
00000000
00000000
03000000
,
20000000
00000000
00000000
30000000
,
00200000
00000000
00000000
00300000
,
02000000
00000000
00000000
03000000
,
00002000
00000000
00000000
00003000
,
00010000
00000000
00010000
00000000
,
00010000
00000000
00000000
00000000
,
00000100
00000000
00000100
00000000
,
00000100
00000000
00001000
00000000
,
00000010
00000000
00000010
00000000
,
00000010
00000000
00000100
00000000
,
00000001
00000000
00001000
00000000
,
00001001
00000000
00000000
00000000
,
00001000
00000000
00001000
00001000
,
00001000
00000000
00000100
00010000
,
00001000
00000000
00001000
00001000
,
00001000
00000000
01000000
00000000
,
10010000
00000000
00010000
01000000
,
00010000
00000000
10000000
01000000
,
10000000
00000000
00100000
00000000
,
20020000
00000000
30030000
00000000
,
01100000
00000000
00000000
00010000
00010000
00000000
00100000
00000000
,
00000000
00001000
00010000
00000000
,
00011000
00000000
00000000
00000010
00000010
00000000
00001000
00000000
,
00000000
00000100
00000010
00000000
,
00000110
00000000
00000000
00000001
00000001
00000000
00000100
00000000
,
00000000
00000010
00001000
00000000
,
00001001
00000000
00000000
00010000
00010000
00000000
00001000
00000000
,
00022000
00000000
00000000
00000000
,
00000000
00033000
00000000
01000000
,
01000000
00010000
00010000
01000000
,
01000000
00100000
00000000
10000000
,
10000000
00010000
00010000
00100000
,
00100000
00100000
00000000
00001000
,
00001000
00010000
00010000
00001000
,
00001000
00010000
00000000
00000100
,
00000100
00001000
00001000
00000010
,
00000010
00000000
00000010
00000000
00000000
00000000
00001000
00000001
,
00001000
00000001
00001000
00000100
,
00010000
00000000
00001000
00000000
00000000
00000000
00010000
00001000
,
00010000
00001000
00010000
00100000
,
00100000
00000000
00100000
00000000
00000000
00000000
10000000
00010000
,
10000000
00010000
10000000
01000000
,
01000000
00000000
00100000
00000000
00000000
00000000
00001000
00010000
,
00001000
00010000
00001000
00022000
,
00000000
00000000
00033000
00000100
,
00001000
00000010
00001000
00000100
,
00000010
00000001
00000100
00000010
,
00001000
00000010
00010000
00001000
,
00100000
00010000
00010000
01000000
,
00100000
10000000
00100000
01000000
,
00010000
10000000
00010000
00100000
,
00001000
00000000
00010000
00000000
00000100
00000000
00001000
00000001
,
00001000
00000000
00000001
00001000
00000001
00000000
00000010
00000000
,
00000100
00001000
00000100
00010000
,
00001000
01000000
00010000
00100000
,
01000000
10000000
00100000
01000000
,
00001000
00010000
00000010
00001000
,
00000100
00000010
00000100
00001000
,
00000001
00000010
00000001
00000100
,
00000010
00001000
00000100
00020000
,
00000000
00000000
00030000
00011000
,
00000000
00000000
00000000
01000000
,
00000000
00010000
00000000
10000000
,
00000000
00100000
00000000
02000000
,
03000000
00010000
00010000
00100000
,
00010000
01000000
00001000
00010000
,
00000000
00000100
00000100
00001000
,
00000010
00000000
00000100
00000000
00000001
00000000
00000100
00000010
,
00000100
00000010
00000010
00001000
,
00000100
00010000
00001000
00100000
,
00010000
01000000
01000000
00100000
,
00100000
20020000
00000000
00000000
,
30030000
01100000
00000000
00000000
,
00000000
00020000
00000000
00000000
,
00030000
00200000
00000000
00000000
,
00300000
00002000
00000000
00000000
,
00003000
00020000
00000000
00000000
,
00030000
00000020
00000000
00000000
,
00000030
00002000
00000000
00000000
,
00003000
00000200
00000000
00000000
,
00000300
00000000
00000000
00000000
;

//--------------- dance-double - forcednature ----------------
#NOTEDATA:;
#STEPSTYPE:dance-double;
#DESCRIPTION:forcednature;
#CREDIT:forcednature;
#DIFFICULTY:Medium;
#METER:14;
#RADARVALUES:0,0,0,0,0;
#NOTES:
00000000
00000000
00000000
00000000
,
00000000
00000000
00000000
00000000
,
00000000
00000000
00000000
00000000
,
00001000
00001000
00010000
00010000
00100000
00100000
10000000
10000000
,
01000000
01000000
00010000
00001000
00022000
00000000
00033000
00000000
,
00000100
00001000
00000010
00000000
00000100
00000000
00000001
00000000
,
00000010
00001000
00010000
00100000
,
01000000
00010000
00100000
00000000
01000000
00000000
10000000
00100000
,
00010000
00000000
00011000
00000000
00000010
00000010
00000010
00000000
,
00001000
00000100
00000001
00000000
00000100
00000000
00001100
00000000
,
00010000
00011000
00100000
00110000
,
10000000
00100000
01000000
00100000
00000000
10000000
00010000
01000000
,
00000000
00002000
00000000
00010000
00000000
00010000
00000000
00103000
,
00000000
00000000
00000000
00000000
,
00010020
00000000
00001030
00000100
,
00000020
00000000
00000000
00000030
00000000
00000000
00000001
00000000
,
00002000
00003200
00020300
00032000
,
00203000
00300000
00010000
01000000
,
00200000
00000000
10300000
01000000
,
00200000
00000000
00000000
00300000
00000000
00000000
00001000
00000000
,
00020000
00030020
00002030
00023000
,
02030000
03002000
00023000
00230000
,
20300000
00000000
31000000
00100000
,
20020000
00000000
00000000
30030000
00000000
00000000
00001000
00000000
,
00020000
00030020
00002030
00003200
,
00000320
00002030
00023000
02030000
,
03200000
00000000
00310000
10000000
,
20020000
30030000
00010000
01000000
,
00002000
00000000
00000000
00003000
00020000
00000000
00030000
00000000
,
00011000
00000000
00000000
00000000
,
00000100
00000000
00001000
00000000
00001100
00000000
00000001
00000010
,
00000000
00000100
00000000
00000010
00000001
00000000
00000100
00000000
,
00001000
00000000
00010000
00000000
00011000
00000000
01000000
00010000
,
00000000
00100000
00000000
00010000
01000000
00000000
10000000
00000000
,
01000000
00010000
00100000
00000000
00001000
00010000
00000010
00000000
,
00001000
00000100
00000010
00000000
00001000
00010000
00001000
00000000
,
01000000
00010000
00100000
00001000
00010000
00000010
00001000
00000100
,
00000020
00000000
00000000
00000030
,
00000001
00000100
00000000
00001000
00010000
00000000
00011000
00000000
,
00000000
01000000
00000000
01000000
00100000
00000000
00100000
00000000
,
10000000
01000000
00000000
00010000
00001000
00000000
00011000
00000000
,
00000000
00000010
00000000
00000010
00000000
00001000
00001000
00000000
,
00000001
00000010
00000000
00001000
00010000
00000000
00011000
00000000
,
00000000
00100000
00000000
00100000
00010000
00000000
00010000
00000000
,
10000000
01000000
00000000
00010000
00001000
00000000
00000010
00000000
,
00000220
00000000
00000000
00000000
,
00000000
00000000
00000330
00000000
00000000
00000000
00001000
00001000
,
00000100
00010000
00001000
00001000
00100000
00010000
01000000
01000000
,
00100000
00000000
10000000
00000000
01000000
00000000
00000000
01000000
00000000
00000000
10000000
00000000
00100000
00000000
00100000
00000000
,
01000000
00010000
00100000
00100000
00001000
00010000
00000100
00000000
,
00000110
00000000
00000010
00000000
00001001
00000000
00000001
00000001
,
00000100
00000100
00001000
00001000
00010000
00010000
00100000
01000000
,
00100000
00000000
10000000
00000000
00010000
00000000
00000000
00010000
00000000
00000000
00010000
00000000
10000000
00000000
10000000
00000000
,
01000000
01000000
00010000
00010000
00001000
00001000
00000010
00000000
,
00001001
00000000
00000100
00000010
00001001
00000000
00000001
00000100
,
00001000
00001000
00010000
00100000
10000000
10000000
01000000
00010000
,
00001000
00000000
00010000
00000000
00100000
00000000
00000000
00100000
00000000
00000000
00100000
00000000
10000000
00000000
01000000
00000000
,
00010000
00010000
00001000
00000010
00000001
00000001
00000100
00000000
,
00001001
00000000
00000010
00000000
00001001
00000000
00000001
00000100
,
00001000
00010000
00000010
00001000
00010000
01000000
00001000
00010000
,
00100000
00000000
10000000
00000000
00010000
00000000
00000000
00010000
00000000
00000000
00010000
00000000
10000000
00000000
01000000
00000000
,
00010000
00001000
00100000
00010000
00001000
00000100
00000020
00000000
,
00000000
00000000
00000000
00000000
00000030
00000000
00000001
00000100
,
00001000
00000100
00000000
00001000
00010000
00001000
00000000
00010000
,
00100000
10000000
00000000
00010000
01000000
00100000
00000000
10000000
,
01000000
00010000
00000000
00001000
00100000
00010000
00000000
00001000
,
00000100
00001000
00000010
00000000
00001001
00000000
00000001
00000100
,
00001000
00010000
00000000
00000010
00001000
00010000
00000000
01000000
,
00001000
00100000
00000000
00010000
10000000
00100000
00000000
10000000
,
01000000
00010000
00000000
00001000
00000010
00000001
00001000
00001000
,
00000100
00000100
00010000
00010000
00001000
00001000
00100000
00010000
,
01000000
00010000
00000000
00100000
01000000
10000000
00000000
00100000
,
00010000
00001000
00000000
00000010
00001000
00010000
00000000
01000000
,
00010000
00001000
00000000
00000100
00001000
00010000
00000000
00000010
,
00001000
00000100
00010000
00001000
01000000
00010000
00100000
01000000
,
00100000
00010000
00000000
01000000
00100000
10000000
00000000
01000000
,
00010000
00001000
00000000
00000100
00001000
00010000
00000010
00000010
,
00001000
00000000
00000000
00001000
00000000
00000000
00000001
00000000
00000000
00000100
00000000
00000000
00002002
00000000
00000000
00000000
,
00000000
00000000
00003003
00000110
,
00000000
00000000
00000000
00000002
00000203
00000320
00002030
00000000
,
00000000
00023000
00000000
00000000
02030000
00000000
03200000
00000000
,
00000000
20300000
00000000
00000000
30020000
00000000
00230000
00000000
,
00300000
00000000
01000000
10000000
01000000
00010000
00001000
00100000
,
00010000
00100000
01000000
00000000
01100000
00000000
00010000
00000000
,
00011000
00000000
00000100
00001000
00000010
00001000
00000100
00000001
,
00000100
00010000
00001000
00000000
00011000
00000000
00100000
00100000
,
00100000
00000000
00010000
01000000
10000000
01000000
00010000
00000000
,
00110000
00000000
00001000
00010000
00000010
00010000
00001000
00000000
,
00011000
00000000
00000100
00001000
00000010
00000100
00000001
00000000
,
00000011
00000000
00002000
00000100
00000000
00000001
00000000
00000001
,
00000000
00003010
00000000
00000000
00000000
00000000
00000000
00010000
,
00001000
00100000
00020000
00000000
00000000
02030000
00000000
00000000
,
03200000
00000000
20300000
00000000
00000000
32000000
00000000
00000000
,
03020000
00000000
00032000
00000000
00000000
00003200
00000000
00000000
,
00000302
00000000
00000000
00000000
00000000
00000003
00000000
00000010
,
00000001
00001000
00000002
00000000
00000000
00000203
00000000
00000000
,
00002300
00000000
00023000
00000000
00000000
00230000
00000000
00000000
,
20300000
00000000
32000000
03000000
00000000
00020000
00030000
00000000
,
00002000
00003000
00000000
00000000
00000000
00000000
00000000
00000000
;

//--------------- dance-double - forcednature ----------------
#NOTEDATA:;
#STEPSTYPE:dance-double;
#DESCRIPTION:forcednature;
#CREDIT:forcednature;
#DIFFICULTY:Hard;
#METER:17;
#RADARVALUES:0,0,0,0,0;
#NOTES:
00000000
00000000
00000000
00000000
,
00000000
00000000
00000000
00000000
,
00000000
00000000
00000000
00000000
,
00001000
00010000
00001000
00010000
00000100
00001000
00000100
00001000
,
00000010
00000100
00000010
00000100
00002002
00000000
00003003
00000000
,
00000001
00000001
00000010
00000001
00000100
00000001
00000010
00000001
,
00000100
00001000
00010000
01000000
10000000
00000000
10100000
00000000
,
10000000
10000000
00100000
10000000
01000000
10000000
00100000
10000000
,
01000000
00000000
00010000
00000000
00001000
00000000
00010000
00000000
00000100
00001000
00000100
00000000
00010000
00000000
00001000
00010000
,
00000010
00000010
00001000
00000001
00000100
00001000
00010000
01000000
,
10000000
00100000
10000000
01000000
00100000
00000000
10010000
00000000
,
00010000
00010000
01000000
00001000
00010000
00000100
00001000
00001000
,
00000020
00010000
00000000
00001000
00000000
00000001
00000000
00001030
,
00000000
00000000
00000000
00000000
,
00001002
00000000
00000203
00002300
,
00023000
00000000
00000000
00030000
00000000
00000000
00200000
00000000
,
20300000
32000000
03020000
00032000
,
00203000
00300000
00020000
02030000
,
03200000
00000000
20300000
32000000
,
03020000
00000000
00000000
00030000
00000000
00000000
00002000
00000000
,
00003020
00000032
00000203
00002300
,
00023000
00230000
02300000
03020000
,
10030000
00000000
01000000
01000000
00000000
10000000
00100000
00000000
,
10000000
01000000
00010000
00000000
00001000
00000100
00000001
00000000
,
00000010
00000000
00000100
00001000
00000000
00000010
00001000
00000000
,
00000001
00000100
00001000
00000000
00010000
01000000
10000000
00000000
,
00100000
00000000
10000000
01000000
00000000
10000000
00100000
00000000
,
10000000
00100000
00010000
00000000
00001000
00000010
00000001
00000000
,
00000200
00000000
00000000
00000300
00002000
00000000
00003000
00000000
,
00022000
00000000
00000000
00033000
,
01000000
00000000
00010000
00000000
01010000
00000000
10000000
00100000
,
00000000
10100000
00000000
00010000
01000000
00000000
00011000
00000000
,
00000100
00000000
00001000
00000000
00001100
00000000
00000001
00000010
,
00000000
00000011
00000000
00001000
00000100
00000000
00011000
00000000
,
01000000
00010000
00100000
00010000
10000000
00010000
00100000
00010000
,
00001000
00000100
00001000
00000010
00001000
00000001
00001000
00000010
,
00000200
00002300
00023000
00230000
,
10300000
00000000
00000000
10000000
00000000
00000000
10000000
00000000
00000000
00000000
00000000
00000000
00100000
00000000
10000000
00000000
00010000
00000000
01000000
00000000
00000000
00000000
00000000
00000000
,
01002000
00000000
00000000
00000010
00000010
00000000
00013000
00000000
,
00001000
00000010
00000000
00000001
00000010
00000000
00001000
00000000
,
00020100
00000000
00000000
00100000
00100000
00000000
00031000
00000000
,
00010000
00100000
00000000
10000000
00000000
00100000
00010000
00000000
,
00102000
00000000
00000000
00000100
00000100
00000000
00013000
00000000
,
00001000
00000010
00000000
00000001
00000010
00000000
00001000
00000000
,
00020010
00000000
00000000
01000000
01000000
00000000
00031000
00000000
,
00022000
00000000
00000000
00000000
,
00000000
00000000
00000000
00000000
00033000
00000000
00000000
00000000
00000000
00000000
00000000
00000000
00001000
00010000
00001000
00010000
,
00001000
00010000
00001000
00010000
00001000
00010000
00001000
00010000
00001000
00010000
00001000
00010000
00001000
00010000
00001000
00010000
,
00001000
00010000
00001000
00010000
00000020
00000030
00000000
00002000
00003000
00000000
00000200
00000300
00010000
00001000
00010000
00001000
,
00010000
00001000
00010000
00001000
00010000
00001000
00010000
00001000
00010000
00001000
00010000
00001000
00200000
00000000
00300000
00000000
,
20020000
00000000
30030000
00000000
00020000
00000000
00030000
00000000
00220000
00000000
00330000
00000000
00100000
01000000
00100000
01000000
,
00100000
01000000
00100000
01000000
00100000
01000000
00100000
01000000
00100000
01000000
00100000
01000000
00100000
01000000
00100000
01000000
,
00100000
01000000
00100000
01000000
00020000
00030000
00000000
00002000
00003000
00000000
00020000
00030000
00000010
00000100
00000010
00000100
,
00000010
00000100
00000010
00000100
00000010
00000100
00000010
00000100
00000010
00000100
00000010
00000100
00000002
00000000
00000003
00000000
,
00002002
00000000
00003003
00000000
00002000
00003000
00000002
00000003
00002000
00003000
00000000
00000000
00000001
00000100
00000001
00000100
,
00000001
00000100
00000001
00000100
00000010
00001000
00000010
00001000
00000010
00001000
00000010
00001000
00010000
01000000
00010000
01000000
,
00010000
01000000
00010000
01000000
00200000
00300000
00000000
02200000
03300000
00000000
00020000
00030000
10000000
01000000
10000000
01000000
,
10000000
01000000
10000000
01000000
00100000
00010000
00100000
00010000
00100000
00010000
00100000
00010000
00002000
00000000
00003000
00000000
,
00000220
00000000
00000330
00000000
00002002
00000000
00003003
00000000
00000220
00000000
00000330
00000000
00010000
00001000
00010000
00001000
,
00010000
00000100
00010000
00000100
00010000
00001000
00010000
00001000
00010000
00000010
00010000
00000010
00010000
00001000
00010000
00000100
,
00010000
00001000
00010000
00000010
00020000
00030000
00000000
00022000
00033000
00000000
02000000
03000000
00001000
00010000
00001000
00010000
,
00001000
01000000
00001000
01000000
00001000
00010000
00001000
00100000
00001000
00010000
00001000
01000000
00020000
00000000
00000000
00000000
,
00000000
00000000
00000000
00000000
00030000
00000000
10000000
01000000
,
00010000
00000000
00000000
00010000
00000000
00000000
00001000
00000000
00000000
00010000
00000000
00000000
00001000
00000000
00000010
00000001
,
00000010
00000000
00000001
00000000
00000000
00000100
00000000
00000100
00000000
00000000
00001000
00000000
00010000
00000000
00001000
00000000
,
00010000
00000000
00000000
00010000
00000000
00000000
00100000
10000000
00000000
10000000
00000000
00010000
01000000
00000000
00100000
00000000
,
00100000
00000000
01000000
00000000
00000000
00010000
00000000
00010000
00000000
00000000
00100000
00000000
00001000
00000000
00001000
00000000
,
00000010
00000000
00000000
00000100
00000000
00000000
00001000
00000000
00000000
00000001
00000000
00000000
00000100
00000000
00000010
00000100
,
00000010
00000000
00001000
00000000
00000000
00000100
00000000
00000100
00000000
00000000
00010000
00000000
00001000
00000000
00100000
00000000
,
00010000
00000000
00000000
01000000
00000000
00000000
10000000
00000000
00000000
01000000
00000000
00000000
00010000
00100000
00010000
00100000
,
00010000
00100000
00001000
00010000
00000100
00001000
00000100
00001000
00000100
00001000
00000100
00001000
00000010
00000000
00000100
00000000
,
00000001
00000000
00000000
00000011
00000000
00000000
00001000
00000000
00000000
00001100
00000000
00000000
00000001
00000000
00000100
00000001
,
00000100
00000000
00001000
00000000
00000000
00010000
00000000
00011000
00000000
00000000
00100000
00000000
00010000
00000000
01000000
00000000
,
00010000
00000000
00000000
00110000
00000000
00000000
10000000
00000000
00000000
11000000
00000000
00000000
00010000
00000000
01000000
00010000
,
01000000
00000000
00100000
00000000
10000000
01000000
00000000
01000000
00000000
10000000
00010000
00000000
00110000
00000000
00001000
00000000
,
00010000
00000000
00000000
00010100
00000000
00000000
00000010
00000000
00000000
00001010
00000000
00000000
00000001
00000000
00000010
00000001
,
00000010
00000000
00000100
00000000
00001000
00000100
00000000
00000100
00000000
00000000
00010000
00000000
00011000
00000000
00100000
00000000
,
00110000
00000000
00000000
01010000
00000000
00000000
11000000
00000000
00000000
10100000
00000000
00000000
20020000
00000000
00000000
00000000
,
00000000
00000000
30030000
01100000
,
00000000
00000000
00000000
20000000
32000000
03020000
00032000
00000000
,
00000000
00003020
00000000
00000000
00000032
00000000
00000203
00000000
,
00000000
00002300
00000000
00000000
00023000
00000000
00230000
00000000
,
00300000
00000000
00000000
00000000
01000000
00000000
00010000
01000000
00010000
00000000
10000000
00000000
00100000
00000000
01000000
00000000
,
00010000
00100000
00001000
00000010
00000100
00010000
00001000
00000010
,
00000001
00000000
00000000
00000000
00000100
00000000
00000001
00000100
00000001
00000000
00001000
00000000
00000010
00000000
00000100
00000000
,
00001000
00000000
00010000
00000000
00100000
00000000
00100000
00000000
00100000
00000000
00100000
00000000
01000000
00010000
01000000
00010000
,
10000000
00100000
10000000
00100000
01000000
00000000
00010000
10000000
00010000
00000000
00100000
00000000
01000000
00000000
00010000
00000000
,
00001000
00000000
00000010
00000000
00000100
00000010
00000001
00000000
00001000
00000000
00000010
00000000
00000100
00000000
00000000
00000000
,
00011000
00000000
01000000
01000000
00010000
00010000
00100000
00100000
,
00010000
00000000
00010000
00000000
01000000
00100000
01000000
00100000
01000000
00100000
01000000
00100000
01000000
00100000
01000000
00100000
,
10000000
00000000
10010000
00000000
00000000
00000000
00000000
00020000
,
00230000
00302000
00023000
00000000
00000000
00030200
00000000
00000000
,
00002300
00000000
00003020
00000000
00000000
00000230
00000000
00000000
,
00000302
00000000
00000023
00000000
00000000
00000230
00000000
00000000
,
00020300
00000000
00000000
00000000
00000000
00030000
00000000
00002000
,
00023000
00230000
02300000
00000000
00000000
03020000
00000000
00000000
,
20030000
00000000
30200000
00000000
00000000
20300000
00000000
00000000
,
32000000
00000000
03020000
00030000
00000000
00002000
00003000
00000000
,
00000020
00000030
00000000
00000000
00000000
00000000
00000000
00000000
;
