#VERSION:0.83;
#TITLE:水面静かに大地の烈日わたらせて;
#SUBTITLE:;
#ARTIST:あさき;
#TITLETRANSLIT:Minamo shizuka ni daichi no retsujiru watarasete;
#SUBTITLETRANSLIT:;
#ARTISTTRANSLIT:Asaki;
#GENRE:FLUCH;
#CREDIT:;
#MUSIC:Minamo shizuka ni daichi no retsujiru watarasete.ogg;
#BANNER:Minamo shizuka ni daichi no retsujiru watarasete.png;
#BACKGROUND:Minamo shizuka ni daichi no retsujiru watarasete-bg.png;
#CDTITLE:./CDTitles/pnm 18 Sengoku Retsuden.png;
#SAMPLESTART:88.818;
#SAMPLELENGTH:15.000;
#SELECTABLE:YES;
#OFFSET:3.463;
#BPMS:0.000=59.000
,11.625=62.000
,11.750=124.000
,126.500=121.000
,149.500=80.000
,152.500=70.000
,152.750=124.000
,173.000=120.000
,176.750=124.000
,239.000=31.000
,240.000=124.000
;
#STOPS:;
#TIMESIGNATURES:0.000=4=4,
24.000=5=4,
28.000=4=4,
240.000=5=4,
256.000=4=4
;
#DISPLAYBPM:124.000;
#BGCHANGES:0.000=../BGAs/09te.mp4=1.000=0=0=0=StretchNoLoop====,
99999.000=-nosongbg-=1.000=0=0=0=StretchNoLoop====
;
#FGCHANGES:;

//--------------- dance-single - forcednature ----------------
#NOTEDATA:;
#STEPSTYPE:dance-single;
#DESCRIPTION:forcednature;
#DIFFICULTY:Beginner;
#METER:5;
#RADARVALUES:0,0,0,0,0;
#CREDIT:forcednature;
#NOTES:
0000
0000
0000
0000
,
0000
0000
0000
0000
,
0000
0000
0000
0000
0000
0000
0000
0000
0000
0000
0000
0000
0000
0000
0000
0010
,
0000
0000
0100
0000
,
0001
0000
0000
0000
0000
0000
0000
0000
1000
0000
0000
0000
0000
0000
0000
0100
,
0000
0000
0010
0000
,
0001
0000
0000
0000
0000
0000
0000
1000
0000
0000
0000
0001
0000
0000
0000
0000
,
0000
0000
0100
0000
0000
0010
0000
0000
0000
0000
0000
0000
0000
0000
0000
1000
,
0000
0000
0000
0001
0000
0000
0000
1000
0000
0000
0000
0001
0000
0000
0000
0010
,
0000
0000
0000
0000
0000
0100
0000
0000
0000
0100
0000
0000
0000
0100
0000
0000
,
0000
1000
0000
0000
0000
0001
0000
0000
,
0000
0000
0100
0000
0000
0000
0000
0000
0000
0000
0000
0010
0000
0000
0000
0010
,
0000
0000
0000
0010
0000
0000
0000
0000
0000
0000
1000
0000
0000
0000
0000
0000
,
0000
0000
0000
0001
0000
0000
0000
0001
0000
0000
0000
0001
0000
0000
0000
0000
,
0010
0000
0000
0000
0000
0100
0000
0000
0100
0000
0000
0100
0000
0000
0100
0000
,
0000
0000
1000
0000
0000
0001
0000
0000
0000
0000
0100
0000
0000
0100
0000
0000
,
0000
0000
0010
0000
0000
0010
0000
0000
0000
0000
1000
0000
0000
0001
0000
0000
,
0000
0020
0000
0000
0000
0030
0000
0100
,
0000
0000
1000
0000
0000
0000
0001
0000
0000
0100
0000
0000
0010
0000
0000
0000
,
0000
0010
0000
1000
,
0000
0001
0000
0010
,
0000
0000
0000
0000
0100
0000
0000
0000
0000
0000
0000
0000
0000
1000
0000
0000
,
0001
0000
0100
0000
,
0010
0000
1000
0000
,
0100
0000
0010
0000
,
0000
0001
0000
0000
0000
0000
0000
0000
1000
0000
0000
0000
0000
0000
0000
0000
,
0001
0000
0100
0000
,
0010
0000
0000
2002
,
0000
3003
0000
0100
,
0000
0100
0000
0010
,
0000
0010
0000
1000
,
1000
0000
0000
0000
0000
0000
0000
0001
0000
0000
0000
0000
0000
0010
0000
0000
,
0000
0000
0000
0100
0000
0000
0000
0000
,
1000
0000
0000
0000
0000
0000
0000
0000
0000
0000
0000
0001
0000
0000
0000
0000
,
0000
0000
0000
0100
0000
0000
0000
0000
0000
0000
0000
0000
0000
0220
0000
0000
,
0000
0000
0000
0000
0000
0000
0000
0000
0000
0330
0000
0000
0000
1000
0000
0000
,
0000
0000
0000
0000
0000
0000
1001
0000
0000
0000
0000
0000
0001
0000
0000
0001
,
0000
0000
0000
0200
0000
0000
0000
0000
,
0000
0000
0300
0010
0000
0000
0000
0000
0000
0000
0000
0000
1000
0000
0000
0000
,
0000
0100
0000
0010
,
0000
0001
0000
0100
,
0000
0000
0000
0010
0000
0000
0000
0000
0000
0000
0000
0100
0000
0000
0000
0000
,
0000
1001
0000
1000
,
0000
0200
0000
0300
,
0000
0000
0000
0110
0000
0000
0000
0000
0000
0000
0000
0010
0000
0000
0000
0000
,
0000
0000
0000
0001
0000
0000
0000
0000
0000
0000
0000
1000
0000
0000
0000
0000
,
0000
0000
0000
0010
0000
0000
0000
0000
0000
0000
0000
0100
0000
0000
0000
0000
,
0000
0000
0000
0001
0000
0000
0000
0000
0000
0000
0000
0000
0000
0000
0000
0000
,
0000
0000
0000
1000
0000
0000
0000
0000
0000
0000
0000
0001
0000
0000
0000
0000
,
0000
0000
0000
0100
0000
0000
0000
0000
0000
0000
0000
0010
0000
0000
0000
0000
,
0000
0000
0000
1000
0000
0000
0000
0000
0000
0000
0000
0000
0000
0000
0000
0000
,
0001
0000
0000
0000
0010
0000
0000
0000
0000
0000
0000
0100
0000
0000
0000
0000
,
0000
0000
0000
0000
0000
0000
1001
0000
0000
0000
0000
1000
0000
0000
1000
0000
,
0000
0000
0000
0001
0000
0000
0001
0000
0000
0000
0000
0100
0000
0000
0000
0000
,
0000
0000
0000
0010
0000
0000
0000
0000
0000
0000
0000
1000
0000
0000
0000
0000
,
0000
0000
0000
0001
0000
0000
0000
0000
0000
0000
0000
0010
0000
0000
0010
0000
,
0000
0000
0000
0100
0000
0000
0000
0000
0000
0000
0000
1000
0000
0000
0000
0000
,
0000
0000
0000
0001
0000
0000
0000
0000
0000
0000
0000
0100
0000
0000
0000
0000
,
0000
0000
0000
0010
0000
0000
1000
0000
0000
0000
1000
0000
0000
0000
0001
0000
,
0000
2002
0000
3003
,
0010
0000
0010
0000
,
0100
0000
0001
0000
,
0001
0000
1000
0000
,
0100
0000
0100
0000
,
0010
0000
0000
0010
0000
0000
0000
0000
0001
0000
0000
0001
0000
0000
0000
0000
,
1000
0000
0000
1000
0000
0000
0000
0000
1001
0000
0000
2002
0000
0000
0000
0000
,
0000
0000
0000
0000
,
0000
0000
0000
3003
;

//--------------- dance-single - forcednature ----------------
#NOTEDATA:;
#STEPSTYPE:dance-single;
#DESCRIPTION:forcednature;
#DIFFICULTY:Easy;
#METER:10;
#RADARVALUES:0,0,0,0,0;
#CREDIT:forcednature;
#NOTES:
0000
0000
0000
0000
,
0000
0000
0000
0000
,
0000
0000
0000
0000
0000
0000
0000
0000
0000
0000
0000
0000
0000
0000
0000
1001
,
0000
0001
0000
0100
0000
0010
0000
1000
,
0000
0000
0001
0000
0000
0000
1000
0000
0000
0000
0100
0000
0000
0000
0000
0110
,
0000
0010
0000
0001
0000
1000
0000
0010
,
0000
0000
0100
0000
0000
0000
0000
0101
0000
0000
0000
1100
0000
0010
0000
0010
,
0000
0000
1001
0000
0000
0220
0000
0000
0000
0000
0000
0000
0000
0330
0000
0001
,
0000
1000
0000
0001
0000
0100
0000
0010
0000
1000
0000
0000
0000
0001
0000
1000
,
0000
0100
0000
0000
0000
0010
0000
0001
0000
1000
0000
0001
0000
0100
0000
0010
,
0000
0000
1010
0000
0000
0001
0000
1000
0000
0000
0110
0000
0000
0001
0000
1000
,
0000
0000
0010
0000
0000
0100
0000
0001
0000
0100
0000
0001
0000
1000
0000
0001
,
0000
1000
0000
0010
0000
1000
0000
0001
0000
0000
0011
0000
0000
0010
0000
0100
,
0000
1000
0000
0100
0000
0010
0000
0001
0000
1000
0000
0010
0000
0000
0100
0000
,
0010
0000
1001
0000
0000
1000
0000
0000
0001
0000
0000
0100
0000
0000
0010
0000
,
1000
0000
0001
0000
0000
0010
0000
0000
0100
0000
0010
0000
0000
0110
0000
0000
,
0000
0000
0100
0000
0000
1001
0000
0000
0000
0000
0110
0000
0000
0110
0000
0000
,
0000
0000
0001
0000
0000
1000
0000
0000
0010
0000
0200
0000
0000
0000
0302
0000
,
0000
0000
2003
0000
0000
0000
3100
0000
0000
1001
0000
0000
1000
0000
0000
0000
,
0010
0100
0001
0010
,
0100
1000
0010
0001
,
0010
0000
0000
0000
0100
0000
0000
0000
0001
0000
1000
0000
0000
0001
0000
0000
,
0011
1000
0010
0100
,
0001
0000
1000
0100
1000
0000
0010
0000
,
0100
0000
0001
0000
1000
0000
0010
0100
,
0000
1001
0000
0000
0001
0000
0100
0000
0001
0000
0000
0000
1000
0000
0100
0000
,
1000
0000
0010
0100
0010
0000
1000
0001
,
1000
0000
0100
0010
0100
0000
0010
0001
,
0010
0000
0000
0001
0000
1000
0000
0000
0001
0000
0100
0000
0001
0000
0100
0000
,
0000
0010
1000
0010
0000
1000
0100
1000
,
0000
0000
0001
0000
0010
0000
0001
0000
0000
0000
0100
0000
0000
0110
0000
0000
,
1000
0000
0001
0000
1000
0000
0000
0202
0000
0000
0000
0303
0000
0010
0000
0000
,
0110
0000
0000
0000
0001
0000
1000
0000
0000
0001
0000
0100
0000
0001
0000
0000
,
0010
0000
0000
0100
0000
1000
0000
0000
0001
0000
0000
0100
0000
0100
0000
0100
,
0000
0000
0000
0110
0000
0000
0001
0000
0000
0000
1000
0000
0000
0200
0000
0000
,
0010
0000
0000
0001
0000
0000
0010
0000
0000
1300
0000
0000
0000
0110
0000
0000
,
1000
0000
0000
0001
0000
0000
0100
0000
0100
0000
0000
0000
0010
0000
0000
0110
,
0000
1001
0000
0220
0000
0000
0000
0000
,
0000
0000
0330
1001
0000
0000
0001
0000
0100
0000
0001
0000
1000
0000
0010
0000
,
0000
1000
0100
1000
0001
0010
0000
0100
,
0010
0001
1000
0010
0000
0100
0001
1000
,
1000
0000
0000
0110
0000
0000
1001
0000
0000
0000
0000
0110
0000
0000
1001
0000
,
0000
0000
0110
0000
0001
0100
0010
1000
,
0001
0000
1000
0000
0000
0100
0000
0000
0110
0000
0000
2002
0000
0000
0000
0000
,
3003
0000
0000
0001
0000
0000
0100
0000
0001
0000
1000
0000
0010
0000
1000
0000
,
0001
0010
0000
0100
1000
0100
0000
0010
,
0001
0000
0000
0010
0000
0000
0100
0000
1000
0000
0001
0000
1000
0000
0010
0000
,
0100
0000
0001
0000
0000
0000
1000
0000
0100
0000
0000
0010
0000
0000
0001
0000
,
1000
0000
0000
0010
0000
0000
0100
0000
0001
0000
0000
0010
0000
0000
0100
0000
,
1000
0000
0000
0010
0000
0000
1000
0000
0001
0000
0000
0010
0000
0000
0001
0000
,
1000
0000
0000
0010
0000
0000
0100
0000
0100
0000
0100
0000
0100
0000
0001
0000
,
1000
0000
0000
0110
0000
0000
1001
0000
0000
0000
0000
1100
0000
0000
0100
0000
,
0010
0000
0001
0000
0000
0000
0101
0000
0000
0000
0000
1000
0000
0000
1100
0000
,
0000
0000
0000
0001
0000
0000
0101
0000
0000
0000
0010
0000
0100
0000
0010
0000
,
0000
0000
0000
1001
0000
0000
1000
0000
0010
0000
1000
0000
0000
0000
0001
0000
,
0010
0000
0002
0000
0000
0000
0100
0000
0000
0000
0000
1003
0000
0000
0010
0000
,
0100
0000
0000
0001
0000
0000
1000
0000
0100
0000
1000
0000
0000
0000
0001
0000
,
0100
0000
0000
0010
0000
0000
1000
0000
0001
0000
0000
0010
0000
0000
0001
0000
,
1000
0000
0000
0010
0000
0000
0100
0000
0100
0000
0001
0000
0001
0000
1000
0000
,
1000
0220
0000
0330
,
0001
1000
0001
0000
0100
0010
1000
0001
,
1000
0100
0010
0000
1001
0000
0001
0100
,
0001
1000
0010
0000
1000
0001
0010
0100
,
1000
0000
0000
0001
0000
0000
1000
0000
0000
0001
0000
0000
0100
0000
0010
0000
,
1000
0000
0000
0001
0000
0000
0000
0000
1001
0000
0000
1001
0000
0000
0000
0000
,
0110
0000
0000
0110
0000
0000
0000
0000
1001
0000
0000
1001
0000
0000
0000
0000
;

//--------------- dance-single - forcednature ----------------
#NOTEDATA:;
#STEPSTYPE:dance-single;
#DESCRIPTION:forcednature;
#DIFFICULTY:Medium;
#METER:13;
#RADARVALUES:0,0,0,0,0;
#CREDIT:forcednature;
#NOTES:
0000
0000
0000
0000
,
0000
0000
0000
0000
,
0000
0000
0000
0000
0000
0000
0000
0000
0000
0000
0000
0000
0000
0000
0000
1001
,
0000
0001
0100
0001
1000
0010
1000
0100
,
0020
0000
0000
0000
0031
0000
1000
0000
0010
0000
0100
0000
0001
0000
0000
2010
,
0000
0000
3100
0000
1000
0000
0001
0000
0010
0000
0100
0000
1000
0000
0000
0001
,
0000
0000
0100
0001
0100
0000
0010
2000
0000
0000
3100
0010
0000
0001
0000
1000
,
0000
0010
0200
0000
0000
0002
0000
0000
0000
0000
0000
0000
0000
0303
0000
1000
,
0100
1000
0000
0001
0100
0001
0000
1000
0010
0100
0002
0000
0000
0010
0000
1003
,
0001
0100
0020
0000
0000
1030
0000
0001
0000
0010
0000
0001
0000
0100
0000
0010
,
0000
1000
0100
0000
0000
0011
0000
1000
0000
0001
0100
0000
0000
0010
1000
0010
,
1000
0001
0010
0000
0000
0100
0000
1000
0000
0100
0000
0010
0000
0001
1000
0000
,
0101
0000
0101
0000
1000
0001
0000
0100
0000
0010
1000
0000
0000
0011
0000
1000
,
0000
0001
0010
0000
0100
1000
0100
0000
0010
0000
0010
0000
0001
1000
0000
0010
,
0100
0000
1001
0000
1000
0100
0000
1000
0010
0000
1000
0100
0000
1000
0010
0000
,
0100
0000
1001
0000
0001
0100
0000
0001
0010
0000
1100
0000
0000
1100
0000
0000
,
0000
0000
0011
0000
0000
0011
0000
0000
0000
0000
1001
0000
0000
1001
0000
0000
,
0000
0000
0200
0000
0000
1000
0000
0000
0010
0000
0001
0000
0301
0000
0100
0000
,
0000
0000
1001
0000
0000
0000
0110
0000
0000
1001
0000
0000
0001
0000
0100
0000
,
0001
1000
0010
1000
0001
0010
0100
1000
,
0100
0010
0001
1000
0010
0001
0010
0100
,
1000
0000
0100
0000
0001
0000
0010
0000
0100
0000
0001
0000
0100
1000
0000
0000
,
0011
0001
0100
1000
0100
0010
1000
0001
,
0010
0001
1000
0010
0001
0010
0100
0001
,
1000
0000
0100
0010
0100
0000
1000
0000
0001
0000
0100
0000
0010
0000
1000
0001
,
1000
0001
0000
0000
0010
0000
1000
0000
0010
0000
0001
0000
0100
0000
1000
0000
,
0100
0000
0001
0010
0100
1000
0010
0000
0100
0000
1000
0000
0100
0000
0001
0000
,
0010
0000
0100
0000
0001
0000
0100
0000
1000
0001
0000
0000
0110
0000
0001
0000
,
1000
0000
0010
0100
0000
1001
0000
1000
0100
0000
0010
0000
1000
0000
0010
0000
,
0001
0000
1000
0010
1000
0000
0001
0000
0100
0000
1000
0000
0100
0000
0010
0000
,
1000
0000
0001
0010
0100
0000
0010
0000
0001
0000
1000
0000
0010
0100
0000
0000
,
1001
0000
1001
0000
1001
0000
0000
0110
0000
0000
0001
1000
0001
1000
0000
0000
,
1010
0000
0000
0001
0000
0010
0100
0000
0000
2100
0000
0010
0000
3010
0000
0000
,
0201
0000
0000
1300
0000
1100
0000
0000
0110
0000
0000
0001
0000
1000
0000
1001
,
0000
0000
0010
0100
0000
0000
1001
0000
0001
0100
0010
0000
0000
2000
0000
0000
,
0100
0000
0000
0001
0000
0000
3001
1000
0001
1000
0000
0000
0010
0100
0000
0001
,
0000
0010
0100
0010
0000
0000
0001
1000
0001
1000
0000
0000
0110
0000
0000
0101
,
0000
0000
1000
0001
0000
0000
0220
0000
0000
0000
0000
0000
0000
0000
0000
0000
,
0000
0000
0330
1001
0000
0000
1000
0000
0100
0010
0100
0000
1000
0000
0001
0000
,
0100
0010
0100
0000
0001
0000
1000
0000
0001
0100
0010
1000
0000
0000
1100
0000
,
0100
0010
0100
0000
1000
0000
0001
0000
0010
0000
0010
0000
0010
0000
0100
1000
,
0001
0100
0000
1010
0000
0000
1010
0000
0100
0000
0000
0011
0000
0000
0011
0000
,
0200
0300
1001
1000
0100
0001
0100
1000
,
0100
0010
0001
0000
1000
0010
0000
0100
0001
0000
0010
0200
0000
0000
0300
0000
,
1000
0001
1000
0001
0000
0000
0100
0000
0001
0000
1000
0010
1000
0000
0100
0000
,
0010
0000
0001
1000
0001
0000
0100
0000
0010
0000
1000
0100
1000
0000
0010
0000
,
0100
0000
0001
0010
0000
0000
0100
0000
1000
0000
0100
0010
0100
0000
1000
0000
,
0001
0000
0100
0010
0100
0000
0001
0000
1000
0000
0010
0001
0000
0000
0010
0000
,
0100
0000
0001
1000
0000
0000
0100
0000
0001
0000
0100
0010
0001
0000
1000
0000
,
0010
0000
0100
0001
1000
0000
0100
0000
0010
0000
0001
1000
0010
0000
0100
0000
,
0001
0000
1000
0200
0000
0000
0001
0000
0010
0000
1000
0000
0310
0000
0100
0000
,
1000
0000
0001
0100
0000
0000
1010
0000
1000
0000
0001
0010
0000
0100
1000
0000
,
0001
0100
0001
0100
0000
0000
1010
0000
0001
0000
0010
0100
0000
0000
1010
0000
,
1000
0000
0010
0100
0000
0000
0011
0000
0001
0000
1000
0100
0010
0000
0001
0000
,
1000
0000
0010
0100
0000
0000
0001
0000
0100
0000
0010
1000
0001
0000
1000
0000
,
0100
0000
0010
0002
0000
0000
0100
0000
1000
0000
0013
0001
0000
0000
1010
0000
,
0001
0000
0100
0010
0000
0000
1000
0000
0001
0000
1000
0100
0010
0000
0001
0000
,
1000
0000
0010
0100
0001
0000
0010
0000
0001
0000
1000
0010
0100
0000
0010
0000
,
1000
0000
0001
0010
0000
0000
0001
0000
0101
0000
1000
0000
1100
0000
0010
0000
,
1000
0100
0010
0001
0200
0000
0000
0000
0000
0000
0000
0000
0300
0000
0000
0000
,
1001
0000
0000
1000
0000
0000
0100
0010
0000
0001
0100
0000
0010
0000
1000
0001
,
1000
0000
0000
0100
0000
0010
0001
0000
0101
0000
0000
1010
0000
0000
0001
1000
,
0001
0000
0010
0100
0000
0000
1000
0100
1000
0000
0000
0001
0100
0000
0010
0000
,
1001
0000
0000
1000
0000
0001
0010
0001
0000
1000
0010
0000
0101
0000
0100
0000
,
1010
0000
0000
0001
0000
0010
0100
0000
1100
0000
0000
1100
0000
0000
0010
0000
,
0101
0000
0000
0101
0000
0000
0010
0000
1001
0000
0000
1001
0000
0000
0000
0000
;

//--------------- dance-single - forcednature ----------------
#NOTEDATA:;
#STEPSTYPE:dance-single;
#DESCRIPTION:forcednature;
#DIFFICULTY:Hard;
#METER:16;
#RADARVALUES:0,0,0,0,0;
#CREDIT:forcednature;
#NOTES:
0000
0000
0000
0000
,
0000
0000
0000
0000
,
0000
0000
0000
0000
0000
0000
0000
0000
0000
0000
0000
0000
0000
0000
0000
1001
,
0000
1000
0100
0000
0010
0000
0001
0000
0100
0000
1000
0000
0100
0000
0010
1000
,
0002
0000
0000
0000
0010
0000
1003
0000
0001
0000
0100
0000
0010
1000
0001
0020
,
0000
0000
0100
0000
0031
0010
0100
2000
0000
0000
0001
0000
3100
1000
0001
0200
,
0000
0000
0310
1000
0001
1000
0000
0101
0000
0001
0010
1000
0000
0010
0001
1000
,
0001
0100
0010
0000
0000
0201
0000
0000
0000
1000
0000
0010
0000
0301
0000
0100
,
0001
0100
0001
1000
0010
1000
0001
1000
0100
0010
0002
0000
0000
0103
0001
1000
,
0010
1000
0200
0000
0000
0010
0000
0001
0000
0010
0000
1000
0000
0310
0000
0100
,
1000
0001
0100
0000
0000
1010
0000
0001
0010
0000
0110
0000
1000
0001
0010
0001
,
0100
0010
2000
0000
0000
0100
0000
0001
0000
3010
0000
1000
0001
0000
0001
0000
,
0100
0001
0100
0000
0010
1000
0001
1000
0100
0000
0110
0000
0000
1001
0000
1000
,
0010
0100
0001
0000
0001
1000
0000
0001
0010
0001
0100
0000
0010
1000
0001
1000
,
0100
0000
0110
0000
0010
1000
0000
0010
0001
0000
1000
0010
0000
0001
0010
0000
,
0110
0000
1001
0000
0001
0100
0000
1000
0100
0000
1010
0000
0000
0101
0000
0000
,
0010
0000
0011
0000
0000
1100
0000
0000
0010
0000
1001
0000
0000
1001
0000
0000
,
1000
0001
0200
0000
0000
1000
0000
0000
0310
0000
0100
0001
0100
0001
0010
0000
,
0000
0001
0100
1000
0000
0100
0010
1000
0000
1001
0000
0001
0010
0000
0100
1000
,
0100
0000
0010
0000
0001
1000
0000
0001
0100
0000
0020
0000
1000
0000
0230
0000
,
0301
0100
0001
0000
1000
0000
0001
0010
0100
1000
0010
0000
0100
0000
0001
1000
,
0100
1000
0000
0010
0100
0000
0001
0010
0001
1000
0010
0100
0001
0010
0000
0000
,
1100
0000
0001
0000
0100
0010
1000
0000
0001
0000
1000
0100
1000
0001
0100
0000
,
0001
0010
0000
0100
0010
0000
0001
0000
1000
0010
0100
0000
0001
0000
0010
0100
,
1000
0100
0000
0010
0001
0000
1000
0010
0200
0000
1000
0000
0010
0000
0301
0100
,
0010
1000
0000
0000
0001
0000
0001
0010
0001
1000
0001
0100
0001
0000
0001
0010
,
0001
0000
0100
0010
0000
0010
1000
0100
0010
0000
1000
0010
0001
0000
0001
1000
,
0010
0000
0010
0100
1000
0000
1000
0100
0001
0010
0002
0000
0100
0000
1000
0000
,
0013
0000
0001
0100
0000
1020
0000
0000
0031
0000
0010
0100
0001
1000
0010
0000
,
0100
0001
1000
0001
0010
0000
0200
1000
0000
0301
0100
0000
1000
0000
0020
0001
,
0000
1030
0010
0000
0100
0000
0001
0010
0001
1000
0010
1000
0000
1001
0000
0100
,
0010
0000
1100
0000
0101
0000
0000
1001
0000
0000
0001
0100
0010
1000
0000
0000
,
0101
0000
1000
0100
0010
0001
0100
0000
0000
1010
0000
0001
0010
0001
0000
0100
,
1000
0100
0010
1000
0000
0101
0000
0000
0011
0000
0000
1000
0000
1000
0010
1000
,
0100
0001
0000
0110
0000
1000
0001
0010
0001
0100
1000
0100
0001
0020
0000
0100
,
0100
0000
0031
0010
0000
0100
1000
0001
1000
0010
0001
0010
0100
0010
0000
1000
,
0001
0010
0001
0100
0000
0000
0200
2300
3200
0302
0003
1000
0100
0010
0001
0100
,
0010
1000
0100
0010
0001
0000
2002
0000
0000
0000
0000
0000
0000
0000
0000
0000
,
0000
0000
3003
0001
0100
0010
1000
0000
0010
0100
0001
1000
0100
0010
0001
1000
,
0001
0100
0010
1000
0001
0010
0001
0100
0010
0100
0000
1001
0000
0000
0110
0000
,
0001
0000
1000
0000
0010
0000
1000
0000
0000
0000
0001
0000
0010
0000
0000
0000
0100
0000
0001
0000
0100
0000
1000
0000
0100
0000
0010
0000
0001
0010
0001
0000
,
1000
0010
0000
1010
0000
0001
0011
0000
1000
0000
0001
0101
0000
1000
1100
0000
,
0010
0000
0000
0000
0000
0000
1000
0000
0100
0000
0010
0000
0001
0000
0000
0000
0000
0000
1000
0000
0000
0001
0000
0000
0010
0000
0000
0001
0000
0000
1000
0000
0000
0010
0000
0000
1000
0000
0000
0001
0000
0000
0100
0000
0000
0010
0000
0000
,
1000
0001
0010
0000
0100
0001
0000
0100
1000
0000
0001
0200
0000
0000
0310
0000
,
0001
1000
0001
1000
0000
0100
0010
0000
0001
0100
0010
1000
0000
0001
0010
0000
,
0100
1000
0001
0200
0000
0000
1000
0000
0301
0100
0010
1000
0000
0001
0010
0000
,
0100
1000
0100
0110
0000
0000
0001
0100
0010
1000
0001
1000
0100
0000
0010
0001
,
1000
0000
0010
0200
0000
0000
1000
0000
0010
0000
0301
0101
0000
0000
1010
0000
,
1000
0100
0010
0001
0000
0100
1000
0000
0100
0001
0010
0100
0000
0001
0100
0000
,
1000
0010
0100
0001
0000
0010
1000
0000
0010
0001
1000
0010
0000
0100
1000
0000
,
0100
0001
1000
0200
0010
0000
0301
0100
0010
0100
1000
0001
0010
0000
0101
0000
,
1010
0000
2000
0100
0000
3000
0011
0000
0001
1000
0001
0100
0000
0010
0001
0010
,
1000
0000
0001
0000
1000
0000
0100
0000
0010
0000
0001
1000
0001
0000
0000
0000
0100
0000
0001
0000
1000
0000
1010
0000
0000
0000
0001
0000
0011
0000
0000
0000
,
0100
0010
1000
1100
0000
0001
0101
0000
1000
0010
0001
0020
0000
0130
0001
0000
,
1000
0100
0010
0011
0000
0000
0100
0001
0100
0010
1000
0001
0000
0010
0100
1000
,
0001
0000
1000
0020
0000
0000
0001
0000
0100
0000
1030
1010
0000
0000
0101
0000
,
0001
0010
0100
1100
0000
1000
0001
0100
0010
1000
0001
0010
0000
0100
1000
0100
,
0001
0100
0010
0011
0000
0001
0100
0001
0010
1000
0010
0110
0000
0001
1000
0010
,
0100
0001
1000
1100
0000
0001
0100
1000
0100
0001
0100
1000
0100
0001
0100
1000
,
0100
0001
1000
0010
1000
0001
0020
0000
0000
0000
0000
0000
0000
0000
0000
0000
0000
0000
0030
0000
0000
0000
0000
0000
,
1001
0000
1000
0010
0000
0001
0010
0100
0010
1000
0001
1000
0100
0000
0010
0001
,
0010
0000
0001
0100
0000
1000
0100
0000
0110
0000
0010
1000
0000
0001
0010
0100
,
1000
0100
0001
0100
0010
0001
1000
0001
0100
1000
0100
0010
1000
0001
0010
0000
,
1100
0000
0000
0101
0000
1000
0010
0001
0010
0100
0001
1000
0100
0000
0110
0000
,
1001
0000
0000
0110
0000
0001
0100
0000
1010
0000
0000
0101
0000
0000
0010
0000
,
0011
0000
0000
0000
0000
0000
1100
0000
0000
0000
0000
0000
0010
0100
0000
0000
1001
0000
0000
0000
0000
0000
1001
0000
0000
0000
0000
0000
0000
0000
0000
0000
;

//--------------- dance-double - forcednature ----------------
#NOTEDATA:;
#STEPSTYPE:dance-double;
#DESCRIPTION:forcednature;
#DIFFICULTY:Easy;
#METER:10;
#RADARVALUES:0,0,0,0,0;
#CREDIT:forcednature;
#NOTES:
00000000
00000000
00000000
00000000
,
00000000
00000000
00000000
00000000
,
00000000
00000000
00000000
00000000
00000000
00000000
00000000
00000000
00000000
00000000
00000000
00000000
00000000
00000000
00000000
00011000
,
00000000
00010000
00000000
00100000
00000000
01000000
00000000
00010000
,
00000000
00000000
10000000
00000000
00000000
00000000
01000000
00000000
00000000
00000000
00100000
00000000
00000000
00000000
00000000
00011000
,
00000000
00000010
00000000
00001000
00000000
00000100
00000000
00000010
,
00000000
00000000
00000001
00000000
00000000
00000000
00000000
00000110
00000000
00000000
00000000
00001001
00000000
00000010
00000000
00000010
,
00000000
00000000
00011000
00000000
00000000
02002000
00000000
00000000
00000000
00000000
00000000
00000000
00000000
03003000
00000000
00001000
,
00000000
00010000
00000000
00001000
00000000
01000000
00000000
00010000
00000000
10000000
00000000
00000000
00000000
01000000
00000000
00010000
,
00000000
00001000
00000000
00000000
00000000
00000010
00000000
00000100
00000000
00001000
00000000
00000001
00000000
00000100
00000000
00000010
,
00000000
00000000
00001001
00000000
00000000
00001000
00000000
00000100
00000000
00000000
00011000
00000000
00000000
01000000
00000000
00010000
,
00000000
00000000
00100000
00000000
00000000
01000000
00000000
10000000
00000000
01000000
00000000
10000000
00000000
01000000
00000000
00010000
,
00000000
01000000
00000000
00010000
00000000
00001000
00000000
00000010
00000000
00000000
00000110
00000000
00000000
00000100
00000000
00001000
,
00000000
00000001
00000000
00000100
00000000
00000001
00000000
00000010
00000000
00001000
00000000
00010000
00000000
00000000
00100000
00000000
,
01000000
00000000
01100000
00000000
00000000
00100000
00000000
00000000
10000000
00000000
00000000
01000000
00000000
00000000
00010000
00000000
,
00001000
00000000
00000010
00000000
00000000
00000100
00000000
00000000
00001000
00000000
00000001
00000000
00000000
00001001
00000000
00000000
,
00000000
00000000
00010000
00000000
00000000
00011000
00000000
00000000
00000000
00000000
01100000
00000000
00000000
01100000
00000000
00000000
,
00000000
00000000
10000000
00000000
00000000
01000000
00000000
00000000
00010000
00000000
00002000
00000000
00000000
00000000
00003200
00000000
,
00000000
00000000
00000302
00000000
00000000
00000000
00000013
00000000
00000000
00000110
00000000
00000000
00000100
00000000
00000000
00000000
,
00010000
00001000
01000000
00010000
,
00100000
01000000
10000000
00100000
,
01000000
00000000
00000000
00000000
00001000
00000000
00000000
00000000
00010000
00000000
00000100
00000000
00000000
00010000
00000000
00000000
,
00010100
00000010
00001000
00000001
,
00000010
00000000
00000100
00001000
00000100
00000000
00010000
00000000
,
00001000
00000000
01000000
00000000
00010000
00000000
00100000
01000000
,
00000000
10010000
00000000
00000000
10000000
00000000
01000000
00000000
10000000
00000000
00000000
00000000
00010000
00000000
01000000
00000000
,
00010000
00000000
00100000
00001000
00100000
00000000
00001000
00010000
,
00001000
00000000
00000010
00000100
00000010
00000000
00000001
00001000
,
00000001
00000000
00000000
00000100
00000000
00001000
00000000
00000000
00010000
00000000
00100000
00000000
00010000
00000000
00100000
00000000
,
00000000
10000000
00100000
10000000
00000000
01000000
10000000
01000000
,
00000000
00000000
00010000
00000000
01000000
00000000
00010000
00000000
00000000
00000000
00001000
00000000
00000000
00011000
00000000
00000000
,
00000100
00000000
00001000
00000000
00000010
00000000
00000000
00020020
00000000
00000000
00000000
00030030
00000000
00010000
00000000
00000000
,
00011000
00000000
00000000
00000000
00001000
00000000
00100000
00000000
00000000
00010000
00000000
01000000
00000000
00010000
00000000
00000000
,
10000000
00000000
00000000
01000000
00000000
00010000
00000000
00000000
00001000
00000000
00000000
00000010
00000000
00000010
00000000
00000010
,
00000000
00000000
00000000
00000110
00000000
00000000
00001000
00000000
00000000
00000000
00000001
00000000
00000000
00000200
00000000
00000000
,
00001000
00000000
00000000
00000010
00000000
00000000
00000001
00000000
00000000
00000310
00000000
00000000
00000000
00000110
00000000
00000000
,
00000100
00000000
00000000
00001000
00000000
00000000
00010000
00000000
00010000
00000000
00000000
00000000
01000000
00000000
00000000
01100000
,
00000000
10010000
00000000
02200000
00000000
00000000
00000000
00000000
,
00000000
00000000
03300000
10010000
00000000
00000000
00010000
00000000
01000000
00000000
00001000
00000000
00010000
00000000
00000100
00000000
,
00000000
00001000
00000010
00010000
00001000
00100000
00000000
01000000
,
10000000
00010000
10000000
00100000
00000000
01000000
00001000
00010000
,
00010000
00000000
00000000
00010100
00000000
00000000
00010100
00000000
00000000
00000000
00000000
01001000
00000000
00000000
01001000
00000000
,
00000000
00000000
10010000
00000000
10000000
01000000
00100000
00001000
,
00010000
00000000
00000100
00000000
00000000
00000010
00000000
00000000
00000110
00000000
00000000
00002002
00000000
00000000
00000000
00000000
,
00003003
00000000
00000000
00000001
00000000
00000000
00000100
00000000
00000010
00000000
00000100
00000000
00001000
00000000
00010000
00000000
,
00001000
00100000
00000000
01000000
10000000
01000000
00000000
00100000
,
00001000
00000000
00000000
00010000
00000000
00000000
00000010
00000000
00001000
00000000
00000010
00000000
00000100
00000000
00000001
00000000
,
00001000
00000000
00000001
00000000
00000000
00000000
00000010
00000000
00000100
00000000
00000000
00010000
00000000
00000000
00001000
00000000
,
01000000
00000000
00000000
00001000
00000000
00000000
00010000
00000000
00100000
00000000
00000000
01000000
00000000
00000000
00010000
00000000
,
10000000
00000000
00000000
01000000
00000000
00000000
00010000
00000000
00001000
00000000
00000000
00100000
00000000
00000000
00001000
00000000
,
00010000
00000000
00000000
00000010
00000000
00000000
00000100
00000000
00000100
00000000
00000100
00000000
00000100
00000000
00000001
00000000
,
00000010
00000000
00000000
00000110
00000000
00000000
00001001
00000000
00000000
00000000
00000000
00001100
00000000
00000000
00010000
00000000
,
00001000
00000000
00100000
00000000
00000000
00000000
01100000
00000000
00000000
00000000
00000000
10000000
00000000
00000000
11000000
00000000
,
00000000
00000000
00000000
00010000
00000000
00000000
01010000
00000000
00000000
00000000
00001000
00000000
00010000
00000000
00001000
00000000
,
00000000
00000000
00000000
00000110
00000000
00000000
00000100
00000000
00001000
00000000
00000001
00000000
00000000
00000000
00000100
00000000
,
00000010
00000000
00020000
00000000
00000000
00000000
00001000
00000000
00000000
00000000
00000000
00030100
00000000
00000000
00010000
00000000
,
00001000
00000000
00000000
01000000
00000000
00000000
00010000
00000000
10000000
00000000
00010000
00000000
00000000
00000000
00100000
00000000
,
01000000
00000000
00000000
00100000
00000000
00000000
00001000
00000000
00010000
00000000
00000000
00001000
00000000
00000000
00000100
00000000
,
00000010
00000000
00000000
00000100
00000000
00000000
00000001
00000000
00000001
00000000
00001000
00000000
00001000
00000000
00000100
00000000
,
00000100
00022000
00000000
00033000
,
01000000
00010000
01000000
00000000
00100000
10000000
00010000
10000000
,
01000000
00010000
00001000
00000000
00011000
00000000
00010000
00000100
,
00001000
00000010
00001000
00000000
00000100
00000010
00000001
00000100
,
00000001
00000000
00000000
00001000
00000000
00000000
00000010
00000000
00000000
00010000
00000000
00000000
00001000
00000000
00100000
00000000
,
00010000
00000000
00000000
01000000
00000000
00000000
00000000
00000000
01001000
00000000
00000000
01001000
00000000
00000000
00000000
00000000
,
00011000
00000000
00000000
00011000
00000000
00000000
00000000
00000000
00010100
00000000
00000000
00010100
00000000
00000000
00000000
00000000
;

//--------------- dance-double - forcednature ----------------
#NOTEDATA:;
#STEPSTYPE:dance-double;
#DESCRIPTION:forcednature;
#DIFFICULTY:Medium;
#METER:13;
#RADARVALUES:0,0,0,0,0;
#CREDIT:forcednature;
#NOTES:
00000000
00000000
00000000
00000000
,
00000000
00000000
00000000
00000000
,
00000000
00000000
00000000
00000000
00000000
00000000
00000000
00000000
00000000
00000000
00000000
00000000
00000000
00000000
00000000
00011000
,
00000000
00010000
00100000
01000000
00100000
10000000
00010000
10000000
,
02000000
00000000
00000000
00000000
03100000
00000000
00001000
00000000
00010000
00000000
00000010
00000000
00000100
00000000
00000000
00000102
,
00000000
00000000
00000013
00000000
00000001
00000000
00000100
00000000
00001000
00000000
00010000
00000000
00100000
00000000
00000000
01000000
,
00000000
00000000
00010000
10000000
00010000
00000000
00100000
02000000
00000000
00000000
13000000
00010000
00000000
01000000
00000000
00001000
,
00000000
00010000
00000200
00000000
00000000
00000020
00000000
00000000
00000000
00000000
00000000
00000000
00000000
00000330
00000000
00000100
,
00001000
00000100
00000000
00010000
00001000
00010000
00000000
00100000
01000000
00100000
20000000
00000000
00000000
00010000
00000000
31000000
,
10000000
00010000
02000000
00000000
00000000
03001000
00000000
00010000
00000000
00000100
00000000
00001000
00000000
00000010
00000000
00010000
,
00000000
00001000
00000010
00000000
00000000
00000110
00000000
00000100
00000000
00001000
00000001
00000000
00000000
00000100
00000010
00000100
,
00000010
00001000
00000100
00000000
00000000
00010000
00000000
00001000
00000000
00010000
00000000
00100000
00000000
01000000
00010000
00000000
,
10100000
00000000
10100000
00000000
10000000
01000000
00000000
00010000
00000000
00001000
00100000
00000000
00000000
00110000
00000000
00010000
,
00000000
01000000
00001000
00000000
00010000
00000100
00010000
00000000
00001000
00000000
00001000
00000000
00000100
00000001
00000000
00000010
,
00000100
00000000
00001001
00000000
00000001
00000010
00000000
00000100
00001000
00000000
00010000
00100000
00000000
01000000
10000000
00000000
,
00100000
00000000
10010000
00000000
10000000
01000000
00000000
00010000
01000000
00000000
01100000
00000000
00000000
01100000
00000000
00000000
,
00000000
00000000
00011000
00000000
00000000
00011000
00000000
00000000
00000000
00000000
00000110
00000000
00000000
00000110
00000000
00000000
,
00000000
00000000
00000002
00000000
00000000
00000100
00000000
00000000
00001000
00000000
00000010
00000000
00000013
00000000
00000001
00000000
,
00000000
00000000
00000110
00000000
00000000
00000000
00011000
00000000
00000000
01100000
00000000
00000000
00010000
00000000
01000000
00000000
,
00010000
10000000
01000000
00100000
00010000
01000000
00001000
00010000
,
00000100
00001000
00000010
00010000
00001000
00000010
00000001
00000100
,
00001000
00000000
00000100
00000000
00000001
00000000
00000010
00000000
00001000
00000000
00010000
00000000
00100000
01000000
00000000
00000000
,
10010000
00010000
01000000
00001000
00010000
01000000
00100000
00001000
,
00010000
00000010
00001000
00000100
00000001
00000100
00001000
00000010
,
00010000
00000000
00001000
00100000
00001000
00000000
00010000
00000000
00100000
00000000
01000000
00000000
00100000
00000000
10000000
00010000
,
10000000
00010000
00000000
00000000
00100000
00000000
01000000
00000000
00010000
00000000
00001000
00000000
00000010
00000000
00000100
00000000
,
00001000
00000000
00000001
00000100
00000010
00001000
00000001
00000000
00000010
00000000
00000100
00000000
00000010
00000000
00001000
00000000
,
00010000
00000000
00100000
00000000
01000000
00000000
00100000
00000000
10000000
00010000
00000000
00000000
01100000
00000000
10000000
00000000
,
00010000
00000000
01000000
00001000
00000000
00011000
00000000
00010000
00000100
00000000
00000010
00000000
00001000
00000000
00000010
00000000
,
00000001
00000000
00001000
00000100
00001000
00000000
00000010
00000000
00001000
00000000
00010000
00000000
01000000
00000000
00100000
00000000
,
10000000
00000000
00010000
10000000
01000000
00000000
00100000
00000000
00001000
00000000
00010000
00000000
00000010
00000100
00000000
00000000
,
00001001
00000000
00001001
00000000
00001001
00000000
00000000
00000110
00000000
00000000
00000001
00001000
00000010
00010000
00000000
00000000
,
00011000
00000000
00000000
00001000
00000000
00100000
01000000
00000000
00000000
00210000
00000000
10000000
00000000
10300000
00000000
00000000
,
02100000
00000000
00000000
03010000
00000000
00011000
00000000
00000000
00000110
00000000
00000000
00000001
00000000
00001000
00000000
00001001
,
00000000
00000000
00000010
00000100
00000000
00000000
00011000
00000000
00001000
01000000
00010000
00000000
00000000
00200000
00000000
00000000
,
10000000
00000000
00000000
01000000
00000000
00000000
00310000
10000000
00010000
10000000
00000000
00000000
00100000
01000000
00000000
00001000
,
00000000
00010000
00000100
00001000
00000000
00000000
00000001
00000100
00000010
00001000
00000000
00000000
00010100
00000000
00000000
01001000
,
00000000
00000000
10000000
00010000
00000000
00000000
02200000
00000000
00000000
00000000
00000000
00000000
00000000
00000000
00000000
00000000
,
00000000
00000000
03300000
10010000
00000000
00000000
10000000
00000000
01000000
00100000
01000000
00000000
00010000
00000000
00001000
00000000
,
00000100
00000010
00000100
00000000
00000001
00000000
00001000
00000000
00000010
00010000
00001000
00100000
00000000
00000000
01100000
00000000
,
01000000
10000000
01000000
00000000
00010000
00000000
00001000
00000000
00000010
00000000
00000010
00000000
00000010
00000000
00000100
00001000
,
00000001
00000100
00000000
00001010
00000000
00000000
00010010
00000000
00001000
00000000
00000000
00110000
00000000
00000000
00101000
00000000
,
00020000
00030000
00011000
00000000
00001000
00010000
00100000
00010000
,
00001000
01000000
00010000
00000000
10000000
01000000
00000000
01000000
00010000
00000000
00010000
00002000
00000000
00000000
00003000
00000000
,
00000010
00000100
00000010
00000100
00000000
00000000
00001000
00000000
00000001
00000000
00000100
00000010
00000100
00000000
00001000
00000000
,
00010000
00000000
00100000
01000000
00100000
00000000
10000000
00000000
00010000
00000000
00100000
01000000
00100000
00000000
00001000
00000000
,
00010000
00000000
00000010
00001000
00000000
00000000
00000100
00000000
00000010
00000000
00000001
00001000
00000001
00000000
00000100
00000000
,
00001000
00000000
00010000
00100000
00010000
00000000
00001000
00000000
00100000
00000000
01000000
10000000
00000000
00000000
00100000
00000000
,
01000000
00000000
00001000
00010000
00000000
00000000
00000100
00000000
00001000
00000000
00000010
00010000
00001000
00000000
01000000
00000000
,
00010000
00000000
00100000
00001000
00010000
00000000
00000100
00000000
00001000
00000000
00000010
00000100
00000001
00000000
00000010
00000000
,
00000100
00000000
00010000
00002000
00000000
00000000
01000000
00000000
00010000
00000000
00103000
00000000
00001000
00000000
00010000
00000000
,
00100000
00000000
01000000
00010000
00000000
00000000
10100000
00000000
10000000
00000000
01000000
00010000
00000000
00010000
00001000
00000000
,
00000100
00000010
00000100
00000010
00000000
00000000
00001001
00000000
00001000
00000000
00000100
00010000
00000000
00001000
01000000
00000000
,
00100000
00000000
01000000
00001000
00000000
00010000
00000100
00000000
00000010
00000000
00000001
00000100
00000010
00000000
00001000
00000000
,
00000100
00000000
00010000
00001000
00000000
00000000
00100000
00000000
01000000
00000000
10000000
00010000
01000000
00000000
00100000
00000000
,
00010000
00000000
00001000
00200000
00000000
00000000
01000000
00000000
10000000
00000000
01300000
00100000
00000000
00000000
00101000
00000000
,
00001000
00000000
00010000
00000010
00000000
00000000
00000100
00000000
00001000
00000000
00000100
00000001
00001000
00000000
00000100
00000000
,
00010000
00000000
00001000
00100000
00010000
00000000
01000000
00000000
00100000
00000000
10000000
01000000
00100000
00000000
00010000
00000000
,
01000000
00000000
00001000
00010000
00000000
00000000
00000100
00000000
00010100
00000000
00000100
00000000
00000101
00000000
00000100
00000000
,
00000010
00000001
00001000
00000001
00000200
00000000
00000000
00000000
00000000
00000000
00000000
00000000
00000300
00000000
00000000
00000000
,
10010000
00000000
00000000
10000000
00000000
00000000
01000000
00010000
00000000
00001000
00010000
00000000
00000100
00000000
00001000
00000001
,
00001000
00000000
00000000
00000010
00000000
00000100
00000001
00000000
00001001
00000000
00000000
00000110
00000000
00000000
00001000
00000001
,
00001000
00000000
00000010
00010000
00000000
00000000
00001000
00100000
00001000
00000000
00000000
00010000
00100000
00000000
01000000
00000000
,
10010000
00000000
00000000
10000000
00000000
01000000
00010000
00000000
00001000
00010000
00001000
00000000
00010100
00000000
00001100
00000000
,
00000110
00000000
00000000
00000010
00000000
00000001
00001000
00000000
00001001
00000000
00000000
00001001
00000000
00000000
00000000
00000000
,
00011000
00000000
00000000
00011000
00000000
00000000
00000000
00000000
10010000
00000000
00000000
10010000
00000000
00000000
00000000
00000000
;

//--------------- dance-double - forcednature ----------------
#NOTEDATA:;
#STEPSTYPE:dance-double;
#DESCRIPTION:forcednature;
#DIFFICULTY:Hard;
#METER:17;
#RADARVALUES:0,0,0,0,0;
#CREDIT:forcednature;
#NOTES:
00000000
00000000
00000000
00000000
,
00000000
00000000
00000000
00000000
,
00000000
00000000
00000000
00000000
00000000
00000000
00000000
00000000
00000000
00000000
00000000
00000000
00000000
00000000
00000000
00011000
,
00000000
00001000
01000000
00000000
00100000
00000000
00010000
00000000
00001000
00000000
00100000
00000000
01000000
00000000
10000000
00010000
,
02000000
00000000
00000000
00000000
00100000
00000000
03010000
00000000
01000000
00000000
00001000
00000000
00010000
00000100
00001000
00000200
,
00000000
00000000
00000010
00000000
00001300
00000100
00010000
00002000
00000000
00000000
00010000
00000000
01003000
00001000
00100000
00020000
,
00000000
00000000
01030000
00100000
10000000
00010000
00000000
00110000
00000000
00100000
01000000
00010000
00000000
00001000
00000010
00000100
,
00000010
00000001
00001000
00000000
00000000
00020010
00000000
00000000
00000000
01000000
00000000
00001000
00000000
00030100
00000000
00010000
,
00001000
01000000
00010000
10000000
00100000
10000000
01000000
00010000
00001000
00100000
00020000
00000000
00000000
01030000
00001000
00010000
,
00000100
00001000
00000020
00000000
00000000
00000001
00000000
00000100
00000000
00001000
00000000
00000100
00000000
00000031
00000000
00000010
,
00000100
00001000
00010000
00000000
00000000
00011000
00000000
00001000
00100000
00000000
01100000
00000000
01000000
10000000
00010000
10000000
,
00100000
01000000
00002000
00000000
00000000
01000000
00000000
00010000
00000000
00103000
00000000
00001000
00010000
00000000
00010000
00000000
,
00000010
00001000
00000010
00000000
00000100
00000001
00001000
00000001
00000010
00000000
00000110
00000000
00000000
00011000
00000000
00001000
,
01000000
00010000
00100000
00000000
00100000
01000000
00000000
10000000
00010000
01000000
00001000
00000000
00100000
00001000
00010000
00000100
,
00000010
00000000
00000110
00000000
00000100
00000001
00000000
00000100
00010000
00000000
00001000
01000000
00000000
10000000
01000000
00000000
,
01100000
00000000
10010000
00000000
10000000
00100000
00000000
00010000
00001000
00000000
00011000
00000000
00000000
00000110
00000000
00000000
,
00000100
00000000
00011000
00000000
00000000
01100000
00000000
00000000
01000000
00000000
00011000
00000000
00000000
00011000
00000000
00000000
,
00010000
00001000
00000020
00000000
00000000
00000100
00000000
00000000
00000031
00000000
00000010
00000100
00000010
00000100
00010000
00000000
,
00000000
00001000
01000000
00100000
00000000
10000000
01000000
00010000
00000000
00011000
00000000
00001000
00000100
00000000
00000010
00001000
,
00000010
00000000
00000100
00000000
00000001
00000010
00000000
00000100
00001000
00000000
00000010
00000000
00001000
00000000
02000000
00000000
,
03100000
01000000
00010000
00000000
00100000
00000000
01000000
10000000
00010000
10000000
00100000
00000000
00010000
00000000
00001000
00100000
,
00010000
00100000
00000000
01000000
00010000
00000000
00001000
00010000
00000100
00001000
00000100
00010000
00001000
00000010
00000000
00000000
,
00001001
00000000
00001000
00000000
00000100
00010000
00001000
00000000
01000000
00000000
00100000
00010000
00100000
01000000
00010000
00000000
,
10000000
01000000
00000000
00010000
00001000
00000000
00100000
00000000
00010000
01000000
00001000
00000000
00010000
00000000
00000100
00001000
,
00000010
00001000
00000000
00000001
00000010
00000000
00000100
00010000
00002000
00000000
00000100
00000000
00010000
00000000
00103000
00001000
,
00010000
00100000
00000000
00000000
01000000
00000000
01000000
10000000
01000000
00100000
01000000
00010000
01000000
00000000
00001000
00010000
,
00001000
00000000
00000010
00000100
00000000
00000100
00001000
00000010
00000100
00000000
00001000
00000100
00000001
00000000
00000001
00000010
,
00000100
00000000
00000100
00010000
00001000
00000000
00001000
01000000
00010000
00100000
02000000
00000000
00010000
00000000
00100000
00000000
,
13000000
00000000
01000000
00010000
00000000
00012000
00000000
00000000
00003010
00000000
00001000
00010000
00000100
00001000
00000010
00000000
,
00000100
00001000
00000100
00000001
00000100
00000000
00000020
00001000
00000000
00010030
00000010
00000000
00010000
00000000
00002000
00100000
,
00000000
01003000
00001000
00000000
00100000
00000000
01000000
10000000
01000000
00010000
00001000
00010000
00000000
00010100
00000000
00000100
,
00001000
00000000
00001010
00000000
00000101
00000000
00000000
00000011
00000000
00000000
00000010
00000100
00010000
00001000
00000000
00000000
,
01001000
00000000
01000000
00010000
00100000
01000000
10000000
00000000
00000000
10100000
00000000
00100000
00010000
00100000
00000000
01000000
,
00010000
01000000
00001000
00010000
00000000
00010100
00000000
00000000
00001010
00000000
00000000
00010000
00000000
00010000
00001000
00010000
,
00100000
01000000
00000000
01100000
00000000
00100000
10000000
01000000
00010000
00001000
00100000
00010000
00001000
00000200
00000000
00000001
,
00000001
00000000
00001300
00000100
00000000
00010000
00001000
00010000
00100000
01000000
10000000
01000000
00010000
00100000
00000000
01000000
,
00010000
00001000
00010000
00000010
00000000
00000000
00000200
00002300
00023000
02030000
03000000
00100000
00010000
01000000
00001000
00010000
,
00000010
00001000
00000100
00010000
00001000
00000000
00022000
00000000
00000000
00000000
00000000
00000000
00000000
00000000
00000000
00000000
,
00000000
00000000
00033000
00010000
00100000
01000000
00100000
00000000
10000000
00010000
10000000
01000000
00100000
00001000
00010000
00100000
,
00010000
00001000
00010000
00000100
00001000
00000010
00000100
00000001
00000010
00000100
00000000
00010010
00000000
00000000
00101000
00000000
,
00010000
10000000
00100000
10000000
00000000
00010000
00100000
00000000
01000000
00010000
00001000
00010000
00000010
00001000
00000100
00000010
,
00000001
00000100
00000000
00001010
00000000
00001000
00000100
00000000
00100000
00000000
00001000
01000000
00000000
00000010
00010000
00000000
,
00000100
00000000
00001000
00000000
00100000
00000000
01000000
00010000
10000000
00010000
00100000
00010000
00001000
00000100
00001000
00000010
,
00000100
00000001
00000010
00000000
00000100
00010000
00000000
00001000
00000100
00000000
00010000
02000000
00000000
00000000
03100000
00000000
,
01100000
00000000
00010000
10000000
00000000
01000000
00010000
00000000
00001000
00010000
00000100
00001000
00000000
00000010
00010000
00000000
,
00001000
00000010
00000100
00000020
00000000
00000000
00000001
00000000
00000130
00001000
00000100
00010000
00000000
00001000
01000000
00000000
,
00010000
00100000
01000000
01100000
00000000
00000000
01000000
10000000
00010000
10000000
00100000
00010000
00001000
00000000
00100000
00010000
,
01000000
00000000
00001000
00020000
00000000
00000000
00000000
00000000
00001000
00000000
00030010
00010010
00000000
00000000
00101000
00000000
,
00001000
00010000
00100000
01000000
00000000
00010000
10000000
00000000
01000000
00010000
00001000
00010000
00000000
00000100
00001000
00000000
,
00000010
00010000
00001000
00000010
00000000
00000001
00010000
00000000
00000001
00000100
00000001
00000010
00000000
00000100
00010000
00000000
,
00001000
00100000
01000000
00200000
00010000
00000000
10300000
00100000
01000000
00100000
00001000
00010000
00000010
00000000
00000110
00000000
,
00001001
00000000
00002000
00000010
00000000
00003000
00010100
00000000
00010000
00001000
00010000
00100000
00000000
01000000
10000000
01000000
,
00010000
10000000
00010000
00100000
01000000
00010000
00001000
00000000
00000100
00000010
00001000
00001001
00000000
00010000
00010100
00000000
,
00100000
00001000
00010000
00011000
00000000
01000000
01010000
00000000
00010000
00100000
10000000
00200000
00000000
01300000
10000000
00000000
,
00010000
01000000
00001000
00011000
00000000
00000000
00000100
00001000
00000100
00010000
00001000
00000100
00000000
00000010
00001000
00000001
,
00000010
00000000
00000100
00020000
00000000
00000000
00000010
00000000
00001000
00000000
01030000
01010000
00000000
00000000
00011000
00000000
,
00001000
00010000
00100000
01100000
00000000
01000000
00010000
10000000
01000000
00010000
00001000
00010000
00000000
00000100
00001000
00000010
,
00010000
00001000
00000010
00000110
00000000
00000100
00001000
00000001
00000100
00001000
00010000
00011000
00000000
00001000
00100000
00010000
,
00100000
01000000
10000000
10100000
00000000
00100000
00010000
00001000
00010000
00000100
00010000
00001000
00010000
01000000
00010000
00001000
,
00010000
00000010
00001000
00000010
00000100
00000001
00000020
00000000
00000000
00000000
00000000
00000000
00000000
00000000
00000000
00000000
00000000
00000000
00000030
00000000
00000000
00000000
00000000
00000000
,
01100000
00000000
10000000
00010000
00000000
00100000
00001000
00010000
00001000
00000010
00000100
00000010
00000001
00000000
00000100
00001000
,
00000100
00000000
00000010
00010000
00000000
00010000
00001000
00000000
00101000
00000000
00100000
01000000
00000000
10000000
00100000
01000000
,
10000000
01000000
00010000
00100000
00001000
00010000
00000010
00010000
00001000
00000010
00000100
00000010
00000001
00001000
00000010
00000000
,
00000110
00000000
00000000
00001001
00000000
00000001
00000010
00001000
00010000
00000010
00001000
00000100
00010000
00000000
01001000
00000000
,
00110000
00000000
00000000
00010100
00000000
00000010
00001000
00000000
00000110
00000000
00000000
00011000
00000000
00000000
00100000
00000000
,
01100000
00000000
00000000
00000000
00000000
00000000
00011000
00000000
00000000
00000000
00000000
00000000
00000010
00000100
00000000
00000000
00000110
00000000
00000000
00000000
00000000
00000000
00011000
00000000
00000000
00000000
00000000
00000000
00000000
00000000
00000000
00000000
;
