#VERSION:0.83;
#TITLE:ミライトコネクト;
#SUBTITLE:;
#ARTIST:Sound piercer & ginkiha (feat.柚子花 & NeLiME);
#TITLETRANSLIT:Milight Connect;
#SUBTITLETRANSLIT:;
#ARTISTTRANSLIT:Sound piercer & ginkiha (feat.Yuzuhana & NeLiME);
#GENRE:SPACE IDOL DAYBREAK HARDCORE;
#CREDIT:;
#MUSIC:Milight Connect.ogg;
#BANNER:Milight Connect.png;
#BACKGROUND:Milight Connect-bg.png;
#CDTITLE:;
#SAMPLESTART:76.143;
#SAMPLELENGTH:15.000;
#SELECTABLE:YES;
#OFFSET:0.156;
#BPMS:0.000=178.000;
#STOPS:;
#TIMESIGNATURES:0.000=4=4;
#BGCHANGES:-0.200=Milight Connect.mp4=1.000=0=0=0=StretchNoLoop====,
99999.000=-nosongbg-=1.000=0=0=0=StretchNoLoop====
;
#FGCHANGES:;

//--------------- dance-single - Telperion ----------------
#NOTEDATA:;
#STEPSTYPE:dance-single;
#DESCRIPTION:Telperion;
#CREDIT:Telperion;
#DIFFICULTY:Beginner;
#METER:6;
#RADARVALUES:0,0,0,0,0;
#NOTES:
0000
0000
0000
0000
,
0000
0000
0000
0000
,
0000
0000
0000
0000
,
0000
0000
0000
0000
,
0000
0000
0000
0000
,
0000
0000
0000
0000
,
0000
0000
0000
0000
,
0000
0000
0000
0000
,
0000
0000
0000
0000
,
1001
0000
0000
0000
,
0100
0000
0000
0000
,
1001
0000
0000
0000
,
0010
0000
0000
0000
,
0110
0000
0000
0000
0001
0000
0000
1000
,
0000
0000
0000
0000
1000
0000
0000
0001
,
0000
0000
0000
0000
,
0100
0010
0100
0010
,
0000
1001
0000
1000
,
0000
0001
0000
0001
,
0000
0010
0000
0010
,
0000
0100
0000
0100
,
0000
0001
0000
0001
,
0000
1000
0000
1000
,
0000
0010
0000
0010
,
0100
0000
0000
0100
0000
0100
0000
0000
,
0001
0100
0001
0000
,
1000
0100
1000
0000
,
0001
0010
0001
0000
,
1000
0000
0000
1000
0000
0000
0000
0000
,
0010
0000
0000
0010
0000
0000
0100
0000
,
0000
0100
0000
0000
0010
0000
0000
0010
,
0000
0000
1000
0000
0000
0001
0000
0000
,
1000
0000
0000
0000
,
0001
0100
0010
0000
,
0100
0001
0100
0000
,
0010
0100
0001
0000
,
1000
0000
0001
0000
,
1000
0100
0010
0000
,
0100
1000
0100
0000
,
0010
0100
1000
0000
,
0001
0000
0100
0000
,
0010
1000
0001
0000
,
0100
0001
0100
0000
,
0010
0100
0010
0000
,
1000
0000
0001
0000
,
0010
0001
1000
0000
,
0100
1000
0001
0000
,
0010
0000
0100
0000
,
1000
0001
1000
0001
,
0100
0000
0000
0000
,
0100
0000
0000
0000
,
0010
0000
0000
0000
,
0010
0000
0000
0000
,
0110
0000
0000
0000
0001
0000
0000
0001
,
0000
0000
0000
0000
1000
0000
0000
1000
,
0000
0000
0001
0000
,
0100
0010
0100
0000
,
0001
1000
0001
0100
,
0001
1000
0010
0000
,
1000
0001
1000
0100
,
1000
0001
0010
0000
,
0001
0100
0010
0100
,
0001
0100
0010
0000
,
1000
0001
0010
0001
,
1000
0100
0010
0000
,
0001
0001
0100
0000
,
1000
1000
0010
0000
,
0001
0001
0010
0000
,
1000
1000
0100
0000
,
0001
1000
0001
0100
,
0001
1000
0100
1000
,
0001
0010
0001
1000
,
0010
1000
0001
0000
,
0010
0000
0100
0000
,
0010
0000
0001
1000
,
0010
0000
0100
0000
,
0010
0000
1000
0001
,
0010
0000
0100
0000
,
1000
0000
0001
0000
,
0100
0000
0010
0000
0100
0000
0000
0001
,
0000
0001
0000
0000
1000
0000
1000
0000
,
0000
0001
0010
0100
,
1000
0100
0010
0001
,
1000
0010
0100
0001
,
0100
0010
1000
0001
,
0010
0000
0000
0010
0000
0000
0010
0000
,
0100
0000
0000
0100
0000
0000
0100
0000
,
1000
0000
0000
1000
0000
0000
1000
0000
,
0001
0100
0001
1000
,
0000
1001
0000
0001
,
0000
1000
0000
1000
,
0000
0010
0000
0010
,
0000
0100
0000
0100
,
0000
1000
0000
1000
,
0000
0001
0000
0001
,
0000
0010
0000
0010
,
0100
0000
0000
0100
0000
0100
0000
0000
,
1000
0100
1000
0000
,
0001
0100
0001
0000
,
1000
0010
1000
0000
,
0001
0000
0000
0001
0000
0000
0000
0000
,
0010
0000
0000
0010
0000
0000
0100
0000
,
0000
0100
0000
0000
0010
0000
0000
0010
,
0000
0000
0001
0000
0000
1000
0000
0000
,
0001
0000
0000
1000
0000
0000
0001
0000
,
0100
0000
0000
0100
0000
0000
0010
0000
,
0000
0010
0000
0000
1000
0001
1000
0001
;

//--------------- dance-single - forcednature ----------------
#NOTEDATA:;
#STEPSTYPE:dance-single;
#DESCRIPTION:forcednature;
#CREDIT:forcednature;
#DIFFICULTY:Easy;
#METER:8;
#RADARVALUES:0,0,0,0,0;
#NOTES:
0000
0000
0000
0000
,
0000
0000
0000
0000
,
0000
0000
0000
0000
,
0000
0000
0000
0000
,
0000
0000
0000
0000
,
2002
0000
0000
3003
,
0001
0000
1000
0000
,
0220
0000
0000
0000
0330
0000
0000
0100
,
0000
0100
0000
0100
0000
0000
0000
0000
,
1001
0000
0000
0000
,
1000
0000
0001
0000
,
1001
0000
0000
0000
,
0100
0000
0010
0000
,
1001
0000
0000
0000
0100
0000
0000
0110
,
0000
0000
0000
0000
0010
0000
0000
2002
,
0000
0000
0000
3003
,
0100
0100
0010
0010
,
0000
1001
0010
1000
,
0001
1000
0100
0010
,
0010
0001
0100
0001
,
1000
0001
0100
0010
,
0010
1000
0001
0010
,
0100
1000
0001
0100
,
0010
1000
0001
1000
,
0100
0000
0000
0010
0000
0010
0000
0000
,
0001
1000
0001
0100
,
0010
1000
0001
0000
,
1000
0001
1000
0100
,
0010
0000
0000
0001
0000
0001
0000
0000
,
1001
0000
0000
0100
0000
0000
1001
0000
,
0000
0010
0000
0000
0100
0000
0000
0110
,
0000
0000
1001
0000
0000
0110
0000
0000
,
2002
0000
0000
3003
,
1001
0000
0001
0000
,
0100
0010
0100
0000
,
0001
1000
0100
0010
,
0001
0000
0100
0000
,
0010
0000
1000
0000
,
0100
0000
1000
0000
,
0010
0100
0001
1000
,
0100
0100
0100
0000
,
0110
0000
0010
0001
,
0100
0000
0001
1000
,
0010
0000
1000
0100
,
0010
0001
0010
0000
,
0110
0000
1000
1000
,
0110
0000
0001
0001
,
0110
0000
1000
0001
,
0100
0100
0010
1000
,
1002
0000
0000
0000
,
0100
0000
0003
0000
,
2001
0000
0000
0000
,
0100
0000
3000
0000
,
1001
0000
0000
0000
0010
0000
0000
0110
,
0000
0000
0000
0000
0100
0000
0000
1001
,
0000
0010
1000
0001
,
0110
0110
1000
0001
,
1001
0000
1000
0100
,
1000
0010
0100
0001
,
0010
0000
0100
0010
,
0001
1000
0001
0100
,
0110
0000
0010
1000
,
0001
1000
0100
0010
,
0100
0000
1000
0001
,
0100
0100
0010
1000
,
0001
1000
1001
0000
,
1000
0100
0010
0001
,
0101
0000
0000
0000
1010
0000
0000
1001
,
0000
0100
0110
0010
,
1001
0000
1000
0100
,
1000
0001
0100
0001
,
0010
0010
0100
0100
,
1000
0001
0100
0100
,
0110
0000
0010
1000
,
0001
0000
0010
0001
,
0100
0001
1000
0010
,
1000
0100
0010
0000
,
0110
0000
0100
1000
,
0001
0100
1000
0000
,
0110
0000
0000
0000
0001
0000
0000
1000
,
0000
1000
0000
0000
0010
0000
0010
0000
,
0000
0110
0000
0002
,
0000
1003
0100
0020
,
0000
0130
1000
0020
,
0000
0130
0001
1000
,
1001
1000
0100
0010
,
1001
0001
0100
0010
,
1000
1000
0001
0001
,
0010
0000
0010
0000
0100
0010
0100
0000
,
0000
1001
0100
1000
,
0001
1000
0010
0100
,
0100
0001
1000
0001
,
0010
0001
0010
0100
,
0100
1000
0010
0100
,
0001
0010
0001
0100
,
0110
0000
0010
1000
,
0001
0000
0000
1000
0000
0001
0000
0000
,
1001
1000
0100
0010
,
0001
0100
0010
0010
,
0110
0100
0001
1000
,
0100
0000
0000
0010
0000
0010
0000
0000
,
1001
0000
0000
0100
0000
0000
1001
0000
,
0000
0010
0000
0000
1001
0000
0000
0110
,
0000
0000
1001
0000
0000
0110
0000
0000
,
1001
0000
0000
0110
0000
0000
1001
0000
,
1100
0000
0000
0011
0000
0000
0101
0000
,
0000
1010
0000
0000
0001
1000
0001
2000
,
0000
0000
0000
0000
,
0000
0000
0000
0000
,
3000
0000
0000
0000
;

//--------------- dance-single - forcednature ----------------
#NOTEDATA:;
#STEPSTYPE:dance-single;
#DESCRIPTION:forcednature;
#CREDIT:forcednature;
#DIFFICULTY:Medium;
#METER:11;
#RADARVALUES:0,0,0,0,0;
#NOTES:
0000
0000
0000
0000
,
0000
0000
0000
0000
,
0000
0000
0000
0000
,
0000
0000
0000
0000
,
0000
0000
0000
0000
,
2002
0000
3003
1000
,
0100
0000
0010
0001
0000
0100
0000
0000
,
0220
0000
0000
0000
0330
0000
0000
1001
,
0000
0110
0000
1001
0000
0100
0000
0000
,
2001
0100
0001
0100
,
0001
0100
3001
1000
,
1002
0100
1000
0100
,
1000
0100
1003
0001
,
1001
0000
0100
0000
0010
0000
0000
1001
,
0000
0000
0010
0000
0100
0010
0000
2002
,
0000
0000
0000
3003
,
1100
0000
0101
0000
1000
0100
0010
0001
,
0000
1001
0001
1100
,
0010
0000
0000
0000
1100
0000
0000
0000
0100
0000
0000
0010
0000
0000
0001
0000
,
0010
0101
1000
0101
,
0010
0000
0000
0000
0101
0000
0000
0000
0100
0000
0000
0010
0000
0000
1000
0000
,
0010
0000
0000
0100
0000
0000
0001
0000
0010
0000
0000
0100
0000
0000
1000
0000
,
0010
0000
0000
1000
0000
0000
0001
0000
0010
0000
0000
0001
0000
0000
0100
0000
,
0010
0000
0000
1000
0000
0000
0001
0000
1000
0000
0000
0100
0000
0000
0010
0000
,
0100
0100
0000
1001
0000
0010
0100
0000
,
1001
1100
1001
0011
,
1001
0000
0110
0000
0001
1000
0100
1000
,
0010
1010
0101
1001
,
1000
0001
0000
0110
0000
0001
1000
0000
,
0101
0000
0000
1100
0000
0000
0011
0000
,
0000
1010
0000
0000
0100
0010
0000
1001
,
0000
0000
1100
0000
0000
0101
0000
0000
,
2002
0000
0000
3003
,
0110
0001
1000
0010
,
1000
0000
0100
0000
0010
0000
0100
1000
,
0100
0000
0010
0000
0001
0000
1000
0001
,
0000
0100
0000
0001
1000
0000
0001
0000
,
0000
0100
0010
1000
,
0001
0000
1000
0000
0010
0000
0100
0001
,
0100
0000
0010
0000
1000
0000
0100
0010
,
0000
0002
0203
0320
,
1030
0000
1100
0000
0100
0000
0010
0001
,
0010
0000
0100
0000
1000
0001
0000
0000
,
0100
0000
0001
0000
0100
0000
0010
1000
,
0000
1000
0000
0100
0010
0000
0001
0000
,
2001
0000
0000
0000
0000
0000
0000
0000
3100
0000
0000
0010
0000
0000
0000
0000
,
1002
0000
0000
0000
0000
0000
0000
0000
0103
0000
0000
0010
0000
0000
0000
0000
,
1001
0100
0010
0010
,
0110
1001
1100
0101
,
2001
0000
0000
0000
0010
0000
0000
0100
,
0100
0000
0010
3000
,
1002
0000
0000
0000
0010
0000
0000
0100
,
0100
0000
0010
0003
,
1001
0000
0001
0000
0100
0000
0000
0110
,
0000
0000
0010
0000
1000
0000
0000
0210
,
0000
0001
0010
1300
,
0110
0000
1001
0000
0001
0100
0010
1000
,
0002
0000
0100
0000
0010
0000
1003
0001
,
1000
0000
0001
1000
0001
0000
0010
0000
,
0100
0000
1000
0010
0000
0010
1000
0000
,
0001
0000
0100
0000
0001
0010
0001
0000
,
2001
0000
0100
0000
0010
0000
3001
1000
,
0001
0000
1000
0001
1000
0000
0010
0000
,
0110
0100
0001
0010
,
0100
0000
1001
0000
0001
1000
0001
0000
,
0100
0110
1001
0000
,
1000
0001
0100
0010
,
1100
0000
0000
0000
0101
0000
0000
1001
,
0000
0100
0110
0010
,
1001
0000
0001
0000
1000
0100
1000
0000
,
1001
0000
1000
0000
0001
0100
0001
0000
,
1000
1000
0001
0001
,
0110
0000
0110
0000
0001
0010
0100
1000
,
0020
0000
0000
0000
,
0000
0000
0030
0010
,
1000
0100
1000
0010
,
0100
0002
0000
0020
0000
0000
0033
0000
,
1001
1000
0100
0010
,
1001
0001
0100
0010
,
0110
0000
0001
0000
1000
0100
0010
0001
,
0000
1001
0000
0000
0001
0100
0010
1000
,
0000
1001
0001
0200
,
1000
0010
0001
0320
,
0001
0100
1000
0230
,
0010
0010
0010
0310
,
1001
0000
1000
0000
0100
0010
0001
0000
,
1001
0000
0001
0000
0100
0010
1000
0000
,
0001
0100
0001
0000
1000
0100
1000
0000
,
0010
0000
0110
0000
1000
0002
2000
0000
,
3003
0110
0010
1001
,
0010
0000
0000
0000
1001
0000
0000
0000
1000
0000
0000
0010
0000
0000
0100
0000
,
0001
0110
1000
0110
,
0001
0000
0000
0000
0110
0000
0000
0000
0001
0000
0000
0010
0000
0000
0100
0000
,
1000
0000
0000
0100
0000
0000
0010
0000
0001
0000
0000
0100
0000
0000
0010
0000
,
1000
0000
0000
0001
0000
0000
0100
0000
0001
0000
0000
1000
0000
0000
0100
0000
,
0010
0000
0000
0001
0000
0000
0100
0000
0010
0000
0000
1000
0000
0000
0100
0000
,
0010
0010
0000
1001
0000
0100
0010
0000
,
1001
1100
1010
1001
,
0110
0000
1001
0000
0001
0100
0010
1000
,
0001
0011
0110
1100
,
0100
0010
0000
1001
0000
0010
0100
0000
,
1100
0000
0000
0011
0000
0000
0101
0000
,
0000
1010
0000
0000
0100
0100
0000
1001
,
0000
0000
1100
0000
0000
0101
0000
0000
,
0011
0000
0000
1100
0000
0000
1001
0000
,
0110
0000
0000
1100
0000
0000
0110
0000
,
0000
0101
0000
0000
1000
0001
1000
0002
,
0000
0000
0000
0000
,
0000
0000
0000
0000
,
0003
0000
0000
0000
;

//--------------- dance-single - Telperion ----------------
#NOTEDATA:;
#STEPSTYPE:dance-single;
#DESCRIPTION:Telperion;
#CREDIT:Telperion;
#DIFFICULTY:Hard;
#METER:14;
#RADARVALUES:0,0,0,0,0;
#NOTES:
0000
0000
0000
0000
,
0000
0000
0000
0000
,
0000
0000
0000
0000
,
0000
0000
0000
0000
,
0000
0000
0000
0000
,
0000
0000
0000
0000
,
0000
0000
0000
0000
,
0000
0000
0000
0000
,
0000
0000
0000
0000
,
1001
0001
0100
0001
,
1000
0100
0010
0100
,
1100
1000
0001
0100
,
0010
0000
1000
0000
0100
0010
0001
0000
,
1001
0000
0100
0000
1001
0000
1000
1010
,
0000
0000
0100
0000
0001
0010
0000
0011
,
0000
1000
0001
0100
,
0010
1000
0001
0000
0010
0100
0010
1001
,
0000
0000
0101
0000
1000
0000
0100
0010
,
0001
0000
0000
0000
1000
0000
0010
0000
0001
0000
0000
0010
0000
0000
0100
0000
,
0001
0000
1100
0000
0001
0000
1000
0100
,
0010
0000
0000
0000
1000
0000
0010
0000
0001
0000
0000
1000
0000
0000
0010
0000
,
0100
0000
1010
0000
0001
0000
0100
0010
,
1000
0000
0000
0000
0001
0000
0100
0000
1000
0000
0000
0100
0000
0000
0010
0000
,
1000
0000
0100
0010
0001
0000
1000
0001
,
0100
0110
0000
1001
0000
0011
1000
0001
,
0200
1000
0010
0301
,
1000
0000
1000
0010
0000
0100
0001
0010
,
0200
0000
0001
0000
0010
0000
1300
0001
,
0100
0010
0000
0110
0000
2002
0000
3003
,
1000
0100
0010
1000
0010
0001
1000
0010
,
0100
1000
0100
0001
1000
0100
0000
0011
,
0000
0000
1100
0000
0000
1010
0000
0000
,
0202
0000
0303
0110
,
1001
0000
1000
0000
0010
0100
0001
1000
,
0000
0010
1000
0001
0000
0010
0100
1000
,
0001
0000
0001
0000
0100
0001
1000
0100
,
0000
0010
0100
1000
0010
0000
0001
0010
,
1000
0000
0001
0000
0010
0100
1000
0001
,
0000
0010
0001
1000
0000
0010
0100
0001
,
1000
0000
1000
0000
0100
1000
0001
0100
,
0000
0010
1000
0100
0001
0100
0010
0001
,
1000
0000
0010
1000
0000
1000
0100
1000
,
0001
0000
0001
0000
0100
0001
0000
0001
,
0010
0000
0100
0000
1000
0001
0100
0010
,
0000
0001
0000
0010
1000
0000
0001
0010
,
0100
0000
0000
0000
0100
0000
0000
0000
1000
0000
0000
0001
0000
0000
0100
0000
,
0010
0000
0000
0000
0010
0000
0000
0000
1000
0000
0000
0001
0000
0000
0010
0000
,
0100
0000
1001
0000
0100
1000
0001
0100
,
0010
0110
1000
1001
,
0021
0000
0100
0000
0001
0000
0130
1000
,
0002
0100
1000
0013
,
1200
0000
0010
0000
1000
0000
0310
0001
,
2000
0000
0010
0000
3001
1000
0010
0000
,
0110
0000
0001
0000
1001
0000
1000
0021
,
0000
0000
0130
0000
1000
0000
0001
1020
,
0000
0130
0001
1000
,
1100
0000
1001
0000
0101
0100
0010
1000
,
0001
0000
0000
0001
0010
0000
0100
0000
1000
0000
0000
0010
1000
0000
0001
0000
,
0010
0000
0000
0010
0100
0000
1000
0000
0001
0000
0100
0010
0000
0100
0001
0000
,
1000
0000
0000
1000
0010
0000
0100
0000
0001
0000
0000
0010
0001
0000
1000
0000
,
0010
0000
0000
0010
0100
0000
0001
0000
1000
0000
0100
0010
0000
0100
1000
0000
,
0001
0000
0000
0100
0001
0000
0010
0000
0100
0000
0000
0100
1000
0000
0001
0000
,
0100
0000
0000
0010
1000
0000
0010
0000
0001
0000
0000
0010
0100
0000
0001
0000
,
1000
0000
0000
0100
1000
0000
0010
0000
0100
0000
0000
0100
0001
0000
0010
0000
,
1000
0000
0000
0010
0001
0000
1000
0000
0010
0000
0000
0000
0100
0000
0001
0000
,
0010
0000
1100
0000
0011
0000
1000
0001
,
0100
0010
0000
1000
0001
0010
0000
0100
,
1000
0000
0001
0000
1010
0000
1000
0011
,
0000
0000
1000
0000
0001
0010
0100
0000
,
1001
1000
0010
0100
0001
1000
0100
0010
,
0011
0001
0100
0010
1000
0100
1000
0001
,
1001
0000
0100
1000
0010
1000
0001
0010
,
0110
0000
1001
0000
0100
0010
1001
0000
,
2100
0001
3020
0100
,
2030
0000
0001
0000
3200
0000
0310
0001
,
2001
0000
0000
0000
3010
0000
0002
0000
0000
0000
0013
1000
0010
0000
0100
0000
,
0001
1000
0100
0020
0000
0000
0031
1000
,
2001
0000
0000
0100
0000
0000
3001
1000
0001
0100
0010
1000
,
0001
0000
0010
0000
0100
0000
1000
0000
0000
0001
0000
0000
0100
0000
0000
1000
0000
0000
0100
0000
0000
0010
0000
0000
,
0002
0000
0023
0000
1030
0001
0000
0011
,
0000
2100
0000
0000
3001
1000
0010
0100
,
0000
0000
0000
0000
0101
0000
0001
0000
1000
0000
0000
0100
0000
0000
1000
0000
,
0001
0000
0010
0000
1000
0000
0010
0000
0100
0000
0000
1000
0000
0000
0001
0000
,
0101
0000
0100
0000
0010
0000
1000
0000
0001
0000
0000
0100
0000
0000
0001
0000
,
1000
0100
0010
0100
0001
0000
0100
1000
,
1010
0001
0100
1000
0001
0010
1000
0001
,
0011
1000
0100
0001
1000
0010
0001
1000
,
1010
0001
0100
0010
1000
0001
0010
0100
,
2000
0000
0001
0000
3010
1000
0002
0000
,
0003
0000
1100
0000
0001
0000
0100
0010
,
1000
0000
0000
0000
0001
0000
0010
0000
1000
0000
0000
0010
0000
0000
0100
0000
,
1000
0000
0101
0000
1000
0000
0001
0100
,
0010
0000
0000
0000
0001
0000
0010
0000
1000
0000
0000
0001
0000
0000
0010
0000
,
0100
0000
0011
0000
1000
0000
0100
0010
,
0001
0000
0000
0000
1000
0000
0100
0000
0001
0000
0000
0100
0000
0000
0010
0000
,
0001
0000
0100
0010
1000
0000
0001
1000
,
0100
0110
0000
1001
0000
1010
0001
1000
,
0200
0001
0010
1300
,
0001
0000
0001
0010
0000
0100
1000
0010
,
0200
0000
1000
0000
0010
0000
0301
1000
,
0100
0010
0000
0110
0000
2002
0000
3003
,
0001
0100
0010
0001
0010
1000
0001
0010
,
0100
0001
0100
1000
0001
0100
0000
1010
,
0000
0000
0101
0000
0000
0011
0000
0000
,
1100
0000
0000
0110
0000
0000
1001
0000
,
1000
0001
0100
1000
0100
0010
1000
0001
,
0010
1000
0010
0100
1000
0001
1000
0110
;

//--------------- dance-single - Telperion + forcednature ----------------
#NOTEDATA:;
#STEPSTYPE:dance-single;
#DESCRIPTION:Telperion + forcednature;
#CREDIT:Telperion + forcednature;
#DIFFICULTY:Challenge;
#METER:15;
#RADARVALUES:0,0,0,0,0;
#NOTES:
0000
0000
0000
0000
,
0000
0000
0000
0000
,
0000
0000
0000
0000
,
0000
0000
0000
0000
,
0000
0000
0000
0000
,
2002
0000
0000
0000
,
3003
0000
0000
0000
,
0220
0000
0000
0000
0330
0000
0000
1010
,
0000
0101
0000
1100
0000
0011
0000
1000
,
0020
0000
0001
0000
0100
0000
2030
0001
,
0000
3100
0020
0001
0000
0130
0000
1000
,
0002
0000
0203
0001
0000
0310
2000
0001
,
0000
0100
0000
3001
1000
0100
0010
0000
,
0120
0000
1000
0000
0031
0000
1000
1020
,
0000
0000
0001
0000
0130
0001
0000
0021
,
0000
1000
0100
0031
,
1000
0000
0001
0100
0001
0000
0000
0000
2000
0000
3200
0000
0320
0000
0032
0000
,
0003
0000
0000
0000
0100
0000
0001
0000
0010
0000
0100
1000
0000
0100
0010
0000
,
0001
0000
1000
0010
0000
1000
0001
0000
0010
0000
1000
0020
0000
0000
0031
0000
,
0100
0000
0001
1000
0000
0100
1000
0000
0010
0000
0100
0001
0000
0100
0010
0000
,
1000
0000
0001
0010
0000
0001
1000
0000
0010
0000
0001
0020
0000
0000
0130
0000
,
0001
0000
1000
0010
0000
0100
0001
0000
0010
0000
0001
0010
0000
0100
1000
0000
,
0010
0000
0100
0001
0000
1000
0100
0000
0001
0000
0100
0020
0000
0000
0031
0000
,
1000
0000
0010
0100
0000
0010
1000
0000
0001
0000
0010
0100
0000
0000
1000
0000
,
0010
0000
0010
0000
0000
0000
0110
0000
0000
0000
0001
0000
1000
0000
0100
1000
,
0001
0000
0000
0001
0100
0000
0000
0100
0010
0000
0000
0010
1000
0000
0000
1000
,
0001
0000
0010
0010
0000
0001
0100
0010
,
1000
0000
0000
1000
0001
0000
0000
0001
0010
0000
0000
0010
0100
0000
1000
0000
,
0001
0000
0100
0000
0000
0000
0110
0000
0000
0000
1000
0000
0001
0100
0010
0000
,
1000
0100
0001
0100
0010
0001
0100
1000
,
0100
0010
1000
0001
0010
0010
0000
1001
,
0000
0000
0110
0000
1000
1100
0000
0001
,
0201
0000
0000
0310
,
1001
0000
1000
0001
0010
0001
0100
0010
,
0000
1000
0010
0100
0001
1000
0100
1000
,
0001
0000
0100
0001
0010
0100
1000
0010
,
0000
0100
0010
1000
0001
0000
0010
0010
,
0001
0100
0001
1000
0010
1000
0100
0010
,
0000
0001
0010
0100
1000
0001
0100
0001
,
1000
0000
0100
1000
0010
0100
0001
0010
,
0000
1000
0010
0001
0100
0010
0001
0010
,
1000
0000
0001
0010
0001
0100
0010
1000
,
0001
0000
0100
0010
0100
0001
0000
0001
,
1000
0100
0010
0100
1000
0001
0100
0010
,
0000
0001
0010
1000
0001
0000
1000
0100
,
0020
0000
0000
0000
0001
0000
0000
0000
0130
0000
0000
1000
0001
0000
0100
0000
,
0020
0000
0000
0000
1000
0000
0000
0000
0130
0000
0000
0001
1000
0000
0100
0000
,
0010
0000
0001
0010
0100
0001
0100
1000
,
0001
0000
0000
0001
0100
0000
0000
0100
0010
0000
0000
0010
1000
0000
0000
0000
,
0002
0000
0100
0000
1000
0000
0013
0001
,
2000
0100
0001
3010
,
0210
0000
1000
0000
0010
0000
0301
1000
,
0200
0000
0010
0000
1300
0001
0100
0000
,
0010
1000
0010
0100
0001
0100
0010
1000
,
0000
0100
0010
0001
0010
0100
1000
0010
,
0000
0100
0001
0100
1000
0100
0010
1000
,
0001
0010
1000
0010
0001
1000
0010
0100
,
0201
0000
0010
0000
1000
0000
0301
0100
,
0010
0000
1000
0000
0100
0000
0010
0000
0001
0000
0000
0010
0100
0000
1000
0001
,
1000
0000
0000
1000
0010
0000
0100
0000
1000
0000
0000
1000
0100
0000
0010
0000
,
1000
0000
0000
1000
0100
0000
0001
0000
0100
0000
1000
0001
0000
0001
0010
0000
,
0021
0000
1000
0000
0001
0000
0130
0010
,
0001
0000
1000
0000
0001
0000
0100
0000
0010
0000
0000
0010
1000
0000
0001
0000
,
0101
0000
0000
0001
0010
0000
0100
0000
0001
0000
0000
0001
0100
0000
0010
0000
,
0001
0000
0000
0001
1000
0000
0010
0000
0001
0000
0010
0000
0010
0000
1000
0000
,
0001
0100
0000
0000
0010
0100
0000
0000
1000
0100
0000
0000
0100
0000
0010
0000
,
1000
0001
1000
0100
0001
0100
0010
0001
,
0201
0000
1300
0000
0120
0000
0130
1001
,
0000
0000
0000
0000
0110
0000
0000
0000
1000
0000
0010
0000
0100
0001
0100
0001
,
1000
0000
0100
0000
1000
0000
0010
0000
1000
0000
0100
0000
1000
0000
0010
1000
,
0001
0000
0100
0000
0001
0000
0010
0000
0001
0000
0100
0000
0001
0000
0010
0001
,
1000
0000
0100
1000
0100
0000
0010
0001
0010
0000
0001
0100
0001
0000
1000
0010
,
1000
0000
0001
0000
2001
0000
0000
0000
3100
0000
0100
0000
0010
0001
1000
0001
,
0200
0001
0010
1000
,
0010
0000
0001
0000
0310
0100
0001
1000
,
0200
0000
0000
0000
0310
0000
0002
0000
0000
0000
1003
0010
1000
0000
0100
0000
,
0010
0001
0100
0020
1000
0000
0130
0100
,
1002
0000
0000
0000
0000
0000
1003
0000
0000
0010
0000
0000
1000
0000
0100
0000
1000
0000
0001
0000
0100
0000
0001
0000
,
1000
0000
0000
0000
0100
0000
0000
0000
0010
0000
0000
0000
0001
0000
0000
0100
0000
0000
0001
0000
0000
0000
0000
0000
1000
0000
0000
0100
0000
0000
1000
0000
0000
0000
0000
0000
0001
0000
0000
0100
0000
0000
0010
0000
0000
1000
0000
0000
,
0002
0000
0010
0000
1003
0001
0000
0110
,
0000
0000
0001
1000
0001
1000
0001
0000
2000
0000
3200
0000
0320
0000
0032
0000
,
0003
0000
0110
0000
0001
1000
0010
0200
,
1000
0000
0010
0000
0301
0001
0010
0200
,
1000
0000
0001
0000
0310
0010
0001
0200
,
1000
0000
0000
0000
0010
0000
0000
0000
0301
0000
0100
0000
0001
1000
0001
1000
,
0001
0000
1000
0100
0000
1000
0100
0000
0010
0001
0000
0010
0001
0000
1000
0001
,
1000
0000
0001
0100
0000
0001
0100
0000
0010
1000
0000
0010
1000
0000
0001
1000
,
0001
0000
0100
0010
0000
1000
0001
0000
0010
0100
0000
1000
0001
0000
1000
0010
,
1000
0000
0000
0001
0100
0000
0000
0001
0010
0000
0100
0000
0220
0000
0000
0000
,
0330
0000
0000
0000
1001
0000
0000
0000
0001
0000
0100
0001
0000
1000
0001
0000
,
0010
0000
0100
1000
0000
0100
0010
0000
0002
0000
0000
0100
0000
0000
1000
0000
,
0013
0000
0001
0100
0000
0010
0100
0000
0001
0000
0010
0100
0000
1000
0100
0000
,
0010
0000
0001
0100
0000
0001
1000
0000
0200
0000
0000
0001
0000
0000
0010
0000
,
1300
0000
0100
0010
0000
0001
0010
0000
0100
0000
1000
0001
0000
0100
0001
0000
,
0010
0000
0100
1000
0000
0001
1000
0000
0020
0000
0000
0001
0000
0000
0100
0000
,
1030
0000
0010
0100
0000
0001
0100
0000
0010
0000
1000
0100
0000
1000
0010
0000
,
0100
0000
0100
0000
0000
0000
0110
0000
0000
0000
1000
0000
0001
0000
0100
0010
,
1000
0000
0000
1000
0100
0000
0000
0100
0010
0000
0000
0010
0001
0000
0000
0001
,
0100
0000
0000
0100
1000
0000
1000
0000
0100
0000
0001
0000
0010
0000
0100
0000
,
0110
0000
0000
0010
0001
0000
0000
0001
1000
0000
0000
1000
0010
0000
0000
0010
,
0100
0000
0100
0000
0000
0000
0110
0000
0000
0000
0001
0000
1000
0100
0010
0000
,
0001
0100
1000
0100
0010
1000
0100
0001
,
0100
0010
0001
1000
0010
0010
0000
1001
,
0000
0000
0110
0000
0001
0101
0000
1000
,
1100
0000
0001
0011
0000
1000
1010
0000
,
0001
0010
0100
0000
1000
0000
0001
0100
0010
0000
1000
0000
0100
0010
0001
0000
,
0100
0000
0010
1000
0001
0000
0010
0000
0100
0000
0100
0000
0010
0000
1001
0000
;

//--------------- dance-double - Telperion ----------------
#NOTEDATA:;
#STEPSTYPE:dance-double;
#DESCRIPTION:Telperion;
#CREDIT:Telperion;
#DIFFICULTY:Easy;
#METER:8;
#RADARVALUES:0,0,0,0,0;
#NOTES:
00000000
00000000
00000000
00000000
,
00000000
00000000
00000000
00000000
,
00000000
00000000
00000000
00000000
,
00000000
00000000
00000000
00000000
,
00000000
00000000
00000000
00000000
,
00000000
00000000
00000000
00000000
,
00000000
00000000
00000000
00000000
,
00000000
00000000
00000000
00000000
,
00000000
00000000
00000000
00000000
,
00011000
00000000
00001000
00000000
,
01000000
00000000
00010000
00000000
,
01010000
00000000
01000000
00000000
,
00001000
00000000
00010000
00000000
,
00011000
00000000
00000000
00000000
00000100
00000000
00000000
00001100
,
00000000
00000000
00000000
00000000
00010000
00000000
00000000
00010010
,
00000000
00000000
00000010
00000000
,
00001000
00000000
00000001
00000010
,
00000000
00000011
00000001
00001000
,
00000010
00010000
00001000
00100000
,
00010000
00000000
10000000
00010000
,
01000000
00001000
00010000
00000010
,
00001000
00000000
00000001
00000010
,
00000100
00010000
00001000
01000000
,
00100000
00000000
10000000
00100000
,
01000000
00010000
00000000
01000000
00000000
00010000
00000000
00000000
,
10000000
01000000
00100000
00001000
,
00010000
00001000
00100000
00000000
,
00010000
01000000
00001000
00010000
,
00000100
00001000
00000000
00000100
00000000
00001000
00000000
00000000
,
00000001
00000000
00000000
00000011
00000000
00000000
00001001
00000000
,
00000000
00001010
00000000
00000000
00010000
00001000
00000000
00100000
,
00000000
00000000
00110000
00000000
00000000
10010000
00000000
00000000
,
10100000
00000000
00000000
01000000
,
10010000
00000000
10000000
01000000
,
00100000
00000000
00010000
01000000
,
00001000
00000000
00010000
00001000
,
01000000
00010000
01000000
00000000
,
00001000
00100000
00001000
00000000
,
00010000
00000010
00010000
00000000
,
00001000
00010000
00000010
00000000
,
00001000
00000100
00000010
00000100
,
00001001
00000000
00000001
00000000
,
00000100
00000010
00001000
00000010
,
00010000
00000000
00000100
00001000
,
00000100
00000010
00000001
00000000
,
00001000
00000010
00010000
00000000
,
00001000
00100000
00010000
00000000
,
01000000
00001000
01000000
00000000
,
00010000
00100000
00001000
00010000
,
00012000
00000000
00103000
00100000
,
00020000
00000000
00130000
00001000
,
00020000
00000000
00030010
00000010
,
00002000
00000000
00003010
00010000
,
00001000
00000000
00000000
00000000
00100000
00000000
00000000
00110000
,
00000000
00000000
00000000
00000000
00001000
00000000
00000000
00011000
,
00000000
00000000
00010000
00000010
,
00001010
00000000
00000000
00000000
00001000
00000010
00001000
00000000
,
00000001
00000010
00000100
00001000
,
00000001
00000100
00001000
00000000
,
00010000
00000010
00001000
00000010
,
00010000
00001000
00100000
00000000
,
00010000
01000000
00001000
00010000
,
00001000
01000000
00100000
00000000
,
10000000
00010000
00100000
01000000
,
10000000
01000000
00010000
00000000
,
00001000
00001000
00010000
00010000
,
00000010
00000010
00001000
00000000
,
00000001
00000000
00000000
00000000
00000100
00000000
00000000
00000110
,
00000000
00001000
00000010
00010000
,
00001000
00010000
00001000
00000000
00100000
00010000
00100000
00000000
,
00001000
00010000
00001000
00000000
01000000
00010000
01000000
00000000
,
00001000
00010000
00001000
00000000
00100000
00010000
00100000
00000000
,
01000000
10000000
00010000
00000000
,
10010000
00000000
10000000
00000000
,
00100000
10000000
01000000
00000000
,
00100000
00001000
00010000
00000000
,
00001000
01000000
00100000
00000000
,
10000000
00100000
01000000
00010000
,
00100000
00001000
00010000
00000010
,
00001000
00000000
00000100
00000000
00000010
00000000
00000000
00000001
,
00000000
00000001
00000000
00000000
00001000
00000000
00001000
00000000
,
00000000
00000100
00010000
00000100
,
00000010
00000000
00000001
00000100
,
00000010
00000000
00010000
00000010
,
00000100
00000000
00000001
00001000
,
00000001
00000010
00000100
00001000
,
00000010
00010000
00001000
00100000
,
00010000
01000000
00100000
10000000
,
00010000
00100000
01000000
10000000
,
00000000
10100000
10000000
00010000
,
00100000
00001000
00010000
00000010
,
00001000
00000000
00000001
00001000
,
00000100
00010000
00001000
00100000
,
00010000
00000000
10000000
00100000
,
01000000
00001000
00010000
00000100
,
00000010
00000000
00000001
00000010
,
00000100
00001000
00000000
00000100
00000000
00001000
00000000
00000000
,
00000001
00000100
00000010
00010000
,
00001000
00010000
00000010
00000000
,
00001000
00000100
00010000
00001000
,
01000000
00010000
00000000
01000000
00000000
00010000
00000000
00000000
,
10000000
00000000
00000000
10100000
00000000
00000000
10010000
00000000
,
00000000
00110000
00000000
00000000
00001000
00010000
00000000
00000010
,
00000000
00000000
00001010
00000000
00000000
00001001
00000000
00000000
,
00000011
00000000
00000000
00000110
00000000
00000000
00000000
00000000
,
00001001
00000000
00000000
00001100
00000000
00000000
00011000
00000000
,
00000000
01010000
00000000
00000000
00001000
00010000
00001000
00010000
;

//--------------- dance-double - Telperion ----------------
#NOTEDATA:;
#STEPSTYPE:dance-double;
#DESCRIPTION:Telperion;
#CREDIT:Telperion;
#DIFFICULTY:Medium;
#METER:12;
#RADARVALUES:0,0,0,0,0;
#NOTES:
00000000
00000000
00000000
00000000
,
00000000
00000000
00000000
00000000
,
00000000
00000000
00000000
00000000
,
00000000
00000000
00000000
00000000
,
00000000
00000000
00000000
00000000
,
00011000
00000000
00000000
00000000
,
01000000
00000000
00001000
00000000
,
00011000
00000000
00000000
00000000
00000000
00000000
00000000
00000100
,
00000000
00010000
00000000
00001000
00000000
00100000
00000000
00000000
,
00110000
10000000
01000000
00100000
,
00001000
00010000
00000010
00001000
,
00001010
00000001
00000100
00000010
,
00010000
00000000
00001000
00000000
00100000
00010000
10000000
00000000
,
10100000
00000000
01000000
00000000
00010000
00000000
00100000
00002000
,
00000000
00000000
00013000
00000000
00000010
00010000
00000000
00021000
,
00000000
00000100
00001000
00030100
,
00010000
00001000
00010000
00000000
00000010
00001000
00000100
00000010
,
00000000
00000011
00001000
00000011
,
00000100
00000000
00000000
00000000
00000011
00000000
00000000
00000000
00001000
00000000
00000000
00000010
00000000
00000000
00010000
00000000
,
00001000
00011000
00000100
00001100
,
00010000
00000000
00000000
00000000
00011000
00000000
00000000
00000000
00000010
00000000
00000000
00001000
00000000
00000000
00000100
00000000
,
00010000
00011000
00100000
00110000
,
00001000
00000000
00000000
00000000
00011000
00000000
00000000
00000000
00100000
00000000
00000000
00010000
00000000
00000000
01000000
00000000
,
00100000
00000000
00000000
10000000
00000000
00000000
00100000
00000000
01000000
00000000
00000000
00010000
00000000
00000000
01000000
00000000
,
00001000
00010000
00000000
00011000
00000000
00001000
00010000
00001000
,
02000000
00010000
00100000
13000000
,
01000000
00000000
00010000
10000000
00000000
00010000
01000000
00001000
,
00020000
00000000
01000000
00000000
00001000
00000000
00030100
00010000
,
00000010
00001000
00000000
00001010
00000000
00000101
00000000
00000000
,
00000001
00000010
00000100
00010000
00000100
00001000
00000001
00000100
,
00000010
00010000
00000010
00001000
00000001
00000010
00000000
00000011
,
00000000
00000000
00001100
00000000
00000000
00011000
00000000
00000000
,
01010000
00000000
00000000
10000000
,
10100000
00100000
01000000
00010000
,
10000000
00000000
00100000
00000000
00010000
00000000
00001000
00010000
,
00001000
00000000
01000000
00000000
00010000
00000000
00100000
00001000
,
00000000
00010000
00000000
00001000
00100000
00000000
01000000
10000000
,
01000000
00010000
00001000
00000010
,
00000001
00000000
00001000
00000000
00000010
00000000
00010000
00001000
,
00010000
00000000
00000010
00000000
00001000
00000000
00000001
00000010
,
00000000
00000100
00010000
00000000
00000010
00000000
00000010
00001000
,
00000001
00000010
00000100
00001000
,
00000001
00000000
00000010
00000000
00001000
00000000
00010000
00001000
,
00010000
00000000
00000100
00000000
00001000
00000000
00000100
00010000
,
00000000
00000010
00000000
00001000
00000001
00000000
00000100
00000001
,
00000100
00000000
00001000
00000000
00010000
00000000
00000010
00001000
,
00000010
00000000
00000100
00000000
00001000
00000000
00010000
00001000
,
00010000
00000000
00100000
00000000
01000000
00000000
00010000
10000000
,
00010000
11000000
00110000
11000000
,
10020000
00000000
00000000
00000000
10000000
00000000
01030000
00001000
,
00020000
00000000
00030010
00010000
,
00002100
00000000
00000000
00000000
00000001
00000000
00003100
00010000
,
00002000
00000000
00100000
00000000
00013000
00001000
01000000
00000000
,
00010000
10000000
00010000
00000000
00100000
00000000
00001000
00010000
,
00001000
00000000
01000000
00000000
00010000
00000000
10000000
01000000
,
10000000
00010000
00100000
00001000
,
00010000
00000000
00010010
00000000
00000100
00001000
00000100
00001000
,
00000002
00000000
00000100
00000000
00001003
00000000
00000001
00000100
,
00000001
00000000
00001000
00000010
00001000
00000000
00000100
00000000
,
00010000
00000000
00001000
00100000
00000000
00100000
00010000
00000000
,
01000000
00001000
00000000
00001000
00010000
00000000
01000000
00000000
,
20000000
00000000
01000000
00000000
30010000
00000000
10000000
00100000
,
10000000
00000000
00010000
01000000
00010000
00000000
00100000
00000000
,
00101000
00000000
00001000
00000000
01000000
00000000
00010000
00100000
,
00000000
00001000
00000000
00010000
00000000
00000010
00001000
00000000
,
00001001
00000000
00000001
00000000
00000010
00000000
00000100
00001000
,
00000010
00000000
00010000
00000000
00000100
00000000
00010000
00001000
,
01000000
00000000
00010000
00000000
00100000
00000000
01000000
10000000
,
00000000
00000000
10000000
00000000
00010000
01000000
00010000
00000000
,
10000000
00100000
10000000
00100000
01000000
00010000
01000000
00010000
,
00100000
00001000
00100000
00001000
00010000
00000010
00010000
00000010
,
00001000
00000100
00001000
00000100
00000010
00000001
00000010
00000001
,
00000100
00000000
00000100
00000000
00000001
00001000
00000100
00000000
,
00020000
00000000
00000000
00000000
,
00000000
00000000
00000000
00000000
00030000
00000000
00000010
00010000
,
00002000
00000000
00103000
00001000
00000000
00000000
00100000
00000000
,
00010000
01000000
00000000
00200000
00000000
00000000
10300000
00000000
,
10100000
00000000
00000000
00010000
00000000
00000000
10000000
00000000
01000000
00000000
00100000
00000000
,
00001000
00000000
01000000
00010000
01000000
00001000
00010000
00000100
,
00001000
00000000
00001000
00000000
00000001
00000100
00000000
00001020
,
00000000
00020000
00000000
00000000
00030030
00000000
00000000
00000000
,
00000000
00000000
00010000
00001000
00010000
00000000
00000100
00001000
,
00000001
00000000
00000010
00000001
00000100
00000000
00000010
00010000
,
00001000
00000000
00100000
00010000
01000000
00000000
00010000
00100000
,
00001000
00000000
00010000
00000010
00001000
00000000
00000100
00000010
,
00000001
00000100
00000001
00000100
00000010
00001000
00000010
00001000
,
00000100
00010000
00000100
00010000
00001000
01000000
00001000
01000000
,
00010000
00100000
00010000
00100000
01000000
10000000
01000000
10000000
,
00100000
00000000
00100000
00000000
01000000
00010000
02000000
00000000
,
03000000
10100000
00010000
10100000
,
01000000
00000000
00000000
00000000
10100000
00000000
00000000
00000000
00010000
00000000
00000000
00100000
00000000
00000000
00001000
00000000
,
00010000
00011000
01000000
01010000
,
00001000
00000000
00000000
00000000
00011000
00000000
00000000
00000000
00100000
00000000
00000000
00010000
00000000
00000000
01000000
00000000
,
00001000
00011000
00000010
00001010
,
00010000
00000000
00000000
00000000
00011000
00000000
00000000
00000000
00000010
00000000
00000000
00001000
00000000
00000000
00000100
00000000
,
00000010
00000000
00000000
00000001
00000000
00000000
00000010
00000000
00000100
00000000
00000000
00001000
00000000
00000000
00000100
00000000
,
00010000
00001000
00000000
00011000
00000000
00010000
00001000
00010000
,
00000200
00001000
00000010
00000301
,
00000100
00000000
00001000
00000001
00000000
00001000
00000100
00010000
,
00002000
00000000
00000100
00000000
00010000
00000000
01003000
00001000
,
00100000
00010000
00000000
00110000
00000000
11000000
00000000
00000000
,
10000000
00100000
01000000
00001000
01000000
00010000
10000000
01000000
,
00100000
00001000
00100000
00010000
10000000
00100000
00000000
10100000
,
00000000
00000000
01010000
00000000
00000000
00011000
00000000
00000000
,
00001100
00000000
00000000
00000011
00000000
00000000
00001001
00000000
,
00000101
00000000
00000000
00001010
00000000
00000000
00011000
00000000
,
00000000
00110000
00000000
00000000
10000000
01000000
00010000
00001000
;

//--------------- dance-double - forcednature ----------------
#NOTEDATA:;
#STEPSTYPE:dance-double;
#DESCRIPTION:forcednature;
#CREDIT:forcednature;
#DIFFICULTY:Hard;
#METER:15;
#RADARVALUES:0,0,0,0,0;
#NOTES:
00000000
00000000
00000000
00000000
,
00000000
00000000
00000000
00000000
,
00000000
00000000
00000000
00000000
,
00000000
00000000
00000000
00000000
,
00000000
00000000
00000000
00000000
,
00021000
00000000
00000000
01030000
,
10000000
00000000
00000000
00010000
00000000
01000000
00000000
00000000
,
02200000
00000000
00000000
00000000
03300000
00000000
00000000
10010000
,
00000000
01001000
00000000
00011000
00000000
00000200
00000000
00000300
,
00000021
00000001
00000031
00000001
,
00000100
00000100
00001000
00001000
,
00011000
00010000
01000000
01000000
,
10000000
10000000
00100000
01000000
,
10010000
00000000
10000000
00000000
01000000
00000000
00010000
00002000
,
00000000
00000000
00003010
00000000
00000100
00001000
00000000
00001002
,
00000000
00000100
00001000
00000010
,
00001003
00000000
00000001
00000010
00000001
00000000
00001000
00000000
00000010
00000000
00000100
00000000
00001000
00000000
00010000
00000000
,
00000000
00000000
00000000
00000000
01100000
00000000
00000000
00000000
00010000
00000000
00000000
01000000
00100000
00000000
10000000
00000000
,
00010000
00000000
00000000
01000000
00100000
00000000
10000000
00000000
01000000
00000000
00000000
00010000
00000000
00000000
00001000
00000000
,
00000010
00000000
00000000
00000001
00001000
00000000
00000100
00000000
00000010
00000000
00000000
00000001
00001000
00000000
00000100
00000000
,
00000010
00000000
00000000
00000001
00001000
00000000
00000100
00000000
00010000
00000000
00000000
00001000
00000000
00000000
01000000
00000000
,
00100000
00000000
10000000
00010000
00000000
10000000
01000000
00000000
00100000
00000000
00010000
10000000
00000000
00010000
01000000
00000000
,
00001000
00000000
00010000
00000100
00000000
00010000
00001000
00000000
00000010
00000000
00000000
00000100
00000000
00000000
00001000
00000000
,
00000100
00000000
00000010
00000001
00000000
00001000
00000001
00000000
00000100
00000000
00000010
00001000
00000000
00000001
00001000
00000000
,
00000100
00000000
00000100
00000000
00000000
00000000
00001001
00000000
00000000
00000000
00000001
00000000
00000100
00000000
00001000
00010000
,
00001000
01001000
10010000
00101000
,
00011000
00000000
00010010
00000000
00000010
00010000
00001000
00000010
,
00000100
00010100
00001001
00010010
,
00010000
00000000
00011000
00000000
00000000
00000000
00101000
00000000
00000000
00000000
00010000
00000000
10000000
00100000
10000000
00000000
,
01000000
00010000
00001000
00000010
00001000
00010000
00100000
00010000
,
00001000
00000100
00001000
00010000
00000100
00000100
00000000
00000110
,
00000000
00000000
00011000
00000000
00000000
01100000
00000000
00000000
,
00022000
00000000
00000000
00033000
,
01001000
00000000
00100000
00000000
20010000
00000000
31000000
00010000
,
00000000
00001000
00000010
00000001
00000000
00001000
00000001
00000100
,
00000010
00000000
00000110
00000000
00000100
00001000
00010000
00100000
,
00000000
01100000
00000000
10000000
00010000
00000000
00100000
00100000
,
00010000
00000000
01001000
00000000
00010020
00000000
00001030
00000001
,
00000000
00000100
00001000
00010000
00000000
00100000
01000000
00010000
,
10000000
00000000
10010000
00000000
00010000
10000000
01000000
00010000
,
00000000
00000000
00001000
00010000
00001000
00000000
00100000
00000000
01000000
00000000
00010000
00000000
00001000
00000000
00000010
00000000
,
00000100
00000000
00001000
00000001
00000000
00000100
00001000
00010000
,
01000000
00000000
00100000
00001000
00010000
00100000
00000000
10000000
,
00010000
00000000
01100000
00000000
10000000
01000000
00010000
00001000
,
00000000
00000110
00000000
00001000
00000001
00000000
00000100
00000100
,
00000120
00000000
00000000
00000000
00000001
00000000
00000000
00000000
00001030
00000000
00000000
00000010
00000000
00000000
00010000
00000000
,
00012000
00000000
00000000
00000000
00000010
00000000
00000000
00000000
00013000
00000000
00000000
00001000
00000000
00000000
01000000
00000000
,
01010000
00000000
10100000
00000000
10000000
01000000
00100000
00010000
,
01000000
00000000
00001000
00010000
00001000
00000000
00100000
00010000
00100000
00000000
01000000
10000000
02000000
00000000
00000000
00000000
,
03010000
00000000
00010000
00000000
00001000
00000000
00001000
00000010
,
00000001
00000001
00000100
00000100
,
00000110
00000000
00000010
00000000
00001000
00000000
00001000
00010000
,
01000000
00000000
01000000
00000000
00100000
10000000
01000000
00000000
,
01100000
00000000
01000000
00010000
00001000
00010000
00000000
00011000
,
00000000
00001000
00000100
00000001
00000010
00000100
00001000
00001020
,
00000000
00000001
00000100
00001000
,
00000130
00000000
00000010
00001000
00000010
00000000
00010000
00001000
00010000
00000000
00000100
00000000
00001000
00000000
00000010
00000000
,
00000110
00000000
00001001
00000000
00000001
00000100
00001000
00000100
,
00000010
00000000
00000000
00000000
00001000
00000000
00000100
00000000
00000010
00000000
00000000
00001000
00000000
00000000
00010000
00000000
,
00100000
00000000
01000000
00010000
10000000
00010000
00100000
01000000
,
00000000
00000000
00010000
00000000
00001000
00000000
00000010
00000000
00000100
00000000
00000000
00001000
00000000
00000000
00000010
00000000
,
00000110
00000000
00000000
00000100
00000001
00000000
00000010
00000000
00000100
00000000
00000000
00000100
00001000
00000000
00000010
00000000
,
00010000
00000000
00000000
00010000
00001000
00000000
00100000
00000000
01000000
00000000
00000000
10000000
00000000
00000000
00100000
00000000
,
01100000
00000000
00000000
01000000
00010000
00000000
10000000
00000000
00010000
00000000
00000000
00010000
00100000
00000000
01000000
00000000
,
00010000
00000000
00000000
00000000
00011000
00000000
00000000
00000000
00000100
00000000
00001000
00000000
00000010
00000000
00000100
00000001
,
00000100
00000000
00000101
00000000
00001010
00000000
00001000
00000100
,
00000000
00000010
00000001
00000100
00000000
00000010
00000000
00010000
,
00011000
00000000
00001000
00000000
01010000
00000000
00000000
10010000
,
00000000
00000000
00100000
00000000
00001000
00010000
00001000
00000010
,
00000001
00000100
00000001
00000100
00001000
00010000
00001000
00010000
,
01000000
10000000
01000000
10000000
00010000
01000000
00010000
01000000
,
00010000
00100000
00010000
00000000
00100000
00001000
00100000
00000000
00001000
00010000
00001000
00000000
01000000
00010000
01000000
00000000
,
00100000
00000000
00000000
00100000
10000000
00000000
00000000
00100000
10000000
00000000
10000000
00000000
00010000
00100000
00010000
00000000
,
01000000
01010000
00001000
00011000
,
01000000
00000000
01010000
00000000
00001000
00010000
00000100
00010000
,
00002000
00000000
00000000
00000000
00003010
00000000
00000200
00000000
00000000
00000000
00001300
00000001
00001000
00000000
00000010
00000000
,
00000100
00001000
00010000
00200000
10000000
00000000
10300000
00100000
,
01200000
00000000
00000000
00000000
00000000
00000000
10300000
00000000
00000000
00010000
00000000
00000000
00100000
00000000
00000000
00000000
01000000
00000000
00000000
00000000
00010000
00000000
00000000
00000000
,
00001000
00000010
00000100
00001000
00000001
00000100
00001000
00010000
,
00010100
00000000
01001000
00000000
00001000
00100000
00001000
00011000
,
00000000
00000000
01000000
00010000
01000000
00010000
01000000
00010000
10000000
00000000
01000000
00000000
00010000
00000000
00001000
00000000
,
00000000
00000000
00000110
00000000
00000001
00000100
00001000
00020000
,
00100000
00000000
00001000
00000000
00030100
00010000
00001000
00000020
,
00000100
00000000
00000001
00000000
00001030
00000010
00000001
00002000
,
00000010
00000000
00000000
00000000
00000100
00000000
00000000
00000000
00003010
00000000
00010000
00000000
00001000
00000000
00100000
00010000
,
00100000
00000000
01000000
00000000
10000000
00000000
01000000
00000000
00100000
00000000
00010000
00000000
01000000
00000000
00001000
00010000
,
00001000
00000000
00000010
00000000
00000100
00000000
00001000
00000000
00000001
00000000
00000100
00000000
00001000
00000000
00010000
00001000
,
00010000
00000000
00001000
01000000
00001000
00000000
01000000
00010000
01000000
00000000
00100000
10000000
00100000
00000000
10000000
00010000
,
10000000
00000000
00000000
10000000
01000000
00000000
00000000
10000000
01000000
00000000
01000000
00000000
00020000
00000000
00000000
00000000
,
00030000
00000000
00000000
00000000
00011000
00000000
00000000
00000000
00010000
00000000
00000000
00000100
00001000
00000000
00000010
00000000
,
00010000
00000000
00000000
00000100
00001000
00000000
00000010
00000000
00000100
00000000
00000000
00001000
00000000
00000000
00010000
00000000
,
01000000
00000000
00000000
10000000
00010000
00000000
00100000
00000000
01000000
00000000
00000000
10000000
00010000
00000000
00100000
00000000
,
01000000
00000000
00000000
10000000
00010000
00000000
00100000
00000000
01000000
00000000
00000000
00010000
00000000
00000000
00001000
00000000
,
00000100
00000000
00000010
00001000
00000000
00000001
00001000
00000000
00000100
00000000
00000010
00000001
00000000
00001000
00000001
00000000
,
00000100
00000000
00001000
00010000
00000000
00000100
00010000
00000000
00001000
00000000
00000000
01000000
00000000
00000000
00010000
00000000
,
00100000
00000000
00010000
01000000
00000000
00010000
10000000
00000000
00100000
00000000
10000000
01000000
00000000
10000000
00010000
00000000
,
00100000
00000000
00100000
00000000
00000000
00000000
00011000
00000000
00000000
00000000
00000100
00000000
00001000
00000000
00000001
00000010
,
00000001
00000101
00010010
00011000
,
00101000
00000000
11000000
00000000
00010000
01000000
00001000
00100000
,
00010000
01001000
00011000
00010100
,
00000001
00000000
00001001
00000000
00000000
00000000
00000110
00000000
00000000
00000000
00001000
00000000
00000100
00001000
00000100
00000000
,
00000010
00001000
00010000
01000000
00010000
00001000
00000100
00001000
,
00010000
00100000
00010000
00001000
00000010
00000010
00000000
00000110
,
00000000
00000000
00011000
00000000
00000000
01100000
00000000
00000000
,
00011000
00000000
00000000
00000110
00000000
00000000
00011000
00000000
,
00010100
00000000
00000000
01001000
00000000
00000000
00010010
00000000
,
00000000
00101000
00000000
00000000
01000000
00010000
00001000
00000020
,
00000000
00000000
00000000
00000000
,
00000000
00000000
00000000
00000000
,
00000030
00000000
00000000
00000000
;

//--------------- dance-double - Telperion + forcednature ----------------
#NOTEDATA:;
#STEPSTYPE:dance-double;
#DESCRIPTION:Telperion + forcednature;
#CREDIT:Telperion + forcednature;
#DIFFICULTY:Challenge;
#METER:16;
#RADARVALUES:0,0,0,0,0;
#NOTES:
00000000
00000000
00000000
00000000
,
00000000
00000000
00000000
00000000
,
00000000
00000000
00000000
00000000
,
00000000
00000000
00000000
00000000
,
00000000
00000000
00000000
00000000
,
00021000
00000000
00000000
00030100
,
00001000
00000000
00000001
00000100
00000000
00001000
00000000
00000000
,
00011000
00000000
00000000
00000000
00000000
00000000
00010000
00100000
,
00000000
01100000
00000000
10010000
00000000
10000000
01000000
00010000
,
00002000
00010000
00100000
00100000
,
00010000
00010000
01000000
01000000
,
00023000
00001000
00000100
00000100
,
00001000
00000000
00001000
00000000
00000010
00000010
00030010
00000000
,
00011000
00000000
00001000
00000000
00000010
00000000
00000001
00001000
,
00000000
00000001
00000100
00000000
00001000
00010000
00000000
00012000
,
00000000
00100000
00010000
01000000
,
00013000
00001000
00100000
00010000
10000000
01000000
00010000
00001000
,
00000000
00000000
00000000
00000000
00011000
00000000
00000000
00000000
00010000
00000000
00000100
00001000
00000000
00000010
00001000
00000000
,
00000100
00000000
00000010
00000001
00000000
00000010
00000100
00000000
00020000
00000000
00000000
00000100
00000000
00000000
00001000
00000000
,
00030010
00000000
00010000
00001000
00000000
00010000
00000100
00000000
00010000
00000000
00001000
01000000
00000000
00010000
01000000
00000000
,
00100000
00000000
10000000
01000000
00000000
00100000
01000000
00000000
00020000
00000000
00000000
00001000
00000000
00000000
00000010
00000000
,
00031000
00000000
00010000
00001000
00000000
01000000
00001000
00000000
00010000
00000000
00100000
10000000
00000000
00100000
01000000
00000000
,
00010000
00000000
10000000
01000000
00000000
00100000
00010000
00000000
02000000
00000000
00000000
10000000
00000000
00000000
00100000
00000000
,
03010000
00000000
01000000
00001000
00000000
00010000
00001000
00000000
00100000
00000000
00010000
01000000
00000000
00000000
00100000
00000000
,
10000000
00000000
10000000
00000000
00000000
00000000
00110000
00000000
00000000
00000000
10000000
00000000
00100000
00000000
01000000
00010000
,
01000000
00000000
00000000
01000000
00010000
00000000
00000000
00010000
00100000
00000000
00000000
00100000
00001000
00000000
00000000
00001000
,
00010000
00000000
00000010
00001000
00000000
00000100
00000010
00000001
,
00000100
00000000
00000000
00000100
00001000
00000000
00000000
00001000
00010000
00000000
00000000
00010000
00100000
00000000
00000000
00000000
,
01000000
01000000
00000000
01100000
00000000
00010000
10000000
00000000
,
01000000
00010000
00001000
01000000
00010000
00100000
00001000
00010000
,
00000010
00001000
00000100
00010000
00001000
00000010
00000000
00000110
,
00000000
00000000
00000011
00000000
00000000
00001010
00000000
00000000
,
00022000
00000000
00000000
00033000
,
01001000
00000000
00001000
00010000
00000100
00010000
00000010
00001000
,
00000000
00000100
00000010
00000001
00000100
00000010
00000100
00000001
,
00000010
00000000
00000100
00001000
00000010
00010000
00001000
00100000
,
00000000
00001000
00010000
00100000
01000000
00010000
10000000
10000000
,
01000000
00000000
00100000
00010000
01000000
00001000
00010000
00000100
,
00000000
00010000
00001000
01000000
00010000
10000000
00010000
00100000
,
00001000
00010000
00000000
00000000
00001000
00010000
00000000
00000000
00001000
00000000
00000010
00000000
00000001
00000000
00001000
00000000
,
00000000
00000010
00000100
00001000
00010000
01000000
00100000
00001000
,
00010000
00000000
00100000
10000000
00010000
10000000
01000000
00010000
,
00001000
00000000
00000010
00000100
00001000
00000100
00000000
00000010
,
00000001
00001000
00000001
00000100
00000010
00001000
00000100
00000010
,
00000000
00001000
00010000
00001000
01000000
00000000
00100000
10000000
,
22000000
00000000
00000000
00000000
33000000
00000000
00000000
00000000
10000000
00000000
00000000
01000000
00000000
00000000
00010000
00000000
,
00022000
00000000
00000000
00000000
00033000
00000000
00000000
00000000
00001000
00000000
00000000
00000100
00000000
00000000
00000001
00000000
,
00001001
00000000
00000001
00000010
00000100
00001000
00000010
00000100
,
00001000
00000000
00000000
00001000
00010000
00000000
00000000
00010000
00100000
00000000
10000000
00000000
00010000
01000000
00010000
00000000
,
10020000
00000000
01000000
00000000
10000000
00000000
00130000
00010000
,
00001000
00000100
00000010
00000001
,
00002001
00000000
00000100
00000000
00000001
00000000
00003010
00001000
,
00010000
00000000
01000000
00000000
00100000
10000000
00100000
00000000
,
10010000
00000000
10000000
01000000
00010000
00001000
00000010
00000001
,
00000000
00001000
00000001
00000100
00001000
00010000
00100000
10000000
,
00000000
01000000
00010000
00001000
00010000
00000010
00010000
00001000
,
00000010
00000000
00000001
00000100
00000001
00000000
00001000
00000100
00001000
00000000
00000001
00000000
00000100
00000000
00000001
00000000
,
00002000
00000000
00000100
00000000
00000001
00000000
00003100
00010000
,
00001000
00000000
00000100
00000000
00000010
00000000
00001000
00000000
00000001
00000000
00000000
00000001
00000010
00000000
00000100
00000000
,
00001000
00000000
00000000
00001000
00000010
00000000
00010000
00000000
00001000
00000000
00000000
00001000
00010000
00000000
00000100
00000000
,
00001000
00000000
00000000
00001000
00000010
00000000
00010000
00000000
00001000
00000000
00100000
01000000
00000000
01000000
10000000
00000000
,
00020000
00000000
01000000
00000000
10000000
00000000
01030000
00001000
,
00010000
00000000
00001000
00000000
01000000
00000000
00100000
00000000
00010000
00000000
00000000
00010000
00100000
00000000
10000000
00000000
,
00010000
00000000
00000000
00010000
00100000
00000000
00001000
00000000
00010000
00000000
00000000
00010000
00001000
00000000
01000000
00000000
,
00010000
00000000
00000000
00010000
00100000
00000000
00001000
00000000
00010000
00000000
00000100
00000000
00001000
00000000
00000100
00000000
,
00000010
00000000
00001001
00000000
00010010
00000000
00001000
00000001
,
00000010
00000100
00010000
00001000
00010000
01000000
00100000
00010000
,
01000000
00000000
10010000
00000000
00101000
00000000
00010000
00000010
,
00000000
00000000
00000100
00000000
00000001
00000100
00000001
00001000
,
00000100
00000000
00000010
00000000
00000001
00000000
00000010
00000000
00001000
00000000
00010000
00000000
01000000
00000000
10000000
00010000
,
01000000
00100000
10000000
00100000
00010000
00001000
00000100
00000001
,
00000010
00000000
00000100
00001000
00000100
00000000
00010000
00001000
00010000
00000000
00000010
00001000
00000010
00000000
00000100
00000001
,
00000010
00000000
00000100
00000000
00000110
00000000
00000000
00000000
00001000
00000000
00000001
00000000
00001000
00000100
00001000
00000100
,
00020000
01000000
00001000
00000100
,
00000010
00000000
00001000
00000000
00130000
00000000
00010000
00001000
,
00200000
00000000
00000000
00000000
01300000
00000000
10000000
00000000
00000000
00000000
00010000
01000000
00010000
00000000
20000000
00000000
,
00000000
32000000
00000000
03200000
00000000
00000000
00301000
00000000
,
00012000
00000000
00000000
00003100
00000000
00000000
00000001
00000100
00000001
00000010
00000100
00001000
,
00000010
00000000
00000000
00000000
00010000
00000000
00000000
00000000
00001000
00000000
00000000
00000000
00100000
00000000
00000000
00010000
00000000
00000000
00100000
00000000
00000000
00000000
00000000
00000000
00001000
00000000
00000000
00010000
00000000
00000000
00001000
00000000
00000000
00000000
00000000
00000000
01000000
00000000
00000000
00010000
00000000
00000000
01000000
00000000
00000000
00010000
00000000
00000000
,
20000000
00000000
30100000
00000000
01000000
00001000
00000000
00011000
,
00000000
00100020
00000000
00000000
00010030
00001000
00000010
00000001
,
00000000
00000000
00000011
00000000
00000010
00000100
00010000
00002000
,
00100000
00000000
00010000
00000000
01003000
01000000
00001000
00020000
,
00000010
00000000
00001000
00000000
00030100
00001000
00010000
00200000
,
00001000
00000000
00000000
00000000
00010000
00000000
00000000
00000000
01300000
00000000
10000000
00000000
00010000
01000000
00010000
01000000
,
00001000
00000000
00100000
00010000
00100000
00000000
00001000
00000000
01000000
00010000
01000000
00000000
00001000
00000000
00010000
00001000
,
00010000
00000000
00000010
00001000
00000010
00000000
00010000
00000000
00000100
00001000
00000100
00000000
00010000
00000000
00001000
00010000
,
00000010
00000000
00001000
00000100
00001000
00000000
00000001
00000000
00001000
00000010
00001000
00000000
00000001
00000000
00000010
00000100
,
00001000
00000000
00001000
00000000
00000010
00010000
00002000
00000000
,
00003000
00000000
00000000
00000000
00110000
00000000
00000000
00000000
10000000
00000000
00010000
01000000
00000000
00001000
01000000
00000000
,
00010000
00000000
00100000
00001000
00000000
00100000
00010000
00000000
10000000
00000000
00000000
01000000
00000000
00010000
00001000
00000000
,
00010000
00000000
00000010
00001000
00000010
00000000
00000100
00000000
00000001
00000000
00001000
00000100
00000000
00010000
00000100
00000000
,
00001000
00000000
00000010
00010000
00000000
00000010
00001000
00000000
00000001
00000000
00000000
00000100
00000000
00001000
00010000
00000000
,
00000010
00000000
00001000
00000100
00000000
00010000
00000100
00000000
00000010
00000000
00000001
00000100
00000000
00000001
00001000
00000000
,
00000010
00000000
00010000
00001000
00000000
00010000
00000100
00000000
00000010
00000000
00000000
00000100
00000000
00010000
00001000
00000000
,
00100000
00000000
00001000
00010000
00000000
00001000
01000000
00000000
00100000
00000000
10000000
00010000
00000000
10000000
01000000
00000000
,
00100000
00001000
00000000
00011000
00000000
00000100
00010000
00001000
,
02000000
00100000
00010000
03001000
,
10000000
01000000
00100000
00001000
00000000
00010000
00000010
00001000
,
00000200
00000000
00000010
00000000
00001000
00000000
00010300
00000100
,
00001000
00000001
00000000
00000101
00000000
00010010
00000000
00010000
,
00001000
00100000
01000000
00010000
01000000
00100000
00001000
01000000
,
00100000
00010000
00100000
01000000
00001000
00010000
00000000
00101000
,
00000000
00000000
00110000
00000000
00000000
10010000
00000000
00000000
,
01001000
00000000
00000000
00010010
00000000
00000000
00001010
00000000
,
00010000
00000010
00000100
00001000
00000100
00000010
00010000
00000100
,
00000010
00001000
00000010
00000100
00010000
00001000
00000100
00000002
,
00000000
00000000
00000000
00000000
,
00000000
00000000
00000000
00000000
,
00000003
00000000
00000000
00000000
;
