#VERSION:0.83;
#TITLE:Metamorphose;
#SUBTITLE:;
#ARTIST:CAPACITY GATE;
#TITLETRANSLIT:;
#SUBTITLETRANSLIT:;
#ARTISTTRANSLIT:;
#GENRE:;
#CREDIT:;
#MUSIC:Metamorphose.ogg;
#BANNER:Metamorphose.png;
#BACKGROUND:Metamorphose-bg.png;
#CDTITLE:./CDTitles/pnm Lapistoria.png;
#SAMPLESTART:79.171;
#SAMPLELENGTH:15.000;
#SELECTABLE:YES;
#OFFSET:0.226;
#BPMS:0.000=201.000;
#STOPS:264.000=0.299;
#TIMESIGNATURES:0.000=4=4,
264.000=3=4,
267.000=4=4
;
#BGCHANGES:0.000=../BGAs/14te.mp4=1.000=0=0=0=StretchNoLoop====,
99999.000=-nosongbg-=1.000=0=0=0=StretchNoLoop====
;
#FGCHANGES:;

//--------------- dance-single - forcednature ----------------
#NOTEDATA:;
#STEPSTYPE:dance-single;
#DESCRIPTION:forcednature;
#DIFFICULTY:Beginner;
#METER:7;
#RADARVALUES:0,0,0,0,0;
#CREDIT:forcednature;
#NOTES:
0000
0000
0000
0000
,
0000
0000
0000
0000
,
0000
0000
0000
0000
,
0000
0000
0000
0000
,
0000
0000
0000
0000
,
1000
0000
1000
0000
,
1000
0000
0000
0000
,
0001
0000
0001
0000
,
0001
0000
0000
0000
,
0100
0000
0010
0000
,
1000
0000
0000
0000
,
0100
0000
0010
0000
,
0001
0000
0000
0000
,
1000
0000
0001
0000
,
0100
0000
0000
0000
,
0002
0000
0000
0003
,
2000
0000
0000
3000
,
0200
0000
0000
0300
,
0020
0000
0000
0030
,
0001
0000
0100
0000
,
0001
0000
0000
0000
,
1000
0000
0100
0000
,
1000
0000
0001
0000
,
0010
0000
0001
0000
,
0010
0000
0000
0000
,
0001
0000
0100
0000
,
0010
0000
1000
0000
,
0001
0000
0100
0000
,
0001
0000
0000
0000
,
1000
0000
0100
0000
,
0010
0000
0001
0000
,
1000
0000
0010
0000
,
1000
0000
0000
0000
,
0001
0000
0000
0000
,
0010
0000
0100
0000
,
1000
0000
0000
1000
,
0000
1000
0000
0000
,
0001
0000
0000
0001
,
0000
0001
0000
0000
,
0100
0000
0000
0100
,
0000
0100
0000
0000
,
0010
0000
0000
0010
,
0000
0010
0000
0000
,
1000
0000
0000
1000
,
0000
1000
0000
1000
,
0001
0000
0001
0000
,
0001
0001
0001
0000
,
0100
0000
0000
0100
,
0000
0100
0000
0100
,
0010
0000
0010
0010
,
0000
0000
0000
0000
,
0000
0000
2000
0000
,
3002
0000
0000
0000
,
0003
0000
0002
0000
,
2003
0000
0000
0000
,
3000
0000
0020
0000
,
0230
0000
0000
0000
,
0300
0000
0200
0000
,
0320
0000
0000
0000
,
0030
0000
1000
1000
,
1000
0000
1000
0000
,
1000
0000
0001
0001
,
0001
0000
0001
0000
,
0001
0000
0010
0010
,
0010
0000
0010
0000
,
0010
0000
0100
0100
,
0100
0000
0000
1001
,
0000
0001
0000
0100
,
0000
0001
0000
1000
,
0000
0010
1000
0010
,
0000
0000
0000
1000
,
0000
0100
1000
0100
,
0000
0010
0100
0010
,
0000
0001
0010
0001
,
0000
1000
0000
1001
,
0000
0001
0100
0001
,
0100
0001
0000
1000
,
0000
1000
0100
1000
,
0100
1000
0000
0010
,
0000
0010
0100
0010
,
0100
0010
0000
1000
,
0000
1000
0001
0000
,
0001
0000
0000
0010
,
0000
0100
0010
0100
,
0000
0010
0000
0001
,
0000
1000
0001
1000
,
0000
0001
0000
0100
,
0000
0010
0100
0010
,
0000
0100
0000
0001
,
1000
0001
1000
0100
,
0010
0100
0000
1000
,
0000
1000
0000
0000
1000
0000
0000
1000
,
0000
0000
0001
0000
0000
0001
0000
0000
,
0001
0000
0000
0001
0000
0000
0100
0000
,
0000
0010
0000
0010
0000
0010
0000
0000
;

//--------------- dance-single - forcednature ----------------
#NOTEDATA:;
#STEPSTYPE:dance-single;
#DESCRIPTION:forcednature;
#DIFFICULTY:Easy;
#METER:11;
#RADARVALUES:0,0,0,0,0;
#CREDIT:forcednature;
#NOTES:
0000
0000
0000
0000
,
0000
0000
0000
0000
,
0000
0000
0000
0000
,
0000
0000
0000
0000
,
0000
0000
0000
0000
,
1000
0000
1000
0000
,
1000
0000
0100
0010
,
0001
0000
0001
0100
,
0010
0000
1000
0001
,
0010
0000
0000
0001
0000
0001
0000
0001
,
0000
0001
0000
1000
0000
0001
0000
0000
,
0100
0000
0000
0001
0000
0001
0000
0001
,
0000
0001
0000
1000
0000
0001
0000
0000
,
1000
0000
0000
0100
0000
0100
0000
0100
,
0000
0100
0000
0010
0000
0100
0000
0000
,
2000
0000
0000
3000
,
0020
0000
0000
0030
,
0200
0000
0000
0300
,
0001
1000
0002
0000
,
0023
0000
0130
1000
,
0100
0010
0001
1000
,
0002
0000
0103
0010
,
0100
0001
1000
0100
,
0020
0000
0031
1000
,
0010
1000
0001
0010
,
0200
0000
1300
0001
,
0100
0010
1000
0001
,
1002
0000
1003
0100
,
0010
0100
1000
0001
,
0020
0000
0031
0100
,
0010
0100
0001
1000
,
0020
0000
1030
0100
,
1000
0001
0100
0001
,
0020
0000
0130
1000
,
0001
1000
0020
0000
,
0130
0000
0100
0000
0100
0000
0100
0010
,
0000
0100
0010
0000
0000
0000
0000
0000
,
1000
0000
1000
0000
1000
0000
1000
0001
,
0000
1000
0001
0000
0000
0000
0000
0000
,
0010
0000
0010
0000
0010
0000
0010
0100
,
0000
0010
0100
0000
0000
0000
0000
0000
,
0001
0000
0001
0000
0001
0000
0001
0010
,
0000
0001
0010
0000
0000
0000
0000
0000
,
0001
0000
1000
0000
0001
0000
1000
0001
,
0000
1000
0001
0000
1000
0001
0000
1000
,
0001
0000
0001
1000
0000
1000
0001
0000
,
0001
1000
0000
1000
0001
0000
0100
0000
,
0010
0000
0010
0000
0010
0000
0010
1000
,
0000
1000
0010
0000
0100
0001
0000
0001
,
0100
0000
0001
0010
0000
0010
0001
0000
,
0000
1000
0100
0010
,
0001
0000
0200
0000
,
0320
0000
0000
0000
,
1030
0000
0200
0000
,
0320
0000
0000
0000
,
0031
0000
2000
0000
,
3020
0000
0000
0000
,
1030
0000
0002
0000
,
0023
0000
0130
1000
,
0001
0000
0100
0000
0001
0010
0001
0000
,
0100
0000
0001
0010
0001
0000
0100
0000
,
0001
0000
1000
0000
0100
0010
0100
0000
,
1000
0000
0010
0100
0010
0000
1000
0000
,
0100
0000
0010
0000
0001
1000
0001
0000
,
0100
0000
0001
1000
0001
0000
0010
0000
,
0100
0000
1000
0000
0010
0100
0010
0000
,
1001
0000
0000
1000
,
0100
0010
0002
0000
1003
0000
0010
0000
,
0100
0001
2000
0000
3100
0000
0010
0000
,
0001
1000
0020
0000
0130
0000
0001
0010
,
0001
0000
1000
0010
1000
0000
0200
0000
,
0310
0001
2000
0000
3010
0000
0200
0000
,
0301
1000
0200
0000
0310
0000
0002
0000
,
1003
0010
0200
0000
0301
0000
1001
0000
,
0000
0110
0000
0000
1000
0000
0001
0000
,
0010
0100
0000
1000
0000
0100
0000
0010
,
0001
2000
3002
0103
,
0010
0000
1000
0001
1000
0000
0100
0000
,
0010
0000
0001
1000
0001
0000
0100
0000
,
0010
1000
0010
0000
0100
0000
0001
0010
,
0001
0000
1000
0000
0010
0000
1000
0100
,
0000
1000
0001
0000
1000
0100
0000
1000
,
0002
0000
0003
0100
,
0001
1000
0000
0100
0000
0010
0000
0110
,
0000
0100
0000
1001
0000
0000
0100
0000
,
1000
0001
0000
0100
0000
0010
0000
0110
,
0000
0100
0000
1001
0000
0000
0001
0000
,
0010
0100
0000
1000
0000
0010
0000
1010
,
0000
0100
0000
0101
0000
0000
1000
0000
,
0100
0010
0000
0001
0000
0200
0000
0320
,
0000
2030
0000
3002
0000
0003
0010
0001
,
0000
0010
0100
0000
1000
0100
0000
1000
,
0001
0000
0100
0001
0000
0100
0010
0000
,
1000
0010
0000
1000
0001
0000
0010
0100
,
0000
1000
0001
1000
0001
2000
0000
0000
,
0000
0000
0000
0000
,
3000
0000
0000
0000
;

//--------------- dance-single - forcednature ----------------
#NOTEDATA:;
#STEPSTYPE:dance-single;
#DESCRIPTION:forcednature;
#DIFFICULTY:Medium;
#METER:14;
#RADARVALUES:0,0,0,0,0;
#CREDIT:forcednature;
#NOTES:
0000
0000
0000
0000
,
0000
0000
0000
0000
,
0000
0000
0000
0000
,
0000
0000
0000
0000
,
0000
0000
0000
0000
,
2000
0100
3002
0100
,
2003
0000
0010
0000
3001
0010
0010
0100
,
2000
0100
3002
0013
,
0110
0000
0100
1000
0001
1000
0010
0000
,
0110
0000
0100
0001
0000
0011
0000
1100
,
0000
1010
0000
0101
0000
1001
0000
1000
,
0010
0000
1000
0100
0000
1010
0000
0101
,
0000
0011
0000
1100
0000
1001
0000
0000
,
0110
0000
0001
0100
0000
1100
0000
1010
,
0000
0011
0000
0101
0000
0110
0000
0001
,
2000
0100
0001
0010
,
3002
0000
0100
0000
1000
0000
0013
0001
,
0200
1000
0310
0110
,
1001
0000
1000
0100
0010
0001
1000
0000
,
0010
0100
0001
0100
0010
1000
0001
1000
,
0010
0100
0001
0100
0010
0000
1001
0000
,
1000
0100
0010
0100
1000
0001
0010
0001
,
1000
0010
0100
0001
0100
0010
1000
0000
,
0001
0010
0100
0010
0001
1000
0100
1000
,
0001
0100
0010
0100
0001
0000
1001
0000
,
1000
0010
0100
0010
1000
0100
0001
0000
,
0100
1000
0001
0010
0001
1000
0010
0000
,
0100
1000
0100
0001
1000
0010
1000
0001
,
0010
0001
0100
0001
0010
0100
1000
0000
,
0010
0100
0001
1000
0100
1000
0001
0000
,
0100
0010
0100
0001
0010
0100
1000
0000
,
0010
1000
0100
1000
0001
0100
0001
0010
,
0001
1000
0010
1000
0100
0000
0110
0000
,
0010
0001
0100
0001
1000
0010
1000
0000
,
0200
0320
0032
0100
,
1003
0100
0001
0100
1000
0000
0100
0001
,
0000
0100
1000
0000
0001
0010
0000
0010
,
0001
0100
1000
0100
0001
0000
0100
1000
,
0000
0000
0100
0000
0001
0000
0000
0000
1000
0000
0010
1000
0010
0000
0000
0000
,
1000
0100
0001
0100
1000
0000
0100
0001
,
0000
0100
1000
0000
0002
0000
0023
0000
,
0031
0100
1000
0100
0001
0000
0100
1000
,
0000
0100
0001
0000
1000
0010
0100
0001
,
1000
0100
0010
0001
0011
0000
0010
0100
,
0000
1000
0100
0000
0010
0001
0000
0001
,
0101
0000
1000
1100
0000
0001
0011
0000
,
1000
1010
0000
0001
0010
0100
1000
0010
,
0100
1000
0100
0001
1001
0000
1000
0010
,
0000
0001
0010
0000
1000
0100
0000
0010
,
0110
0000
0100
0110
0000
0010
2002
0000
,
0000
0000
0000
3003
,
1001
0001
0200
0010
,
0302
0000
1000
0000
0100
0000
0013
0010
,
0001
1000
0020
0100
,
2030
0000
0000
0000
0100
0000
0000
0000
0001
0000
0000
0000
3010
0000
0000
1000
,
0010
0100
0002
0010
,
2003
0000
0010
0000
0001
0000
3100
1000
,
0001
0000
0100
0000
0010
1000
0001
0000
,
0110
0000
1000
0001
0100
0001
0010
0000
,
0001
0000
0000
0100
0001
0000
1000
0000
0010
0000
0010
0000
1000
0000
0000
0100
,
1000
0000
0001
0000
0010
0000
0010
0000
0001
0000
0000
0001
1000
0000
0000
1000
,
0010
0000
0000
0100
0001
0000
0010
0000
0001
0000
0001
0000
0010
0000
0000
0100
,
1000
0000
0010
0000
1000
0000
1000
0000
0100
0000
0000
0100
0010
0000
0000
0010
,
0001
0000
0000
0100
0001
0000
0010
0000
0100
0000
0100
0000
1000
0000
0000
0100
,
1000
0000
0010
0000
0100
0000
0100
0000
0001
0000
0000
0001
1000
0000
0000
1000
,
0010
0000
0000
0010
0100
0000
0001
0000
0010
0000
0010
0000
0100
0000
0000
0000
,
1001
0000
1000
0100
0010
0001
0100
1000
,
0100
0001
1000
0010
1010
0000
0001
0010
,
0100
0001
0100
1000
1001
0000
0001
0100
,
0001
0010
0100
0010
0001
0100
0010
0001
,
0010
1000
0001
0010
0100
1000
0010
0000
,
0010
0100
0001
0010
0011
0000
0010
0000
,
0010
0100
1000
0010
1010
0000
1000
0010
,
0100
0001
0001
0010
0110
0000
1100
0000
,
0010
0101
0000
1000
1000
1000
1001
0000
,
0001
0101
0000
1100
0000
1001
0000
0010
,
0110
0000
0001
0100
0010
1000
0001
0000
,
0010
0100
1000
0010
0100
1000
0100
0000
,
0001
1000
0010
1000
0100
0001
0100
0000
,
0010
0001
1000
0001
0100
1000
0100
0001
,
0001
0000
0010
0100
0110
0000
1000
1100
,
0000
0001
0101
0000
1000
1010
0000
0001
,
0011
0000
1000
0100
0010
0001
0100
0000
,
0001
0010
0000
0011
0000
1010
0000
1100
,
0000
0101
0000
1001
0000
1000
0100
0000
,
1000
0010
0000
1010
0000
0011
0000
0101
,
0000
1100
0000
0001
0001
0001
1000
0000
,
0010
0100
0000
0101
0000
0011
0000
1010
,
0000
1100
0000
0110
0000
0010
0001
0000
,
0100
0100
0000
0010
0000
1000
0000
0100
,
0000
0010
0000
0001
0000
0000
0100
1000
,
1000
0100
0001
0001
0010
1000
1000
0010
,
0001
0001
0100
0010
0010
1000
1100
0000
,
0001
0101
0000
1000
1010
0000
0001
0011
,
0000
0100
0010
0100
0010
2002
0000
0000
,
0000
0000
0000
0000
,
3003
0000
0000
0000
;

//--------------- dance-single - forcednature ----------------
#NOTEDATA:;
#STEPSTYPE:dance-single;
#DESCRIPTION:forcednature;
#DIFFICULTY:Hard;
#METER:17;
#RADARVALUES:0,0,0,0,0;
#CREDIT:forcednature;
#NOTES:
0000
0000
0000
0000
,
0000
0000
0000
0000
,
0000
0000
0000
0000
,
0000
0000
0000
0000
,
0000
0000
0000
0000
,
0001
0000
0100
0001
1000
0000
0100
1000
,
0001
0000
0010
0001
1000
0010
0010
0100
,
0001
0000
0000
0000
0010
0000
0100
0000
1000
0000
0100
1000
0002
0000
0000
0000
,
0103
0000
0000
0100
0010
0000
1000
0000
0001
0010
0001
0010
0100
1000
0100
1000
,
0001
0000
0100
0110
0000
1010
0000
1100
,
0000
0101
0000
0011
0000
2001
0000
3010
,
1000
0000
0100
0110
0000
0011
0000
0101
,
0000
0000
1100
0000
0000
0000
1010
0000
0000
0000
0001
1000
0001
1000
0001
1000
,
0010
0000
0100
0101
0000
0011
0000
1100
,
0000
0000
1010
0000
0000
0000
0110
0000
0000
0000
0001
0000
1000
0100
0010
0001
,
2000
0000
3010
0100
0001
0100
0010
0100
,
0002
0000
0013
0100
1000
0100
0010
0011
,
0002
0000
1003
0010
0100
0010
1001
0000
,
1000
0000
0000
1000
0100
0000
0000
0100
0010
0000
0001
1000
0001
1000
0001
1000
,
0010
0100
0001
1000
0100
0010
0011
0000
,
1200
0010
2300
3002
,
0103
0010
1000
0100
1000
0001
0100
0000
,
1020
0230
0302
0023
,
0130
0001
0100
1000
0001
0010
0001
2000
,
0010
0000
0100
0000
3001
0010
0100
1000
,
0010
0100
1000
0100
0001
1000
1010
0000
,
0020
2030
3002
0203
,
0310
0000
1000
0001
0010
0000
0100
0000
1000
0000
0001
0100
0010
0000
1000
0000
,
0200
0010
2300
3002
,
0103
0000
0010
1000
0001
0000
0010
0000
0001
0000
1000
0010
0100
0000
0001
0000
,
2000
3200
0320
2030
,
3010
0000
0001
1000
0100
0000
0010
0000
0001
0000
1000
0010
0200
0000
0000
0000
,
0001
0000
0000
0000
1000
0000
0000
0000
0310
0000
1000
0001
0010
0000
0000
0000
,
0200
1000
1000
0320
0001
0031
0110
0000
,
1000
0100
1000
0001
0100
0001
0010
0100
1000
0001
0100
0010
,
1000
0100
0001
0100
1100
0000
0001
0010
,
0000
1000
0010
0000
0100
0110
0000
0010
,
0001
0100
1000
0100
0101
0000
1000
0010
,
0000
0000
0001
0000
0010
0000
0000
0000
0100
0010
1000
0001
0200
0000
0000
0000
,
0301
0010
1000
0010
0011
0000
0001
0100
,
0000
0000
0000
1000
0000
0000
0100
0000
0000
0000
0000
0000
0010
0000
1000
0000
0001
0000
0100
0000
0001
0000
1000
0000
,
0100
0001
0100
1000
1001
0000
0010
0110
,
0000
0100
1001
0000
1000
0001
0100
0010
,
1000
0100
1000
0001
1000
0100
1000
0001
0010
0000
0000
0000
0001
0000
0101
0000
,
0000
0000
1000
0000
1100
0000
0000
0000
0010
0000
0110
0000
0000
0000
1000
0100
,
0020
0000
0000
0000
0031
0100
0020
0000
0000
0000
1030
0001
0200
0000
0000
0000
,
0301
1000
0200
0000
0000
0000
0310
0001
1000
0000
1000
0000
0010
0000
0100
0000
,
0001
0100
0001
1000
0001
0100
0001
1000
0010
0000
0000
0000
1000
0000
1100
0000
,
0000
0000
0001
0000
0101
0000
0000
0000
0010
0000
0110
0000
0000
0000
1000
0001
,
0200
0000
0000
0000
0301
1000
0200
0000
0000
0000
0310
0000
2002
0000
0000
0000
,
3003
0000
0001
0001
0100
0100
0010
1000
,
1001
1000
0020
0100
,
2030
0000
0000
0100
0000
0000
0001
0000
0000
3010
1000
0001
,
0100
0001
0020
0100
,
0032
0000
0000
0000
0100
0000
0000
0000
1000
0000
0000
0000
0013
0000
0000
0001
,
1000
0010
2000
0100
,
3002
0000
0010
0000
1000
0000
0103
0100
,
0010
0000
1000
0000
0100
0010
1001
0000
,
0002
0000
0000
0000
0103
0000
0010
0000
1000
0001
1000
0001
1000
0001
1000
0001
,
0010
0000
0010
0001
0100
0000
0010
0000
0100
0001
1000
0001
0010
0000
0010
0001
,
0100
0000
0010
0000
0100
0001
1000
0001
0010
0000
0001
0100
0001
0000
0001
1000
,
0010
0000
0010
1000
0100
0000
0010
0000
0100
1000
0001
1000
0010
0000
0010
1000
,
0100
0000
0010
0000
0100
1000
0001
1000
0010
0000
1000
0100
1000
0000
1000
0001
,
0100
0000
0100
0010
1000
0000
0001
0000
0010
0100
1000
0001
0100
0000
0100
0010
,
1000
0000
0001
0000
0010
0100
1000
0001
0100
0000
0001
0010
0001
0000
0001
1000
,
0100
0000
0100
0010
0001
0000
1000
0000
0010
0100
0001
1000
0100
0000
0000
0000
,
2002
3003
0000
0000
0001
0100
0010
1000
0010
0100
0001
1000
0100
0000
0010
0000
,
0001
0000
1000
0000
0100
0010
0100
0010
0001
0010
0001
0010
0200
0000
0000
0000
,
1000
0000
0000
0000
0310
0001
0010
0001
1000
0001
1000
0001
0200
0000
0000
0000
,
0310
0000
1000
0000
0001
0010
0001
0010
0100
1000
0100
1000
0002
0000
0000
0000
,
0010
0000
0000
0000
0203
0000
0320
0000
2030
0000
3002
0000
0013
0000
0100
1000
,
0001
0000
0010
0000
0001
1000
0010
1000
0001
0100
0001
1000
0100
0000
0010
0001
,
1000
0000
0010
0000
0100
0001
1000
0100
1000
0001
0100
0010
2000
0000
0000
0000
,
3100
0000
1000
0000
0010
0100
0010
0100
0001
1000
0001
1000
0100
0000
0000
0000
,
0010
0000
1001
0000
0000
0000
0001
0000
1000
0000
0001
0000
0100
0000
0100
0010
,
1000
1100
0000
0101
0000
0011
0000
0110
,
0110
0000
0000
0000
1000
0001
1000
0001
1000
0001
1000
0001
1000
0000
0010
0000
,
0100
0000
0001
0000
0010
0100
0010
0100
1000
0100
1000
0100
0010
0000
0001
0000
,
1000
0000
0010
0000
0100
0001
0100
0001
1000
0010
1000
0010
0100
0000
0001
1000
,
0100
0000
0010
0000
0100
1000
0001
0010
0001
1000
0100
1000
0001
0000
0001
0010
,
0200
0000
0000
0000
1300
0001
0100
0010
2000
0000
0000
0000
3001
0000
0011
0000
,
0000
1000
1010
0000
0100
0110
0000
0010
,
1001
0000
0000
0000
1000
0100
1000
0100
0010
0001
0010
0001
1000
0000
0010
1000
,
0010
0110
0000
0101
0000
0011
0000
1010
,
0000
0000
1100
0000
0000
0000
1001
0000
0000
0000
1000
0000
0001
0000
0010
0001
,
0010
0110
0000
1100
0000
1010
0000
0011
,
0000
0000
0101
0000
0000
0000
0001
1000
0001
1000
0001
1000
0010
0000
0100
0010
,
1000
0000
0100
1000
0100
0000
0010
0100
0010
0000
0001
0010
0001
0000
0010
0100
,
0010
0000
0000
0000
0000
0000
0100
0000
0000
1000
0000
0000
0100
0000
0000
0000
0000
0000
0010
0000
0000
0001
0000
0000
1000
0000
0000
0000
0000
0000
0010
0000
0000
0000
0000
0000
0100
0000
0000
0000
0001
0000
0000
0000
0100
0000
0000
0000
,
0001
0010
0001
0010
0100
0010
0100
1000
0100
0010
0001
0100
,
0010
0000
0000
0000
1000
0000
0000
0000
0100
0000
0000
0000
1000
0000
0000
0000
0010
0000
0000
0000
0100
0000
0000
0000
0001
0000
0000
0000
0010
0000
0000
0000
0001
0000
0000
0000
1000
0000
0000
0100
0000
0000
1000
0000
0000
0000
0000
0000
,
1000
0000
0001
0100
0001
0000
0001
0000
1000
0010
1000
0000
1000
0000
0001
0010
,
0001
0000
0001
0000
0100
0010
0100
0000
0100
0000
0001
0010
0100
0010
0001
0000
,
1000
0010
0100
0010
1000
0000
0001
1000
0100
0010
0001
0000
1000
0001
0100
0010
,
1000
0000
0100
0010
0100
0010
0100
0010
0100
0010
0002
0000
0000
0000
0000
0000
,
0000
0000
0000
0000
,
0003
0000
0000
0000
;

//--------------- dance-double - forcednature ----------------
#NOTEDATA:;
#STEPSTYPE:dance-double;
#DESCRIPTION:forcednature;
#DIFFICULTY:Easy;
#METER:11;
#RADARVALUES:0,0,0,0,0;
#CREDIT:forcednature;
#NOTES:
00000000
00000000
00000000
00000000
,
00000000
00000000
00000000
00000000
,
00000000
00000000
00000000
00000000
,
00000000
00000000
00000000
00000000
,
00000000
00000000
00000000
00000000
,
00001000
00000000
00001000
00000000
,
00001000
00000000
01000000
00010000
,
00100000
00000000
00100000
01000000
,
10000000
00000000
00010000
00100000
,
00001000
00000000
00000000
00010000
00000000
00010000
00000000
00010000
,
00000000
00010000
00000000
00000010
00000000
00001000
00000000
00000000
,
00000100
00000000
00000000
00010000
00000000
00010000
00000000
00010000
,
00000000
00010000
00000000
00001000
00000000
01000000
00000000
00000000
,
00010000
00000000
00000000
00100000
00000000
00100000
00000000
00100000
,
00000000
00100000
00000000
01000000
00000000
10000000
00000000
00000000
,
00200000
00000000
00000000
00300000
,
02000000
00000000
00000000
03000000
,
00002000
00000000
00000000
00003000
,
00010000
00000010
00002000
00000000
,
00003200
00000000
00000310
00000001
,
00000100
00000001
00000010
00000100
,
00020000
00000000
00031000
00100000
,
01000000
00100000
00001000
00010000
,
00200000
00000000
10300000
01000000
,
00010000
00001000
00100000
00010000
,
00200000
00000000
00301000
00010000
,
00000010
00000100
00001000
00010000
,
00012000
00000000
00003010
00000100
,
00001000
00000001
00000100
00001000
,
00020000
00000000
00130000
01000000
,
00100000
10000000
01000000
00010000
,
00002000
00000000
00103000
00010000
,
00100000
00001000
00010000
00000010
,
00002000
00000000
00003100
00000010
,
00000001
00000100
00002000
00000000
,
00013000
00000000
00010000
00000000
00010000
00000000
00000010
00010000
,
00000000
00000010
00010000
00000000
00000000
00000000
00000000
00000000
,
00001000
00000000
00001000
00000000
00001000
00000000
00100000
00001000
,
00000000
00100000
00001000
00000000
00000000
00000000
00000000
00000000
,
00010000
00000000
00010000
00000000
00010000
00000000
00000100
00010000
,
00000000
00000100
00010000
00000000
00000000
00000000
00000000
00000000
,
00001000
00000000
00001000
00000000
00001000
00000000
01000000
00001000
,
00000000
01000000
00001000
00000000
00000000
00000000
00000000
00000000
,
00010000
00000000
00000010
00000000
00010000
00000000
00000010
00010000
,
00000000
00000010
00010000
00000000
00001000
01000000
00000000
00001000
,
01000000
00000000
00001000
00010000
00000000
00010000
00001000
00000000
,
00010000
00001000
00000000
00001000
00010000
00000000
00000100
00000000
,
00001000
00000000
00001000
00000000
00001000
00000000
00000001
00000100
,
00000000
00000100
00000001
00000000
00000010
00000100
00000000
00000100
,
00010000
00000000
00001000
01000000
00000000
01000000
00100000
00000000
,
00000000
10000000
01000000
00010000
,
00001000
00000000
00000020
00000000
,
00000230
00000000
00000000
00000000
,
00001300
00000000
00000002
00000000
,
00000203
00000000
00000000
00000000
,
00001300
00000000
00020000
00000000
,
00230000
00000000
00000000
00000000
,
10300000
00000000
02000000
00000000
,
03020000
00000000
00031000
00000010
,
00000100
00000000
00001000
00000000
00000010
00001000
00000010
00000000
,
00010000
00000000
00000010
00001000
00000010
00000000
00010000
00000000
,
00001000
00000000
01000000
00000000
00010000
00100000
00010000
00000000
,
01000000
00000000
00010000
00100000
00010000
00000000
01000000
00000000
,
00001000
00000000
00010000
00000000
00000100
00001000
00000100
00000000
,
00000010
00000000
00000100
00001000
00000100
00000000
00010000
00000000
,
00001000
00000000
01000000
00000000
00010000
00100000
00010000
00000000
,
10010000
00000000
00000000
10000000
,
01000000
00100000
00020000
00000000
01030000
00000000
00001000
00000000
,
00010000
00000100
00002000
00000000
00003010
00000000
00000100
00000000
,
00000001
00000010
00000200
00000000
00010300
00000000
00001000
00100000
,
00001000
00000000
00010000
00000010
00010000
00000000
00002000
00003000
,
01000000
00010000
20000000
00000000
31000000
00000000
00200000
00000000
,
00301000
00010000
00000020
00000000
00001030
00000000
00000200
00000000
,
00000310
00000001
00002000
00000000
00003010
00000000
00000110
00000000
,
00000000
00011000
00000000
00000000
01000000
00000000
00001000
00000000
,
00100000
01000000
00000000
10000000
00000000
01000000
00000000
00100000
,
00001000
00020000
00030020
00001030
,
00000100
00000000
00000010
00000001
00000010
00000000
00000100
00000000
,
00010000
00000000
00001000
01000000
00001000
00000000
00010000
00000000
,
00100000
01000000
00100000
00000000
10000000
00000000
01000000
00100000
,
01000000
00000000
00010000
00000000
00001000
00000000
00000010
00000100
,
00000000
00010000
00001000
00000000
00000100
00000010
00000000
00010000
,
00002000
00000000
00003000
01000000
,
00010000
10000000
00000000
01000000
00000000
00010000
00000000
00010100
,
00000000
00001000
00000000
01001000
00000000
00000000
00001000
00000000
,
00010000
00000010
00000000
00001000
00000000
00000100
00000000
00010100
,
00000000
01000000
00000000
01001000
00000000
00000000
00001000
00000000
,
00010000
00000010
00000000
00001000
00000000
00000100
00000000
00011000
,
00000000
01000000
00000000
00011000
00000000
00000000
00100000
00000000
,
00001000
00010000
00000000
00000100
00000000
00020000
00000000
00032000
,
00000000
02003000
00000000
03020000
00000000
00030000
00100000
01000000
,
00000000
00100000
00001000
00000000
00010000
00000010
00000000
00000100
,
00000010
00000000
00001000
00000100
00000000
00010000
00001000
00000000
,
01000000
00010000
00000000
00100000
01000000
00000000
10000000
00100000
,
00000000
00010000
00001000
00010000
00001000
02000000
00000000
00000000
,
00000000
00000000
00000000
00000000
,
03000000
00000000
00000000
00000000
;

//--------------- dance-double - forcednature ----------------
#NOTEDATA:;
#STEPSTYPE:dance-double;
#DESCRIPTION:forcednature;
#DIFFICULTY:Medium;
#METER:14;
#RADARVALUES:0,0,0,0,0;
#CREDIT:forcednature;
#NOTES:
00000000
00000000
00000000
00000000
,
00000000
00000000
00000000
00000000
,
00000000
00000000
00000000
00000000
,
00000000
00000000
00000000
00000000
,
00000000
00000000
00000000
00000000
,
00002000
01000000
00023000
00000100
,
00032000
00000000
00100000
00000000
00013000
00000010
00000010
00001000
,
00000200
00000010
00020300
00031000
,
00011000
00000000
00010000
00100000
01000000
00100000
10000000
00000000
,
10010000
00000000
00010000
00100000
00000000
01100000
00000000
01010000
,
00000000
00011000
00000000
00101000
00000000
00010100
00000000
00000100
,
00000010
00000000
00000001
00000100
00000000
00000110
00000000
00010010
,
00000000
01001000
00000000
01100000
00000000
10010000
00000000
00000000
,
11000000
00000000
01000000
00010000
00000000
00011000
00000000
00101000
,
00000000
00010100
00000000
00000110
00000000
00001001
00000000
00000010
,
00002000
00000100
00000001
00000010
,
00023000
00000000
01000000
00000000
10000000
00000000
00130000
00010000
,
00002000
00000100
00000001
00003010
,
00011000
00000000
01000000
00010000
10000000
00010000
00100000
00000000
,
01000000
10000000
01000000
00010000
00001000
00100000
00010000
00100000
,
00001000
00010000
00000010
00010000
00001000
00000000
00000110
00000000
,
00000001
00000100
00001000
00000100
00000001
00001000
00000010
00001000
,
00010000
01000000
00010000
00100000
01000000
00010000
01000000
00000000
,
10000000
00010000
00100000
00010000
10000000
00100000
00010000
00100000
,
01000000
00001000
00010000
00001000
00000010
00000000
00001001
00000000
,
00001000
00000100
00010000
00000100
00001000
00000010
00000100
00001000
,
00010000
00100000
01000000
00100000
10000000
00010000
00100000
00000000
,
01000000
10000000
01000000
00010000
00001000
00100000
00010000
00100000
,
01000000
00010000
00001000
00000010
00000100
00001000
00000001
00000000
,
00000100
00001000
00010000
00001000
00100000
00010000
01000000
00100000
,
10000000
01000000
00010000
01000000
00100000
00001000
00010000
00000000
,
00000010
00001000
00000100
00001000
00000010
00010000
00001000
00000010
,
00000001
00001000
00000100
00010000
00001000
00000000
00011000
00000000
,
00010000
00100000
01000000
00100000
10000000
00010000
10000000
01000000
,
00020000
00032000
00003020
00000100
,
00001030
00000010
00000001
00000100
00001000
00000000
00010000
00100000
,
00000000
10000000
00100000
00000000
10000000
01000000
00000000
01000000
,
00010000
01000000
10000000
00100000
00010000
00000000
00001000
00000100
,
00000000
00000000
00000001
00000000
00000100
00000000
00000000
00000000
00001000
00000000
00010000
00001000
00010000
00000000
00000000
00000000
,
00001000
00000010
00000001
00000100
00001000
00000000
00010000
00100000
,
00000000
10000000
00100000
00000000
20000000
00000000
32000000
00000000
,
03010000
01000000
10000000
00100000
00010000
00000000
00001000
00000100
,
00000000
00000001
00000100
00000000
00001000
00010000
00100000
01000000
,
10000000
01000000
00010000
00100000
10000000
00000000
00100000
00010000
,
00000000
00001000
00000100
00000000
00010000
00001000
00000000
00100000
,
00101000
00000000
00000010
00010010
00000000
01000000
01001000
00000000
,
00000100
00010100
00000000
00010000
00001000
00000010
00000100
00001000
,
00000001
00000100
00001000
00010000
00011000
00000000
01000000
00001000
,
00000000
00100000
01000000
00000000
10000000
00100000
00000000
10000000
,
11000000
00000000
00010000
00110000
00000000
00001000
00022000
00000000
,
00000000
00000000
00000000
00033000
,
00010100
00000000
02000000
00010000
,
03200000
00000000
10000000
00000000
01000000
00000000
10300000
00010000
,
00100000
00000000
00002000
00010000
,
00003020
00000000
00000000
00000000
00000100
00000000
00000000
00000000
00001000
00000000
00000000
00000000
00000130
00000000
00000000
00000010
,
00000001
00000000
00000200
00000010
,
00002300
00000000
00010000
00000000
00100000
00000000
00013000
00001000
,
01000000
00000000
00000000
00000000
00010000
00100000
01000000
00000000
,
01100000
00000000
00100000
01000000
10000000
00010000
01000000
00000000
,
00001000
00000000
00000000
00010000
00000100
00000000
00001000
00000000
00000010
00000000
00000010
00000000
00010000
00000000
00000000
00001000
,
01000000
00000000
00010000
00000000
00100000
00000000
00100000
00000000
00001000
00000000
00000000
00001000
00010000
00000000
00000000
00010000
,
00000010
00000000
00000000
00001000
00000100
00000000
00010000
00000000
00001000
00000000
00001000
00000000
00100000
00000000
00000000
00010000
,
01000000
00000000
00001000
00000000
00010000
00000000
00010000
00000000
00000010
00000000
00000000
00000010
00001000
00000000
00000000
00001000
,
00000100
00000000
00000000
00010000
00001000
00000000
01000000
00000000
00010000
00000000
00010000
00000000
00100000
00000000
00000000
00001000
,
00010000
00000000
00000100
00000000
00001000
00000000
00001000
00000000
00000010
00000000
00000000
00000010
00010000
00000000
00000000
00010000
,
00001000
00000000
00000000
00001000
00100000
00000000
01000000
00000000
10000000
00000000
10000000
00000000
00100000
00000000
00000000
00000000
,
01100000
00000000
00100000
00010000
00001000
00000100
00000010
00010000
,
00000100
00001000
00000001
00000010
00000110
00000000
00000100
00010000
,
00001000
00100000
01000000
10000000
10010000
00000000
00010000
01000000
,
00010000
00100000
01000000
00010000
00001000
00000010
00000100
00010000
,
00001000
00000010
00000100
00001000
00000001
00000100
00001000
00000000
,
00010000
00100000
01000000
00100000
10100000
00000000
10000000
00000000
,
01000000
00100000
01000000
00010000
00011000
00000000
00001000
00000010
,
00000001
00001000
00001000
00000010
00000110
00000000
00001001
00000000
,
00010000
00011000
00000000
01000000
01000000
01000000
10010000
00000000
,
10000000
00010000
00000000
00001000
00000000
00000001
00000000
00000110
,
00000110
00000000
00000001
00000100
00001000
00010000
00100000
00000000
,
01000000
00010000
00100000
01000000
00010000
00001000
00100000
00000000
,
00010000
10000000
00100000
10000000
01000000
00010000
00001000
00000000
,
00000010
00000100
00010000
00000010
00000100
00000001
00000010
00001000
,
00001000
00000000
00011000
00000000
01001000
00000000
00100000
00101000
,
00000000
00000010
00010010
00000000
01000000
01001000
00000000
00000100
,
00010100
00000000
00010000
00001000
00000010
00000100
00001000
00000000
,
00000001
00000100
00000000
00001100
00000000
00011000
00000000
00110000
,
00000000
10100000
00000000
11000000
00000000
01000000
00010000
00000000
,
00001000
00000010
00000000
00000110
00000000
00010100
00000000
01001000
,
00000000
01100000
00000000
00100000
00100000
00100000
10000000
00000000
,
01000000
00010000
00000000
00011000
00000000
00110000
00000000
01001000
,
00000000
00010100
00000000
00001010
00000000
00000010
00000100
00000000
,
00001000
00010000
00000000
00200000
00000000
20300000
00000000
32000000
,
00000000
03020000
00000000
00032000
00000000
00003000
00000010
00000100
,
00001000
00000010
00000100
00001000
00010000
00100000
01000000
00010000
,
00100000
01000000
00010000
00001000
00100000
01000000
01100000
00000000
,
00010000
00011000
00000000
00000100
00000110
00000000
00001000
00011000
,
00000000
01000000
00100000
00010000
00001000
00000200
00000000
00000000
,
00000000
00000000
00000000
00000000
,
00000300
00000000
00000000
00000000
;

//--------------- dance-double - forcednature ----------------
#NOTEDATA:;
#STEPSTYPE:dance-double;
#DESCRIPTION:forcednature;
#DIFFICULTY:Hard;
#METER:17;
#RADARVALUES:0,0,0,0,0;
#CREDIT:forcednature;
#NOTES:
00000000
00000000
00000000
00000000
,
00000000
00000000
00000000
00000000
,
00000000
00000000
00000000
00000000
,
00000000
00000000
00000000
00000000
,
00000000
00000000
00000000
00000000
,
00001000
00000000
01000000
00001000
00010000
00000000
00000100
00010000
,
00001000
00000000
00100000
00001000
00010000
00100000
00100000
01000000
,
00010000
00000000
00100000
01000000
00010000
00001000
00000020
00000000
,
00000130
00000000
00000000
00000100
00001000
00000000
00000001
00000000
00000100
00000010
00000100
00000010
00001000
00000001
00001000
00000001
,
00000010
00000000
00000100
00010100
00000000
00011000
00000000
01001000
,
00000000
01010000
00000000
00110000
00000000
20010000
00000000
30100000
,
10000000
00000000
01000000
00010000
00000000
00011000
00000000
00010100
,
00000000
00000000
00001100
00000000
00000000
00000000
00000110
00000000
00000000
00000000
00000001
00001000
00000001
00001000
00000001
00001000
,
00000010
00000000
00010000
00011000
00000000
00101000
00000000
01100000
,
00000000
00000000
11000000
00000000
00000000
00000000
10100000
00000000
00000000
00000000
00100000
00000000
01000000
00010000
01000000
00001000
,
00020000
00000000
00030100
00001000
00000100
00010000
00001000
00000010
,
00000002
00000000
00000103
00001000
00010000
00100000
00010000
00001000
,
02000000
00000000
03010000
00100000
01000000
00010000
00001000
00000000
,
00100000
00000000
00000000
00100000
00010000
00000000
00000000
00010000
10000000
00000000
00100000
01000000
00100000
01000000
00100000
01000000
,
00010000
10000000
01000000
00010000
00001000
00100000
00010000
00000000
,
00002000
00000100
00003002
00000023
,
00000130
00010000
00001000
00100000
00001000
00010000
01000000
00000000
,
20000000
30200000
00320000
00032000
,
00003100
00000001
00000010
00000100
00010000
00000010
00000100
00002000
,
00010000
00000000
01000000
00000000
00103000
00010000
01000000
00010000
,
00100000
01000000
00010000
01000000
00100000
00001000
00010000
00000000
,
00000020
00002030
00023000
02030000
,
03100000
00000000
10000000
00010000
00100000
00000000
01000000
00000000
00010000
00000000
00001000
00100000
00010000
00000000
01000000
00000000
,
00002000
00010000
00003020
00000230
,
00001300
00000000
00000001
00000100
00000010
00000000
00001000
00000000
00000100
00000000
00000010
00000100
00001000
00000000
00000010
00000000
,
00020000
00032000
00203000
02300000
,
13000000
00000000
00010000
01000000
00100000
00000000
10000000
00000000
00010000
00000000
00100000
00001000
00020000
00000000
00000000
00000000
,
00000010
00000000
00000000
00000000
00001000
00000000
00000000
00000000
00030100
00000000
00001000
00000001
00000010
00000000
00000000
00000000
,
00000001
00000100
00001000
00010000
01000000
10000000
00100000
00000000
,
10000000
01000000
10000000
00010000
01000000
00010000
00100000
00001000
00010000
00000010
00010000
00001000
,
00000010
00000100
00010000
00000100
00000010
00000000
00000001
00000100
,
00000000
00001000
00010000
00000000
00100000
10100000
00000000
10000000
,
00100000
01000000
00001000
01000000
00100000
00000000
10000000
01000000
,
00000000
00000000
00010000
00000000
00001000
00000000
00000000
00000000
00000010
00000100
00000010
00000100
00002000
00000000
00000000
00000000
,
00003010
00000100
00010000
00000100
00000010
00000000
00001000
00010000
,
00000000
00000000
00000000
01000000
00000000
00000000
00001000
00000000
00000000
00000000
00000000
00000000
00100000
00000000
00010000
00000000
00100000
00000000
00001000
00000000
00010000
00000000
00000100
00000000
,
00000010
00000100
00010000
00001000
00000010
00000000
00000001
00000100
,
00000000
00001000
00010000
00000000
01000000
10000000
00100000
10000000
,
01000000
00100000
01000000
00100000
00010000
00100000
00010000
00100000
01000000
00000000
00000000
00000000
00010000
00000000
00001000
00000000
,
00000000
00000000
00000010
00000000
00000100
00000000
00000000
00000000
00001000
00000000
00000010
00000000
00000000
00000000
00010000
00000100
,
00020000
00000000
00000000
00000000
00031000
01000000
00002000
00000000
00000000
00000000
00013000
00000010
00020000
00000000
00000000
00000000
,
00031000
00100000
00002000
00000000
00000000
00000000
01003000
00010000
10000000
00000000
10000000
00000000
01000000
00000000
00010000
00000000
,
00001000
00100000
00001000
00100000
00010000
00100000
00010000
00100000
00001000
00000000
00000000
00000000
00010000
00000000
00000010
00000000
,
00000000
00000000
00000100
00000000
00001000
00000000
00000000
00000000
00010000
00000000
00100000
00000000
00000000
00000000
01000000
00001000
,
00020000
00000000
00000000
00000000
00030100
00010000
00002000
00000000
00000000
00000000
00103000
00000000
02000000
00000000
00000000
00000000
,
03000000
00000000
00010000
00010000
00001000
00001000
00000010
00000100
,
00000110
00000000
00000020
00000001
,
00000230
00000000
00000000
00001000
00000000
00000000
00010000
00000000
00000000
00001300
00000010
00010000
,
00001000
00100000
02000000
10000000
,
03200000
00000000
00000000
00000000
00010000
00000000
00000000
00000000
00001000
00000000
00000000
00000000
00310000
00000000
00000000
00100000
,
01000000
10000000
00020000
01000000
,
00230000
00000000
01000000
00000000
00010000
00000000
00301000
00001000
,
00010000
00000000
00000010
00000000
00000100
00000001
00001001
00000000
,
00002000
00000000
00000000
00000000
00003100
00000000
00010000
00000000
00001000
00010000
00001000
00010000
00001000
00010000
00001000
00010000
,
00000010
00000000
00000000
00000010
00001000
00000000
00000100
00000000
00010000
00001000
00100000
00010000
00100000
00000000
00000000
00100000
,
00010000
00000000
01000000
00000000
00001000
00010000
00000010
00001000
00000010
00000000
00000000
00000010
00010000
00000000
00001000
00000000
,
01000000
00000000
00000000
01000000
00010000
00000000
00100000
00000000
00001000
00010000
00000100
00001000
00000100
00000000
00000000
00000100
,
00001000
00000000
00000010
00000000
00010000
00001000
01000000
00010000
01000000
00000000
00000000
01000000
00001000
00000000
00010000
00000000
,
00000100
00000000
00000000
00000100
00001000
00000000
00000010
00000000
00010000
00001000
01000000
00010000
01000000
00000000
00000000
01000000
,
00010000
00000000
00100000
00000000
00001000
00010000
00000100
00001000
00000100
00000000
00000000
00000100
00010000
00000000
00001000
00000000
,
01000000
00000000
00000000
01000000
00010000
00000000
00100000
00000000
00001000
00010000
00001000
00010000
00000010
00000000
00000000
00000000
,
00002002
00003003
00000000
00000000
00001000
00000100
00010000
00001000
00100000
00010000
00100000
00001000
00010000
00000000
00100000
00000000
,
01000000
00000000
00010000
00000000
10000000
01000000
10000000
01000000
00100000
01000000
00100000
01000000
00020000
00000000
00000000
00000000
,
00001000
00000000
00000000
00000000
00030010
00001000
00000010
00001000
00000001
00000100
00000001
00000100
00000020
00000000
00000000
00000000
,
00001030
00000000
00000100
00000000
00010000
00001000
00010000
00001000
01000000
00010000
01000000
00010000
20000000
00000000
00000000
00000000
,
01000000
00000000
00000000
00000000
30200000
00000000
02300000
00000000
03002000
00000000
00023000
00000000
00030010
00000000
00000100
00000001
,
00001000
00000000
00000100
00000000
00010000
00001000
00100000
00001000
00010000
00000100
00010000
00001000
01000000
00000000
00100000
10000000
,
00010000
00000000
00100000
00000000
01000000
10000000
00010000
00100000
00010000
10000000
00100000
10000000
02000000
00000000
00000000
00000000
,
03100000
00000000
00001000
00000000
00010000
00000100
00010000
00000100
00001000
00000001
00001000
00000001
00000100
00000000
00000000
00000000
,
00000010
00000000
00001001
00000000
00000000
00000000
00001000
00000000
00000100
00000000
00010000
00000000
00001000
00000000
00001000
01000000
,
00010000
00110000
00000000
01001000
00000000
00010100
00000000
00011000
,
00011000
00000000
00000000
00000000
00001000
00010000
00001000
00010000
00001000
00010000
00001000
00010000
00000100
00000000
00001000
00000000
,
00000010
00000000
00000100
00000000
00000001
00000010
00000001
00000010
00000100
00000010
00000100
00000010
00000001
00000000
00000100
00000000
,
00000010
00000000
00001000
00000000
00000100
00010000
00000100
00010000
00001000
00010000
00001000
00010000
00000100
00000000
00001000
00000010
,
00001000
00000000
00000100
00000000
00010000
00001000
01000000
00010000
01000000
00001000
00010000
00001000
00100000
00000000
00100000
01000000
,
20000000
00000000
00000000
00000000
30010000
01000000
00001000
00010000
00002000
00000000
00000000
00000000
00003010
00000000
00000010
00000000
,
00000000
00000001
00000101
00000000
00001000
00001100
00000000
00010000
,
00011000
00000000
00000000
00000000
01000000
00010000
01000000
00010000
10000000
00010000
10000000
00010000
00100000
00000000
01000000
10000000
,
01000000
01100000
00000000
00101000
00000000
00010010
00000000
00000110
,
00000000
00000000
00001001
00000000
00000000
00000000
00011000
00000000
00000000
00000000
01000000
00000000
00010000
00000000
10000000
00010000
,
10000000
11000000
00000000
00101000
00000000
00010010
00000000
00000101
,
00000000
00000000
00001001
00000000
00000000
00000000
00010000
00001000
00010000
00001000
00010000
00001000
00100000
00000000
00010000
10000000
,
01000000
00000000
00100000
01000000
00100000
00000000
00010000
00100000
00010000
00000000
00100000
00001000
00100000
00000000
00001000
00010000
,
00001000
00000000
00000000
00000000
00000000
00000000
00010000
00000000
00000000
00000010
00000000
00000000
00010000
00000000
00000000
00000000
00000000
00000000
00000010
00000000
00000000
00001000
00000000
00000000
00000001
00000000
00000000
00000000
00000000
00000000
00000010
00000000
00000000
00000000
00000000
00000000
00000100
00000000
00000000
00000000
00001000
00000000
00000000
00000000
00000100
00000000
00000000
00000000
,
00010000
00001000
00010000
00100000
01000000
00100000
10000000
00010000
10000000
01000000
00010000
00001000
,
00100000
00000000
00000000
00000000
00001000
00000000
00000000
00000000
00010000
00000000
00000000
00000000
00000100
00000000
00000000
00000000
00010000
00000000
00000000
00000000
00001000
00000000
00000000
00000000
00000010
00000000
00000000
00000000
00001000
00000000
00000000
00000000
00010000
00000000
00000000
00000000
00100000
00000000
00000000
01000000
00000000
00000000
00100000
00000000
00000000
00000000
00000000
00000000
,
10000000
00000000
01000000
00100000
01000000
00000000
00010000
00000000
00001000
00100000
00001000
00000000
00010000
00000000
00000010
00001000
,
00000010
00000000
00010000
00000000
00001000
01000000
00001000
00000000
00010000
00000000
00001000
00100000
00010000
00100000
00001000
00000000
,
00010000
00000010
00001000
00000010
00010000
00000000
00001000
01000000
00010000
01000000
00001000
00000000
00010000
00000100
00001000
00000100
,
00010000
00000000
00001000
00100000
00010000
00100000
01000000
00100000
00010000
00100000
00002000
00000000
00000000
00000000
00000000
00000000
,
00000000
00000000
00000000
00000000
,
00003000
00000000
00000000
00000000
;
