#VERSION:0.83;
#TITLE:Mayohiga Spurt;
#SUBTITLE:;
#ARTIST:さわわ;
#TITLETRANSLIT:;
#SUBTITLETRANSLIT:;
#ARTISTTRANSLIT:Sawawa;
#GENRE:;
#CREDIT:;
#MUSIC:Mayohiga Spurt.ogg;
#BANNER:Mayohiga Spurt.png;
#BACKGROUND:Mayohiga Spurt-bg.png;
#CDTITLE:./CDTitles/SDVX III GRAVITY WARS.png;
#SAMPLESTART:86.723;
#SAMPLELENGTH:15.000;
#SELECTABLE:YES;
#OFFSET:0.764;
#BPMS:0.000=192.000
,373.000=384.000
,381.000=192.000
;
#STOPS:327.500=0.313
,371.000=0.156
,371.500=0.156
,372.000=0.156
,372.500=0.156
;
#TIMESIGNATURES:0.000=4=4,
324.000=7=4,
331.000=4=4,
371.000=2=4,
373.000=4=4
;
#DISPLAYBPM:192.000;
#BGCHANGES:0.000=../BGAs/19cy.mp4=1.000=0=0=0=StretchNoLoop====,
99999.000=-nosongbg-=1.000=0=0=0=StretchNoLoop====
;
#FGCHANGES:;

//--------------- dance-single - forcednature ----------------
#NOTEDATA:;
#STEPSTYPE:dance-single;
#DESCRIPTION:forcednature;
#DIFFICULTY:Beginner;
#METER:3;
#RADARVALUES:0,0,0,0,0;
#CREDIT:forcednature;
#NOTES:
0000
0000
0000
0000
,
0000
0000
0000
0000
,
0000
0000
0000
0000
,
0000
0000
0000
0000
,
0000
0000
0000
0000
,
1000
0000
0000
0000
,
0001
0000
0000
0000
,
0100
0000
0000
0000
,
0010
0000
0000
0000
,
1000
0000
0000
0000
,
0001
0000
0000
0000
,
0010
0000
0000
0000
,
0100
0000
0000
0000
,
1000
0000
0000
0000
,
0000
0000
0000
0000
,
0001
0000
0000
0000
,
0100
0000
0000
0000
,
0001
0000
0000
0000
,
0000
0000
0000
0000
,
1000
0000
0000
0000
,
0100
0000
0000
0000
,
0010
0000
0000
0000
,
0001
0000
0000
0000
,
0010
0000
0000
0000
,
0000
0000
0000
0000
,
0100
0000
0000
0000
,
1000
0000
0000
0000
,
0100
0000
0000
0000
,
0010
0000
0000
0000
,
0001
0000
0000
0000
,
0000
0000
0000
0000
,
1000
0000
0000
0000
,
0010
0000
0000
0000
,
1000
0000
0000
0000
,
0001
0000
0000
0000
,
0010
0000
0010
0000
,
0100
0000
0000
0000
,
1000
0000
0000
0000
,
0001
0000
0000
0000
,
0100
0000
0000
0000
,
0010
0000
0000
0000
,
1000
0000
0000
0000
,
0001
0000
0000
0000
,
0010
0000
0000
0000
,
0100
0000
0000
0000
,
1000
0000
0000
0000
,
0001
0000
0000
0000
,
0100
0000
0000
0000
,
0010
0000
0000
0000
,
1000
0000
0000
0000
,
0001
0000
0000
0000
,
0010
0000
0010
0000
,
0100
0000
1000
0000
,
0002
0000
0000
0000
,
0000
0000
0000
0000
,
0000
0000
0000
0000
,
0000
0000
0003
0000
,
0100
0000
0000
0000
,
0010
0000
0000
0000
,
1000
0000
0000
0000
,
0001
0000
0000
0000
,
0010
0000
0000
0000
,
0100
0000
0000
0000
,
1000
0000
0000
0000
,
0001
0000
0000
0000
,
0100
0000
0000
0000
,
0010
0000
0000
0000
,
1000
0000
0000
0000
,
0001
0000
0000
0000
,
0000
0000
0000
0000
,
1000
0000
0100
0000
,
1000
0000
0000
0000
,
0001
0000
0100
0000
,
0001
0000
0000
0000
,
0010
0000
0100
0000
,
0010
0000
0000
0000
,
0001
0000
1000
0000
,
0001
0000
1000
0000
,
0010
0000
0100
0000
,
0001
0000
0100
0000
,
0010
0000
0010
0000
,
1000
0000
0001
0000
,
0010
0000
0000
0100
,
0000
1000
0000
0001
,
0000
0000
0000
0100
,
0000
0001
0000
1000
,
0000
0010
0000
1000
,
0000
0010
0000
0100
,
0000
0001
0000
1000
,
0000
0000
0000
1001
,
0000
0010
0000
1001
,
0000
0100
0000
1000
,
0000
0001
0000
0100
,
0000
0020
0000
0000
,
0000
0000
0000
0000
,
0000
0030
0000
0000
;

//--------------- dance-single - forcednature ----------------
#NOTEDATA:;
#STEPSTYPE:dance-single;
#DESCRIPTION:forcednature;
#DIFFICULTY:Easy;
#METER:9;
#RADARVALUES:0,0,0,0,0;
#CREDIT:forcednature;
#NOTES:
0000
0000
0000
0000
,
0000
0000
0000
0000
,
0000
0000
0000
0000
,
0000
0000
0000
0000
,
0000
0000
0000
0000
,
1001
0000
0001
0100
,
0010
1000
0001
0001
,
0010
0000
0100
1000
,
0001
0000
0000
0100
0000
0000
0001
0000
,
1000
0000
0000
0100
0000
0000
1000
0000
,
0001
0000
0000
0100
0000
0000
0001
0000
,
0010
0010
0100
0100
,
1000
0001
0100
0000
,
0010
1000
0001
0001
,
0010
0100
1000
0000
,
0010
0100
0001
0001
,
0010
0100
1000
0010
,
0100
0001
1000
1000
,
0100
1000
0010
0000
,
0100
0001
0010
0100
,
0220
0000
0000
0330
,
1000
0001
0100
0001
,
0010
0100
1000
0001
,
0100
0010
1000
0100
,
1000
0010
0100
0000
,
0001
0010
0100
0010
,
0001
0100
0010
0100
,
0001
1000
0100
1000
,
0010
0100
0001
0000
,
1000
0100
0010
0100
,
1000
0010
0100
0010
,
1000
0001
0010
0001
,
1000
0010
0100
0000
,
0001
0001
1000
0100
,
1000
1000
0001
0100
,
0010
1000
0001
0010
,
0100
0000
1000
0001
,
1001
0000
0001
0100
,
0010
1000
0100
0010
,
1000
0001
0010
0001
,
0100
0010
1000
0001
,
0010
0100
1000
0000
,
0001
0100
0010
1000
,
0001
0000
0010
0100
,
1000
1000
0001
0001
,
0100
0000
0010
1000
,
0001
0010
0001
1000
,
0010
0100
0001
0010
,
0100
1000
0100
0010
,
0001
0001
0100
0001
,
1000
1000
0100
1000
,
0010
0100
0001
1000
,
0100
0110
0010
0001
,
2000
0000
0100
0000
,
0001
0000
0010
0000
,
0001
0000
0100
0000
,
0001
0000
3010
0000
,
1000
0100
0010
0010
,
0001
1000
0010
0100
,
0001
0100
0010
0010
,
2002
0000
0000
3003
,
1000
0100
1000
0001
,
0100
0010
1000
0001
,
0010
0100
1000
0001
,
1000
0010
0100
0100
,
0001
0010
0001
0100
,
0010
1000
0100
1000
,
0010
0100
0001
1000
,
0100
0100
0010
0010
,
0002
0000
0000
0003
,
0100
0001
0100
0010
,
2000
0000
0000
3002
0000
0000
0003
0000
,
0010
0100
1000
0010
,
0200
0000
0000
0302
0000
0000
0103
0000
,
0002
0000
1003
0010
,
1000
0100
0010
0000
,
0100
1000
0001
0010
,
0002
0000
0000
0203
0000
0000
0301
0000
,
2000
0000
0000
3020
0000
0000
2030
0000
,
3002
0000
0000
0023
0000
0000
0032
0000
,
1003
1000
0001
0001
,
0100
0010
1000
0001
,
0010
0100
1000
0002
,
0000
0203
0000
0000
0300
0000
0010
0000
,
1000
0100
1000
0020
,
0000
0230
0000
0000
0301
0000
0010
0000
,
0000
0100
1000
0001
,
0100
0001
1000
0010
,
1000
0001
0010
0200
,
0000
2300
0000
0000
3200
0000
0310
0000
,
0010
0001
1000
0010
,
0010
1000
0001
0100
,
0001
0000
1000
0000
0001
0000
1000
1000
,
0001
0001
0200
0000
0000
0000
0000
0000
,
0000
0000
0000
0000
,
0000
0300
0000
0000
;

//--------------- dance-single - forcednature ----------------
#NOTEDATA:;
#STEPSTYPE:dance-single;
#DESCRIPTION:forcednature;
#DIFFICULTY:Medium;
#METER:13;
#RADARVALUES:0,0,0,0,0;
#CREDIT:forcednature;
#NOTES:
0000
0000
0000
0000
,
0000
0000
0000
0000
,
0000
0000
0000
0000
,
0000
0000
0000
0000
,
0000
0000
0000
0000
,
1001
0000
0000
0001
0000
0000
0100
0000
,
0110
0010
1000
0001
,
1001
1000
0100
0010
,
0110
0000
0000
1001
0000
0000
0001
0000
,
0101
0000
0000
1000
0000
0000
0010
0000
,
1100
0000
0000
0001
0000
0000
0010
0000
,
1000
0000
0000
0100
0000
0000
1000
0000
0001
0000
0000
0100
0000
0000
0001
0000
,
0010
0110
2002
3003
,
1000
0100
0010
0000
0001
0000
0011
0000
,
0010
0100
1000
0000
0001
0100
0010
0000
,
1000
0001
0010
0100
0000
0100
0000
0010
,
0001
0000
1000
0000
0010
0100
0010
0000
,
1000
0100
1000
0000
0001
0000
0011
0000
,
0001
0100
0001
0000
1000
0100
1000
0000
,
0010
0000
0010
0100
0000
0001
0000
0010
,
0200
0000
0300
0000
1000
0001
1000
0001
,
0200
0000
0000
0310
2000
0000
0000
3001
,
0200
0302
0023
0230
,
2300
0000
3010
0100
0010
0000
1000
0000
,
0002
0010
1000
1000
,
0203
0000
0000
0301
0020
0000
0000
0130
,
2000
3002
0203
0320
,
2030
0000
3100
0010
0100
0000
1000
0000
,
1001
0110
1001
0001
,
0200
0000
0310
1000
0020
0000
0130
0001
,
0200
0320
2030
3002
,
0023
0000
0130
1000
0100
0010
0001
0010
,
0200
1000
0001
0310
,
0100
1000
0100
1000
0001
0010
0001
0000
,
0100
0001
0100
0001
1000
0010
1000
0000
,
1001
0000
0000
0000
0001
0000
0100
0000
0010
0000
0000
0010
0000
0000
1000
0000
,
0001
0010
1001
0110
,
1001
0000
0001
0100
0001
1000
0010
0000
,
1000
0100
0010
0001
0010
0100
1000
0000
,
0010
0100
0010
1000
0100
0010
0100
1000
,
0001
0010
0001
0100
0010
0000
1000
0000
,
0001
0010
0001
1000
0100
0000
1000
0100
,
0010
0001
1000
0000
0001
0100
0010
1000
,
0002
0000
0010
0000
1003
0001
0100
0000
,
0110
1001
0110
1001
,
0001
0000
0100
0010
0100
0001
1000
0000
,
0100
0010
0100
1000
0001
0010
0001
0000
,
1000
0010
1000
0000
0001
0100
0001
0000
,
1000
0100
0010
0001
0100
0000
0010
0000
,
1000
0100
1000
0100
0010
0001
0010
0000
,
0001
0100
0001
0100
0010
1000
0010
0000
,
1000
0100
1000
0000
0001
0100
0001
0000
,
1001
0000
0110
0000
0010
0010
0010
0000
,
2001
0100
0001
0001
,
3010
1000
0001
0100
,
0002
0100
1000
1000
,
0013
0001
1000
0100
,
1000
0010
1000
0001
0100
0000
0100
0000
,
0001
0010
0100
1000
0010
0000
0110
0000
,
0100
0001
0010
0001
1000
0000
1000
0000
,
2002
0000
0000
3003
,
0001
0010
0100
0000
1000
0100
0010
0000
,
0001
1000
0010
0000
0100
0001
1000
0000
,
0100
1000
0100
0010
0100
1000
0100
0000
,
0010
0001
0010
0100
0010
0001
0010
0000
,
0100
1000
0100
1000
0001
0100
0001
0000
,
0010
0001
0010
0001
1000
0010
1000
0000
,
0100
1100
0010
0011
,
0100
1000
0001
0100
0010
1000
0001
0010
,
0200
0000
0000
0300
,
0010
0001
1000
0001
0100
0010
1000
0001
,
0020
0000
0000
0230
0000
0000
0000
0000
,
1300
0001
0100
0010
1000
0100
1000
0001
,
0200
0000
0000
0320
0000
0000
2030
0000
,
3002
0000
0000
0013
0100
1000
0100
0000
,
0010
0001
0010
0000
0100
0100
0100
0000
,
1000
0001
0100
0010
1000
0001
0010
0001
,
2000
0000
0000
3020
0000
0000
0230
0000
,
0302
0000
0000
0000
0000
0000
0023
0000
0000
0030
0000
0000
1100
0000
0000
0000
,
2000
0000
0000
0000
0000
0000
3020
0000
0000
0030
0000
0000
0101
0000
0000
0000
,
0001
0000
0000
1000
0000
0000
0100
0000
1000
0000
0000
0001
0000
0000
0100
0000
,
0010
0000
1000
0000
0001
0000
1000
0000
0100
0000
0010
0000
0001
0000
0200
0300
,
0010
1000
0001
0010
0001
1000
0020
0000
,
0000
0230
0000
0000
0000
0000
0301
0010
,
0100
1000
0100
0010
0001
1000
0020
0000
,
0000
0230
0000
0000
0302
0000
0023
0000
,
0000
0130
1000
0001
0100
0000
0010
1000
,
0100
1000
0010
0010
0010
0000
0100
0001
,
0010
0001
1000
0010
1000
0001
0020
0000
,
0000
0230
0000
0000
2300
0000
3001
0100
,
0001
0010
0001
0100
0001
0000
1000
0100
,
1000
0000
0010
0000
1000
0000
0100
0000
1000
0000
0000
0000
0010
0000
0000
0100
,
0000
0000
0000
0000
0000
0000
0001
0000
0000
0000
0000
0000
0010
0000
0000
0000
0000
0000
0000
0000
0000
0100
0000
0000
0000
0000
0000
0000
0000
0000
1000
0000
0000
0000
0000
0000
0002
0000
0003
0000
0000
0000
2000
0000
3000
0000
0000
0000
,
2002
3003
0000
0220
0330
0000
2002
0000
0000
0000
0000
0000
0000
0000
0000
0000
0000
0000
0000
0000
0000
0000
0000
0000
,
0000
0000
0000
0000
,
0000
3003
0000
0000
;

//--------------- dance-single - forcednature ----------------
#NOTEDATA:;
#STEPSTYPE:dance-single;
#DESCRIPTION:forcednature;
#DIFFICULTY:Hard;
#METER:16;
#RADARVALUES:0,0,0,0,0;
#CREDIT:forcednature;
#NOTES:
0000
0000
0000
0000
,
0000
0000
0000
0000
,
0000
0000
0000
0000
,
0000
0000
0000
0000
,
0000
0000
0000
0000
,
1001
0000
0000
1000
0100
0010
0001
0000
,
0100
0000
0100
0000
0010
0000
0000
0000
1000
0100
1000
0000
0001
0010
0001
0000
,
0100
0001
0100
0010
1000
0001
0010
0100
,
1100
0000
0000
0011
0000
0000
1001
0000
,
0201
0000
0000
1000
0000
0000
0301
0000
,
1020
0000
0000
0001
0000
0000
1030
0000
,
0110
0000
0000
0001
0000
0000
1000
0000
0110
0000
0000
1000
0000
0000
0001
0000
,
1001
0110
2002
3003
,
1000
0100
0001
0000
0101
0000
0110
0000
,
0010
0001
1000
0001
0100
0010
0001
0000
,
0010
1000
0100
0010
0000
0110
0000
0100
,
1000
0001
0100
0010
0001
0010
1000
0000
,
0001
0010
0100
0000
0101
0000
1100
0000
,
1000
0001
0100
0010
1000
0001
0010
0000
,
1000
0010
0001
0100
0000
0110
0000
0010
,
2000
0000
0100
0000
3010
1000
0001
0010
,
0100
0000
0001
0100
1000
0000
0001
0010
,
1000
0000
0000
1000
0010
0000
0000
0010
0100
0000
0000
0100
1000
0000
0000
1000
,
0001
0000
0100
1000
0100
0010
1000
0001
,
0020
0130
1000
1000
,
0001
0000
0100
1000
0001
0000
0010
1000
,
0001
0000
0000
0001
0010
0000
0000
0010
0100
0000
0000
0100
1000
0000
0000
1000
,
0001
0000
0100
1000
0100
0010
1000
0001
,
0010
0110
1001
0002
,
0203
0000
1300
0001
0020
0000
1030
0001
,
0100
0000
0000
0100
0010
0000
0000
0010
1000
0000
0000
1000
0100
0000
0000
0100
,
0002
0000
0103
0010
0001
1000
0010
0100
,
1000
0000
0001
0010
0100
0000
0100
0000
,
0110
0000
0010
0000
1000
0000
0001
0000
0010
0000
0001
0000
0100
0000
0010
1000
,
0010
0000
0100
0000
0001
0000
1000
0000
0100
0000
0001
0000
0100
0000
0010
0001
,
0010
0000
0100
1000
0100
0000
1000
0010
0100
0000
0000
0101
0000
0000
0001
0000
,
0011
0000
0000
1000
0100
0000
0000
0000
2000
0000
0000
0000
3002
0000
0000
0000
,
0203
0000
0000
0000
0310
0000
1000
0000
0001
0000
0010
0100
0010
0000
0001
0000
,
1000
0000
0010
0000
0100
0000
0001
1000
0100
0000
0010
0000
0001
0000
0100
0000
,
0010
0000
1000
0100
1000
0000
0010
0000
0001
0000
0010
0000
0100
0000
0001
0000
,
1000
0100
0001
1000
0020
0000
0032
0000
,
0103
0000
0010
1000
0010
0000
0100
0000
2000
0000
0000
0000
3100
0000
0001
0000
,
0010
0000
0100
1000
0100
0000
0010
0000
1000
0000
0010
0000
0001
0000
0100
0000
,
0020
0000
1030
0001
0010
0001
0100
0010
,
1010
0000
0000
0000
1100
0000
0000
0000
0001
0000
0010
0100
1000
0000
0001
0000
,
0100
0000
0000
0000
0010
0000
1000
0000
0001
0000
0010
0001
1000
0000
0001
0000
,
0100
0000
0010
0000
1000
0000
0010
0100
0001
0000
1000
0000
0100
0000
0001
0000
,
0100
0000
0010
0001
1000
0000
0010
0000
0100
0000
1000
0000
0100
0000
0001
0000
,
0011
0000
0000
0000
1100
0000
0000
0000
1000
0000
0001
0100
0001
0000
0010
0000
,
0100
0000
1000
0000
0100
0000
0010
0000
0100
0000
1000
0000
0100
0000
0010
0001
,
0010
0000
0100
0000
0010
0000
0001
0000
1000
0000
0001
0100
0001
0000
1000
0010
,
1000
1000
0100
0100
0010
0010
0001
0001
,
0100
0000
0000
0000
1001
0000
0000
0000
1000
0100
0010
0001
0200
0000
0000
0000
,
0310
1000
0100
0100
,
0020
1000
0100
0031
,
0010
0001
0100
0100
,
0020
0001
0100
1030
,
0010
1000
0100
1000
0001
0000
0001
0000
,
0010
0100
1000
0001
0100
0000
0110
0000
,
0010
1000
0001
0010
0100
0000
0100
0000
,
2002
0000
0000
3003
,
1000
0100
0001
0100
1000
0010
0001
1000
,
0100
0001
0010
0100
0001
1000
0010
0100
,
1000
0010
0100
1000
0001
0010
0100
0001
,
1000
0000
0100
0000
0001
0000
0100
0000
0010
0001
0010
0000
0001
0010
0001
0000
,
1000
0010
0100
0010
0001
0010
1000
1000
,
0001
0010
0100
0010
1000
0010
0001
0001
,
1000
0100
1000
0000
0001
0000
0010
0000
0001
0100
0001
0000
1000
0000
0010
0000
,
0100
1000
0100
0000
0010
0100
0010
0000
0100
0001
0100
0000
0001
1000
0001
0000
,
0020
0000
0000
0130
,
0010
0001
1000
0000
0010
0000
0100
0000
0001
0000
0010
0000
0001
0000
0100
0000
,
0020
0000
1000
2030
0000
0000
0100
3000
,
1000
0010
1000
0000
0001
0000
0010
0000
0100
0000
0001
0000
0100
0000
1000
0000
,
0020
0000
0100
0230
0000
0301
0010
0100
,
2000
0000
3010
0100
0001
0010
0200
0000
,
0301
0000
0100
0000
1000
0000
0100
0000
0010
0001
0010
0100
1000
0100
0010
0000
,
0001
1000
0001
0000
0100
0000
0010
0000
1000
0000
0100
0000
0001
0000
0100
0000
,
0020
0000
0001
0032
0000
0103
1000
0100
,
0020
0000
1030
0100
0001
0000
0210
0000
,
0320
0000
0031
0100
1000
0000
0210
0000
,
0301
0000
0000
0011
0000
0000
1100
0000
1000
0000
0000
1010
0000
0000
0101
0000
,
0001
0010
0001
0000
1000
0100
1000
0000
0010
0000
0010
0000
0100
0000
2002
3003
,
0001
0100
1000
0100
0010
1000
0002
0000
,
0010
0000
2003
0000
0100
0000
0000
0000
0001
0000
3000
0000
1000
0010
1000
0000
,
0100
0001
0100
0010
0001
1000
0020
0000
,
0100
2030
0000
3100
0001
0100
0020
0000
,
0031
0100
1000
0100
0020
0000
1030
0001
,
0010
0000
0001
0000
0100
0010
1000
0010
0100
0001
1000
0000
0001
0010
0001
0000
,
0100
0010
1000
0001
0010
1000
0020
0000
,
0100
0032
0000
0103
1000
0100
0110
0010
,
1000
0000
0100
0000
0001
0000
0100
0000
0010
0000
0001
1000
0010
0000
0100
0000
,
1000
0000
0100
0000
0001
0000
0010
0000
0001
0000
1000
0010
1000
0000
0000
1100
,
0000
0000
0000
0000
0000
0000
0011
0000
0000
0000
0000
0000
0001
0000
0000
0000
0000
0000
0000
0000
0000
0101
0000
0000
0000
0000
0000
0000
0000
0000
1010
0000
0000
0000
0000
0000
2200
0000
3300
0000
0000
0000
0022
0000
0033
0000
0000
0000
,
0202
0303
0000
2020
3030
0000
2002
0000
0000
0000
0000
0000
0000
0000
0000
0000
0000
0000
0000
0000
0000
0000
0000
0000
,
0000
0000
0000
0000
,
0000
3003
0000
0000
;

//--------------- dance-double - forcednature ----------------
#NOTEDATA:;
#STEPSTYPE:dance-double;
#DESCRIPTION:forcednature;
#DIFFICULTY:Easy;
#METER:10;
#RADARVALUES:0,0,0,0,0;
#CREDIT:forcednature;
#NOTES:
00000000
00000000
00000000
00000000
,
00000000
00000000
00000000
00000000
,
00000000
00000000
00000000
00000000
,
00000000
00000000
00000000
00000000
,
00000000
00000000
00000000
00000000
,
00011000
00000000
00001000
00000000
,
01000000
00010000
01000000
00000000
,
00100000
00000000
10000000
00000000
,
10010000
00000000
00010000
00000000
,
00220000
00000000
00330000
00000000
,
00022000
00000000
00033000
00000000
,
00002020
00003030
00000220
00000330
,
00000001
00001000
00000001
00000000
,
00000010
00000100
00001000
00000100
,
00010000
00001000
00010000
00000000
,
00001000
01000000
00010000
01000000
,
00100000
10000000
00100000
00000000
,
01000000
00010000
01000000
00001000
,
00010000
00001000
00100000
00000000
,
00001000
00010000
00000010
00001000
,
00000020
00000000
00000130
00000001
,
00001001
00000000
00000110
00000000
,
00000001
00000010
00000100
00001000
,
00000100
00010000
00001000
00100000
,
00010000
10000000
00010000
00000000
,
10010000
00000000
01100000
00000000
,
10000000
00100000
10000000
00010000
,
01000000
00001000
00010000
00000010
,
00001000
00000001
00001001
00000000
,
00001000
00000100
00010000
00001000
,
01000000
00010000
00100000
01000000
,
00100000
00010000
10000000
00100000
,
10000000
00010000
10000000
00000000
00010000
00000000
00000000
00000000
,
00100000
00100000
01000000
00100000
,
00001000
00001000
00010000
00001000
,
00000100
00000000
00000010
00000100
00000010
00000000
00001000
00000000
,
00000001
00001001
00000100
00001001
,
00001000
00000000
00000100
00000000
00010000
00001000
00010000
00000000
,
00001000
00000000
01000000
00000000
00010000
01000000
00010000
00000000
,
01000000
00000000
00100000
00000000
10000000
00010000
10000000
00000000
,
01000000
00100000
00001000
00010000
,
00000100
00000000
00001000
00000000
00000001
00001000
00000001
00000000
,
00000100
00000000
00000010
00000000
00001000
00000001
00001000
00000000
,
00000100
00010000
00001000
01000000
,
00100000
10010000
01000000
10010000
,
10000000
00000000
01000000
00000000
00100000
01000000
00100000
00000000
,
00001000
00000000
00010000
00000000
00001000
00010000
00001000
00000000
,
00010000
00000000
00000010
00000000
00001000
00000010
00001000
00000000
,
00000001
00000000
00000010
00000000
00000100
00000010
00000100
00000000
,
00001000
00000100
00010000
00010000
,
00001000
01000000
00010000
00010000
,
10000000
00010000
10000000
00000000
00010000
10000000
00010000
00000000
,
01000000
00100000
01100000
10010000
,
20000000
00000000
32000000
00000000
,
03200000
00000000
00302000
00000000
,
00023000
00000000
00030200
00000000
,
00000320
00000000
00000032
00000000
,
00000103
00001000
00000100
00000001
,
00000010
00000100
00010000
00001000
,
00100000
01000000
00010000
01000000
,
20000000
00000000
00000000
00000000
,
30010000
00000000
01000000
00000000
10000000
01000000
10000000
00000000
,
01000000
00010000
00100000
01000000
,
00010000
00000000
00001000
00000000
00100000
00010000
00100000
00000000
,
00001000
00010000
00000010
00001000
,
00000100
00000000
00000001
00000000
00000100
00001000
00000100
00000000
,
00010000
00000000
00001000
00000000
01000000
00010000
01000000
00000000
,
00100000
10000000
00100000
00000000
10000000
01000000
10000000
00000000
,
01000000
00010000
00001000
00000010
,
00000220
00000000
00000000
00000330
,
00000100
00001000
00000100
00000000
00010000
00000000
00001000
00000000
,
01000000
10010000
00100000
10010000
,
00010000
01000000
00010000
00000000
00100000
00000000
00001000
00000000
,
00010000
00011000
00001000
00011000
,
00010000
00001000
00000100
00000001
,
00000100
00001000
00010000
01000000
,
10000000
01000000
10000000
00000000
00010000
00000000
00100000
00000000
,
00001000
00011000
00010000
00011000
,
00001000
00000010
00000100
00000110
,
00000010
00000001
00000100
00000101
,
00000001
00000001
00001000
00001000
,
00000100
00001000
00000100
00000000
00010000
00000000
00001000
00000000
,
01000000
00010000
10000000
01000000
,
10010000
00000000
00100000
00000000
10010000
00000000
00010000
01000000
,
00010000
00100000
00001000
00010000
,
00011000
00001000
00011000
00010000
,
00000010
00000000
00001000
00000001
00001000
00000000
00000100
00000000
,
00000010
00000001
00000100
00001000
,
00010000
00000000
00001000
00010000
00001000
00000000
01000000
00000000
,
00010000
00100000
00000000
01100000
,
01000000
00010000
00001000
00011000
,
00010000
00001000
00000100
00000001
,
00001001
00000000
00001000
00000000
00001001
00000000
00000001
00000010
,
00000100
00010000
00002000
00000000
00000000
00000000
00000000
00000000
,
00000000
00000000
00000000
00000000
,
00000000
00003000
00000000
00000000
;

//--------------- dance-double - forcednature ----------------
#NOTEDATA:;
#STEPSTYPE:dance-double;
#DESCRIPTION:forcednature;
#DIFFICULTY:Medium;
#METER:14;
#RADARVALUES:0,0,0,0,0;
#CREDIT:forcednature;
#NOTES:
00000000
00000000
00000000
00000000
,
00000000
00000000
00000000
00000000
,
00000000
00000000
00000000
00000000
,
00000000
00000000
00000000
00000000
,
00000000
00000000
00000000
00000000
,
00011000
00000000
00000000
00001000
01000000
00010000
01000000
00000000
,
01100000
00000000
00100000
00000000
10000000
01000000
00010000
00000000
,
00011000
00000000
00001000
00010000
00000100
00000000
00001000
00000001
,
00000010
00000000
00000000
00000110
00000000
00000000
00001001
00000000
,
00000001
00000000
00000000
00000100
00000000
00000000
00001000
00000000
,
00010000
00000000
00000000
01000000
00000000
00000000
10000000
00000000
,
00100000
00000000
00000000
00100000
00000000
00000000
01000000
00000000
00010000
00000000
00000000
00010000
00000000
00000000
01000000
00000000
,
00001000
00011000
00010100
00000000
,
00000100
00001000
00000010
00000000
00000110
00000000
00000101
00000000
,
00000001
00000010
00000100
00000000
00000010
00000100
00010000
00000000
,
00001000
00100000
00010000
00100000
00000000
01100000
00000000
01000000
,
10000000
00010000
01000000
00000000
00001000
00010000
00001000
00000000
,
00010000
00000010
00001000
00000000
00001100
00000000
00000110
00000000
,
00000010
00000001
00001000
00000001
00000100
00000000
00000110
00000000
,
00000010
00010000
00001000
01000000
00000000
01100000
00000000
00100000
,
20000000
00000000
01000000
00000000
30010000
10000000
00100000
00010000
,
00002000
00000000
01003000
00010000
00200000
00000000
01300000
00010000
,
00002000
00003020
00000032
00000203
,
00002300
00000000
00013000
00001000
01000000
00010000
01000000
00001000
,
00100000
00110000
00101000
00011000
,
00020000
00000000
00030100
00001000
00000020
00000000
00000130
00001000
,
00020000
00230000
20300000
32000000
,
03020000
00000000
00031000
00010000
00000100
00001000
00000100
00010000
,
00000010
00001010
00011000
02000000
,
03010000
00100000
01000000
10000000
00200000
00000000
10300000
01000000
,
00020000
00030200
00000320
00002030
,
00023000
00000000
00030010
00001000
00000001
00000100
00001000
00010000
,
00000100
00001100
00011000
00010010
,
00000010
00000100
00001000
00000100
00000010
00000100
00001000
00000000
,
00010000
01000000
00100000
01000000
00010000
01000000
00100000
00000000
,
00001000
00000000
00010000
00000000
00001000
00000000
01000000
00000000
00010000
00000000
00000000
00010000
00000000
00000000
10000000
00000000
,
01000000
01100000
00200000
00302000
,
00003020
00000000
00000130
00001000
00000001
00000010
00000010
00000001
,
00000100
00001000
00010000
00001000
00010000
01000000
10000000
00100000
,
10000000
01000000
01000000
00010000
00001000
00100000
00010000
00100000
,
00001000
00000010
00000100
00000010
00000002
00000000
00002003
00000000
,
00003010
00000100
00001000
00010000
00002000
00000000
01003000
00010000
,
00100000
01000000
01000000
00010000
00000100
00001000
00000010
00010000
,
00002000
00000000
01003000
00010000
00100000
01000000
00010000
00001000
,
00000010
00000000
00000000
00000000
00000110
00000000
00000000
00000000
00001000
00000000
00000001
00001000
00000001
00000000
00000000
00000000
,
00000100
00001000
00010000
00001000
00100000
00100000
00010000
00100000
,
01000000
00010000
00001000
00010000
01000000
00100000
00001000
00010000
,
00000100
00000010
00000010
00001000
00000010
00000001
00001000
00000001
,
00000100
00001000
00010000
00100000
01000000
00000000
10010000
00000000
,
10000000
01000000
10000000
01000000
00100000
01000000
00100000
00001000
,
00010000
00000010
00010000
00000010
00001000
00000010
00000100
00001000
,
00020000
00000000
00030100
00001000
00000010
00001000
00000100
00000010
,
00001000
00000000
00000000
00000000
00011000
00000000
00000000
00000000
00010000
00000000
00001000
00010000
00001000
00000000
00000000
00000000
,
02000000
03020000
00230000
02300000
,
03020000
00032000
00003020
00000030
,
00000200
00002300
00003020
00000230
,
00002300
00023000
00230000
00300000
,
01000000
00010000
10000000
00010000
00100000
00000000
01100000
00000000
,
01000000
00010000
00001000
00010000
00000010
00000000
00000110
00000000
,
00000100
00000001
00001000
00000001
00000010
00000000
00000110
00000000
,
00002002
00000000
00000000
00003003
,
00000001
00000100
00000010
00001000
00000100
00000010
00001000
00010000
,
00000010
00001000
00010000
00001000
00000010
00010000
00001000
00100000
,
00010000
01000000
10000000
01000000
00010000
00100000
10000000
00100000
,
01000000
00010000
00001000
00010000
00000100
00000100
00001000
00001000
,
00001001
00000000
00000001
00000100
00000010
00001000
00010000
01000000
,
00100000
00000000
10000000
01000000
00100000
00010000
00001000
00000100
,
00000010
00000001
00000100
00000001
00001000
00000001
00000100
00000001
,
00000010
00000010
00000100
00000100
00010000
00010000
00001000
00001000
,
00200000
00000000
00000000
00300000
,
00010000
01000000
10000000
01000000
00010000
00100000
01000000
00010000
,
00001000
00010000
00000010
00002000
00000100
00000000
00000001
00003000
,
00000010
00000100
00001000
01000000
00010000
00100000
01000000
00010000
,
00001000
00100000
00010000
00200000
00000000
01300000
00010000
00001000
,
00000010
00000100
00001000
00000010
00010000
00001000
00000020
00000000
,
00000031
00000100
00001000
00010000
00000010
00010000
00001000
00000100
,
00000001
00001000
00000100
00000010
00001000
00010000
00000100
00010000
,
00001000
01000000
00010000
00200000
00000000
01300000
00010000
00001000
,
00011000
00000000
00010000
00000010
00000100
00001000
00010000
00000000
,
00011000
00000000
00001000
00100000
01000000
00010000
00001000
00000000
,
00000010
00000000
00000000
00000100
00000000
00000000
00010000
00000000
00001000
00000000
00000000
00100000
00000000
00000000
01000000
00000000
,
00010000
00000000
01000000
00000000
10000000
00000000
00100000
00000000
10000000
00000000
01000000
00000000
00010000
00000000
00002000
00003000
,
00100000
00010000
01000000
00100000
10000000
01000000
00010000
00001000
,
00100000
00020000
01000000
00000000
10030000
00000000
00010000
00100000
,
01000000
00010000
00001000
00000010
00000100
00010000
00001000
00000100
,
00000001
00000020
00000000
00000031
00000100
00001000
00010000
00000010
,
00010000
00001000
00000010
00000100
00020000
00000000
00031000
00100000
,
01000000
00010000
00001000
00010000
01000000
00100000
00001000
00010000
,
00100000
01000000
00010000
10000000
01000000
00010000
00001000
00100000
,
00010000
01000000
00000000
10000000
01000000
00000000
01010000
00000000
,
00010000
00100000
01000000
00010000
00001000
00010000
00000100
00000000
,
00001000
00000000
00000010
00000000
00000100
00000000
00001000
00000000
00010000
00000000
00000000
00000000
00100000
00000000
00000000
01000000
,
00000000
00000000
00001000
00000000
00010000
00000000
00000000
00000010
00000000
00000000
00000100
00000000
00000001
00000000
00000010
00000000
,
00001000
00010000
00022000
00000000
00000000
00000000
00000000
00000000
,
00000000
00000000
00000000
00000000
,
00000000
00033000
00000000
00000000
;

//--------------- dance-double - forcednature ----------------
#NOTEDATA:;
#STEPSTYPE:dance-double;
#DESCRIPTION:forcednature;
#DIFFICULTY:Hard;
#METER:17;
#RADARVALUES:0,0,0,0,0;
#CREDIT:forcednature;
#NOTES:
00000000
00000000
00000000
00000000
,
00000000
00000000
00000000
00000000
,
00000000
00000000
00000000
00000000
,
00000000
00000000
00000000
00000000
,
00000000
00000000
00000000
00000000
,
00011000
00000000
00000000
00001000
00010000
00000100
00001000
00000000
,
00001100
00000000
00000000
00000000
00000001
00000000
00000000
00000000
00000010
00000100
00000010
00000100
00000010
00000000
00000000
00000000
,
00000001
00000100
00001000
00010000
00001000
00010000
00100000
10000000
,
01000000
00000000
01000000
00010000
00000000
00010000
00001000
00000000
,
00012000
00000000
00000000
00100000
00000000
00000000
01003000
00000000
,
00021000
00000000
00000000
00000010
00000000
00000000
00030100
00000000
,
00010000
00000000
00000000
00001000
00000000
00000000
00000010
00000000
00001000
00000000
00000000
00010000
00000000
00000000
00100000
00000000
,
01000000
01100000
10010000
00000000
,
10000000
01000000
00010000
00000000
00011000
00000000
00101000
00000000
,
00100000
00010000
01000000
00001000
00010000
00001000
00100000
00000000
,
01000000
00010000
00001000
00000010
00000000
00000110
00000000
00000100
,
00001000
00000001
00000100
00000001
00001000
00000010
00000100
00000000
,
00001000
00010000
00100000
00000000
01100000
00000000
10010000
00000000
,
10000000
01000000
00010000
00001000
00100000
00010000
01000000
00000000
,
00100000
00010000
00001000
00000100
00000000
00000110
00000000
00000010
,
00001000
00000001
00001000
00000001
00001000
00000001
00001000
00000001
00000020
00000000
00000230
00000000
00020300
00000000
00032000
00000000
,
00203000
00000000
01300000
00010000
00002000
00000000
01003000
00010000
,
00001000
00000000
00000000
00001000
00000010
00000000
00000000
00000010
00000100
00000000
00000000
00000100
00000001
00000000
00000000
00000001
,
00000010
00000100
00010000
00001000
00100000
01000000
00010000
00001000
,
01000000
00010000
00100000
00000000
00101000
00000000
00010010
00000000
,
00000020
00000000
00000130
00001000
00020000
00000000
00030100
00001000
,
00010000
00000000
00000000
00010000
00100000
00000000
00000000
00100000
01000000
00000000
00000000
01000000
00010000
00000000
00000000
00010000
,
00001000
00100000
01000000
00010000
00001000
00000010
00000100
00010000
,
00011000
01001000
00011000
00000020
,
00001030
00000100
00000001
00000100
00001000
00000001
00000010
00001000
,
00010000
01000000
00100000
00001000
00010000
00100000
10000000
01000000
,
00100000
00001000
00010000
00000010
00000100
00001000
00010000
00000100
,
00000110
00000011
00000110
00001000
,
00000001
00000000
00000100
00000000
00001000
00000000
00010000
00000000
01000000
00000000
10000000
00000000
00100000
00000000
10000000
00100000
,
10000000
00000000
01000000
00000000
00010000
00000000
00001000
00000000
00000100
00000000
00000001
00000000
00000010
00000000
00000001
00000010
,
00000001
00000000
00000010
00000100
00000010
00000000
00000100
00001000
00000100
00000000
00000000
00010100
00000000
00000000
00010000
00000000
,
00002000
01000000
00103000
01100000
,
01000000
00000000
10000000
00000000
00100000
00000000
10000000
00000000
01000000
00000000
00010000
01000000
00010000
00000000
00001000
00000000
,
00100000
00000000
00010000
00000000
01000000
00000000
00001000
00010000
00001000
00000000
00100000
00000000
01000000
00000000
00010000
00000000
,
00001000
00000000
00100000
00010000
00100000
00000000
00001000
00000000
00010000
00000000
00000010
00000000
00000100
00000000
00001000
00000000
,
00000100
00000000
00000001
00000100
00000010
00000000
00001000
00000000
00001001
00000000
00000000
00000000
00000110
00000000
00000000
00000000
,
00000001
00000000
00000010
00000001
00000010
00000000
00000100
00000000
00010000
00000000
00001000
00000000
00100000
00000000
00001000
00000000
,
00010000
00000000
00100000
01000000
00100000
00000000
10000000
00000000
01000000
00000000
00010000
00000000
00001000
00000000
00100000
00000000
,
00120000
00000000
00000000
00000000
10030000
00000000
00100000
00000000
00010000
00000000
00001000
00010000
00001000
00000000
00000010
00000000
,
00000110
00000000
00000000
00000000
00001100
00000000
00000000
00000000
00000001
00001000
00000001
00001000
00000001
00000000
00000000
00000000
,
00000100
00000000
00001000
00000000
00010000
00000000
00100000
00000000
01000000
00000000
00010000
10000000
00010000
00000000
00100000
00000000
,
01000000
00000000
00010000
00000000
00001000
00000000
00100000
00010000
00100000
00000000
00001000
00000000
00010000
00000000
00000010
00000000
,
00000100
00000000
00001000
00010000
00001000
00000000
00010000
00000000
00000100
00000000
00000001
00000000
00000100
00000000
00001000
00000000
,
00000010
00000000
00010000
00001000
00100000
00000000
00010000
00000000
01000000
00000000
00010000
01000000
00100000
00000000
10000000
00000000
,
01000000
00000000
10000000
01000000
00100000
00000000
01000000
00000000
00100000
00000000
00001000
00000000
00010000
00000000
00000100
00001000
,
00000001
00000000
00001000
00000001
00000010
00000000
00000100
00000000
00010000
00000000
00001000
00100000
00010000
00000000
01000000
00000000
,
00100000
10000000
00100000
10000000
00010000
01000000
00010000
01000000
00001000
00010000
00001000
00100000
00010000
00100000
00001000
00010000
,
00001000
00000000
00000000
00000000
00011000
00000000
00000000
00000000
00010000
00000100
00001000
00000100
00000020
00000000
00000000
00000000
,
00000031
00000100
00001000
00000000
00011000
00000000
00011000
00000000
,
00010000
01000000
10000000
00100000
00010000
00000000
00011000
00000000
,
10000000
01000000
00010000
00000000
00011000
00000000
00011000
00000000
,
00001000
00000100
00000001
00000010
00001000
00000000
00011000
00000000
,
00010000
00000010
00001000
00000010
00000100
00001000
00010000
00000100
,
00000010
00001000
00010000
01000000
00100000
00000000
00011000
00000000
,
00001000
00100000
00010000
00100000
01000000
00010000
00001000
01000000
,
02200000
00000000
00000000
03300000
,
00100000
10000000
00100000
10000000
00100000
00000000
10000000
00000000
01000000
00000000
00010000
00000000
00001000
00010000
00001000
00000000
,
00010000
00001000
00010000
00000010
00001000
00000000
00000001
00000000
00000010
00000000
00000100
00000000
00001000
00000100
00001000
00000000
,
00000100
00010000
00001000
00010000
00001000
00000000
00100000
00000000
00010000
01000000
00100000
01000000
00100000
00000000
10000000
00000000
,
01000000
10000000
01000000
00000000
00100000
01000000
00100000
00000000
00010000
00100000
00001000
00010000
00001000
00100000
00010000
00100000
,
00001000
00000000
00010000
00001000
00010000
00000000
00000010
00001000
00000010
00000000
00000100
00000001
00001000
00000001
00000100
00000000
,
00000010
00000000
00001000
00000010
00001000
00000000
00000010
00010000
00000010
00000000
00010000
00001000
00100000
00001000
00010000
00000000
,
00001000
00010000
00001000
00010000
00000100
00001000
00000100
00000000
00010000
00001000
00010000
00001000
01000000
00010000
01000000
00000000
,
00100000
10000000
00010000
10000000
00100000
01000000
00010000
01000000
00001000
00010000
00001000
00100000
00010000
00100000
00001000
00010000
,
00002000
00000000
00000000
00003010
,
00001000
00010000
00000100
00000000
00001000
00000000
00000010
00000000
00000100
00000000
00001000
00000000
00010000
00000000
00100000
00000000
,
01100000
01000000
00001000
00021000
00000000
00000010
00030010
00000000
,
00010000
00001000
01000000
00000000
00010000
00000000
00100000
00000000
01000000
00000000
00010000
00000000
00001000
00000000
00000010
00000000
,
00000110
00000100
00010000
00012000
00000000
00103000
00101000
00001000
,
00010000
00000000
00100000
00000000
01000000
00000000
00100000
00000000
10000000
00100000
01000000
00100000
10000000
00000000
01000000
00000000
,
00010000
00000000
00001000
00100000
00010000
00000000
01000000
00000000
00001000
00010000
00000100
00001000
00000100
00010000
00001000
00010000
,
00000010
00001000
00000010
00000000
00000100
00000000
00001000
00000000
00010000
00000000
01000000
00000000
00100000
00000000
00001000
00000000
,
00011000
00000000
00010000
00000000
00000010
00000000
00002010
00000000
00000000
00000000
00003100
00000000
00000001
00000000
00000100
00001000
,
00000001
00000000
00000010
00000000
00000001
00000000
00000100
00000000
00001000
00010000
00001000
00100000
00020000
00000000
00000000
00000000
,
10030000
00000000
01000000
00000000
00010000
00000000
00001000
00000000
00010000
00001000
00010000
00000010
00002000
00000000
00000000
00000000
,
00003100
00000010
00000000
00000100
00010000
00000000
00001000
00000000
01000000
00010000
00000000
01000000
00100000
00000000
10000000
00000000
,
01000000
00100000
01000000
10000000
00010000
00100000
01000000
00100000
00010000
00000000
00110000
00000000
00101000
00000000
00012000
00000000
,
00003010
00000000
00000100
00001000
00000001
00000000
00000010
00000001
00001000
00000000
00000010
00010000
00001000
00000000
00000010
00000000
,
00001000
00000000
00010000
00000000
01000000
00000000
00100000
00000000
00110000
00000000
00000000
00000000
00010000
01000000
00100000
01000000
,
00010000
00000000
10000000
00000000
01000000
00100000
00001000
00000000
00010000
00000000
00000100
00000000
00001100
00000000
00001000
00000000
,
00000010
00000000
00000110
00000000
00000100
00000000
00000001
00001000
00000010
00000000
00001000
00000001
00000010
00000000
00000100
00000000
,
00010000
00000000
00001000
00000000
00100000
00010000
00100000
00000000
02000000
00000000
00000000
00000000
13000000
00000000
00100000
01000000
,
00010000
00000000
10000000
00000000
01000000
00100000
00010000
00100000
00001000
00010000
00001000
01000000
00010000
01000000
00100000
00000000
,
10000000
00000000
01000000
00000000
00010000
00000000
00001000
00010000
00000100
00000000
00001000
00000100
00000010
00000000
00000001
00000000
,
00000100
00000000
00000110
00000000
00000010
00000000
00010000
00000000
00011000
00000000
00000000
00000000
00100000
00010000
00100000
00001000
,
00010000
00001000
01000000
00010000
01000000
00000000
00100000
00000000
00010000
00000000
00001000
00010000
00000010
00001000
00000010
00010000
,
00001000
00010000
00000100
00001000
00000100
00000000
00000010
00000000
00001000
00000000
00010000
00001000
01000000
00010000
00000000
00100000
,
00001000
00000000
00010000
00000000
00000100
00001000
00000000
00000010
00010000
00000000
00001000
00000000
00101000
00000000
00010100
00000000
,
01001000
00010010
00022000
00000000
00000000
00000000
00000000
00000000
,
00000000
00000000
00000000
00000000
,
00000000
00033000
00000000
00000000
;
