#VERSION:0.83;
#TITLE:メイビ~初恋!?ビスケット☆大作戦;
#SUBTITLE:;
#ARTIST:DJ TOTTO×mitsu feat.BisCo(CV:洲崎綾);
#TITLETRANSLIT:Maybe~hatsukoi!? Biscuit daisakusen;
#SUBTITLETRANSLIT:;
#ARTISTTRANSLIT:;
#GENRE:;
#CREDIT:;
#MUSIC:Maybe~hatsukoi! Biscuit daisakusen.ogg;
#BANNER:Maybe~hatsukoi! Biscuit daisakusen.png;
#BACKGROUND:Maybe~hatsukoi! Biscuit daisakusen-bg.png;
#CDTITLE:./CDTitles/BeatStream.png;
#SAMPLESTART:61.456;
#SAMPLELENGTH:15.000;
#SELECTABLE:YES;
#OFFSET:0.000;
#BPMS:0.000=182.000;
#STOPS:;
#TIMESIGNATURES:0.000=4=4;
#DISPLAYBPM:182.000;
#BGCHANGES:0.000=Maybe~hatsukoi! Biscuit daisakusen.mp4=1.000=0=0=0=StretchNoLoop====,
99999.000=-nosongbg-=1.000=0=0=0=StretchNoLoop====
;
#FGCHANGES:;

//--------------- dance-single - forcednature ----------------
#NOTEDATA:;
#STEPSTYPE:dance-single;
#DESCRIPTION:forcednature;
#DIFFICULTY:Beginner;
#METER:1;
#RADARVALUES:0,0,0,0,0;
#CREDIT:forcednature;
#NOTES:
0000
0000
0000
0000
,
0000
0000
0000
0000
,
0000
0000
0000
0000
,
0000
0000
0000
0000
,
0000
0000
0000
0000
,
0000
0000
0000
0000
,
0000
0000
0000
0000
,
0000
0000
0000
0000
,
0000
0000
0000
0000
,
1000
0000
0000
0000
,
1000
0000
0000
0000
,
0001
0000
0000
0000
,
0100
0000
0000
0000
,
0010
0000
0000
0000
,
0000
0000
0000
0000
,
1000
0000
0000
0000
,
0000
0000
0000
0000
,
0001
0000
0000
0000
,
0000
0000
0000
0000
,
1000
0000
0000
0000
,
0000
0000
0000
0000
,
0100
0000
0000
0000
,
0000
0000
0000
0000
,
0010
0000
0000
0000
,
0000
0000
0000
0000
,
0001
0000
0000
0000
,
0000
0000
0000
0000
,
1000
0000
0000
0000
,
0000
0000
0000
0000
,
0001
0000
0000
0000
,
0000
0000
0000
0000
,
0100
0000
0000
0000
,
0000
0000
0000
0000
,
0010
0000
0000
0000
,
0000
0000
0000
0000
,
1000
0000
0000
0000
,
0000
0000
0000
0000
,
0001
0000
0000
0000
,
0000
0000
0000
0000
,
0010
0000
0000
0000
,
0000
0000
0000
0000
,
0100
0000
0000
0000
,
0000
0000
0000
0000
,
1000
0000
0000
0000
,
0000
0000
0000
0000
,
0010
0000
0000
0000
,
0000
0000
0000
0000
,
0100
0000
0000
0000
,
0000
0000
0000
0000
,
0001
0000
0000
0000
,
0001
0000
0000
0000
,
0001
0000
0000
0000
,
0000
0000
0000
0000
,
1000
0000
0000
0000
,
1000
0000
0000
0000
,
1000
0000
0000
0000
,
0000
0000
0000
0000
,
0100
0000
0000
0000
,
0100
0000
0000
0000
,
0100
0000
0000
0000
,
0000
0000
0000
0000
,
0010
0000
0000
0000
,
0000
0000
0000
0000
,
0001
0000
0000
0000
,
1000
0000
0000
0000
,
0010
0000
0000
0000
,
0100
0000
0000
0000
,
0001
0000
0000
0000
,
0000
0000
0000
0000
,
1000
0000
0000
0000
,
1000
0000
0000
0000
,
1000
0000
0000
0000
,
0000
0000
0000
0000
,
0001
0000
0000
0000
,
0001
0000
0000
0000
,
0001
0000
0000
0000
,
0000
0000
0000
0000
,
0100
0000
0000
0000
,
0010
0000
0000
0000
;

//--------------- dance-single - forcednature ----------------
#NOTEDATA:;
#STEPSTYPE:dance-single;
#DESCRIPTION:forcednature;
#DIFFICULTY:Easy;
#METER:5;
#RADARVALUES:0,0,0,0,0;
#CREDIT:forcednature;
#NOTES:
0000
0000
0000
0000
,
0000
0000
0000
0000
,
0000
0000
0000
0000
,
0000
0000
0000
0000
,
0000
0000
0000
0000
,
0000
0000
0000
0000
,
0000
0000
0000
0000
,
0000
0000
0000
0000
,
0000
0000
0000
0000
,
1001
0000
0000
0000
,
0110
0000
0000
0000
,
0001
0000
1000
0000
,
0010
0010
0010
0000
,
0100
0000
0000
0000
,
0001
0000
0100
0000
,
0001
0000
0000
0000
,
0010
0000
0001
0000
,
0010
0000
0000
0000
,
0100
0000
0010
0000
,
0100
0000
1000
0000
,
0001
0000
0000
0000
,
0100
0000
0000
0000
,
0010
0000
1000
0000
,
0001
0000
0000
0000
,
0010
0000
0100
0000
,
1000
0000
0000
0000
,
0001
0000
0100
0000
,
0010
0000
0000
0000
,
1000
0000
0001
0000
,
0010
0000
0010
0000
,
0100
0000
1000
0000
,
0010
0000
0010
0000
,
0100
0000
0001
0000
,
1000
0000
1000
0000
,
0100
0000
0010
0000
,
0001
0000
0100
0000
,
0010
0000
0000
0000
,
1000
0000
0000
0000
,
0100
0000
1000
0000
,
0100
0000
0000
0000
,
0010
0000
0100
0000
,
0010
0000
0000
0000
,
0001
0000
0010
0000
,
0001
0000
0100
0000
,
0001
0000
0000
0000
,
0100
0000
0100
0000
,
0010
0000
0000
0000
,
1000
1000
1000
0000
,
0001
0000
0010
0000
,
0001
0001
0001
0000
,
1000
0000
0010
0000
,
0100
0000
0001
0000
,
1000
0000
0100
0000
,
0010
0000
0001
0000
,
0100
0100
0000
0000
,
0001
0001
0001
0000
,
1000
0000
0100
0000
,
1000
1000
1000
0000
,
0001
0000
0100
0000
,
0010
0000
1000
0000
,
0001
0000
0010
0000
,
0100
0000
1000
0000
,
0010
0010
0010
0000
,
1001
0000
0000
0000
,
0110
0000
0000
0000
,
1000
0000
0001
0000
,
0100
0100
0100
0000
,
0010
0000
1000
0000
,
0100
0000
1000
0000
,
0001
0000
0100
0000
,
0001
0000
0010
0000
,
0100
0000
1000
0000
,
0001
0000
0100
0000
,
0010
0000
1000
0000
,
0001
0001
0001
0000
,
0010
0000
0000
0000
,
0100
0000
1000
0000
,
0010
0000
0010
0000
0010
0000
0000
0100
,
0000
0100
0000
0200
0000
0000
0300
0000
;

//--------------- dance-single - forcednature ----------------
#NOTEDATA:;
#STEPSTYPE:dance-single;
#DESCRIPTION:forcednature;
#DIFFICULTY:Medium;
#METER:9;
#RADARVALUES:0,0,0,0,0;
#CREDIT:forcednature;
#NOTES:
0000
0000
0000
0000
,
0000
0000
0000
0000
,
0000
0000
0000
0000
,
0000
0000
0000
0000
,
0000
0000
0000
0000
,
0000
0000
0000
0000
,
0000
0000
0000
0000
,
0000
0000
0000
0000
,
0000
0000
0000
0000
,
1001
0000
0000
0000
,
0110
0000
0000
0000
,
1000
0000
1000
0000
0001
0000
0000
0100
,
0000
0100
0010
0000
,
1000
0100
1000
0010
,
1000
0100
0010
0000
,
0001
0100
0001
0010
,
0001
1000
0010
0010
,
0000
0101
0000
1010
,
0000
1100
0000
0011
,
0000
0110
0000
1001
,
0000
1000
0001
0100
,
0000
0010
0010
0010
,
0000
1000
0001
0010
,
0000
0100
0100
1000
,
0000
0001
0100
0010
,
0000
1000
1000
0100
,
0000
0010
0001
1000
,
0000
0010
0100
0000
,
0001
0001
2000
0000
,
3100
1000
0100
0010
,
0100
0000
1000
0000
0001
0010
0001
0000
,
0100
0001
0100
0010
,
1000
1000
0001
0000
,
0010
0100
1000
0100
,
0010
0001
1000
0001
,
0100
0100
0010
0010
,
1000
0000
0001
1000
0001
0000
0000
0000
,
0010
0000
0000
0010
0100
0000
0000
1000
,
0000
0001
0100
0010
,
1000
0000
0000
1000
0100
0000
0000
0010
,
0000
0001
1000
0010
,
0100
0000
0000
0100
0001
0000
0000
0010
,
0000
0100
1000
0000
,
0001
0000
0100
0000
0010
1000
0010
0000
,
0100
0001
1000
0100
,
0010
0001
0010
0000
0100
0010
0100
0000
,
1000
0100
1000
0100
0000
0000
0000
0000
,
1000
0001
1001
0000
,
0001
0100
0010
1000
,
0001
1000
1001
0000
,
1000
0100
0010
0001
,
0100
0101
0000
1010
,
0000
1000
0100
0010
,
0001
0001
0100
0100
,
0010
1000
0010
1000
0000
0000
0001
0000
,
0010
0100
0110
0000
,
0010
0001
1000
0001
,
0100
0010
0110
0000
,
0010
0000
1000
0000
0001
0000
1000
0100
,
1000
0000
0100
0010
0100
0000
0010
0001
,
0010
0000
0001
1000
0001
0000
0000
0000
,
0100
0000
0100
0000
0001
0000
0001
1000
,
0000
1000
0000
0100
0000
0000
0010
0000
,
1001
0000
0000
0000
,
0110
0000
0000
0000
,
1000
0000
0001
0000
1000
0001
0000
0010
,
0000
0100
0220
0330
,
0010
0001
0010
0000
0100
0000
1000
0000
,
0100
0010
0100
0000
1000
0100
1000
0000
,
0010
1000
0010
0000
0100
0000
0001
0000
,
0010
0001
0010
0000
0100
0010
0100
0000
,
1000
0100
1000
0000
0001
0000
1000
0000
,
0010
1000
0010
0000
0100
0010
0100
0000
,
0001
0100
0001
0000
1000
0000
0001
0010
,
0000
0100
0000
2000
0000
0000
3000
0000
,
0010
0000
0010
0000
0010
0000
0100
0001
,
0000
1000
0100
0010
,
0001
0100
0001
0000
1000
0100
0000
0010
,
0000
0001
0000
2002
0000
0000
3003
0000
;

//--------------- dance-single - forcednature ----------------
#NOTEDATA:;
#STEPSTYPE:dance-single;
#DESCRIPTION:forcednature;
#DIFFICULTY:Hard;
#METER:13;
#RADARVALUES:0,0,0,0,0;
#CREDIT:forcednature;
#NOTES:
0000
0000
0000
0000
,
0000
0000
0000
0000
,
0000
0000
0000
0000
,
0000
0000
0000
0000
,
0000
0000
0000
0000
,
0000
0000
0000
0000
,
0000
0000
0000
0000
,
0000
0000
0000
0000
,
0000
0000
0000
0000
,
1001
0000
0000
0000
0000
0000
0000
0100
,
0110
0000
0000
0000
0000
0000
0000
0001
,
1001
0000
0110
0000
1000
1100
0000
0110
,
0000
0010
0001
1000
2002
0000
3003
0000
,
0001
0000
0100
0000
0010
0000
0000
0010
1000
0000
0100
0000
0010
0000
0000
0010
,
0001
0000
1000
0000
0010
0000
0000
0010
1000
0000
0100
0000
0010
0000
0100
0000
,
1000
0000
0001
0000
0100
0000
0000
0100
0010
0000
1000
0000
0100
0000
0000
0100
,
0010
0000
0001
0000
0100
0000
0000
0100
0010
0000
0010
0000
0100
0000
0100
0000
,
0001
0000
1000
0000
0010
0000
0000
0100
0001
0000
1000
0000
0010
0000
0000
0100
,
0001
0000
0010
0000
0100
0000
0000
1000
0001
0000
0010
0000
0100
0000
0000
1000
,
0001
0100
0001
0010
0100
1000
0010
1000
,
0000
0000
1001
0000
0000
0000
0110
0000
0000
0000
0001
1000
0001
0000
0000
0000
,
1000
0100
0010
0000
0100
0000
1000
0001
,
0000
0100
0010
0010
0100
0000
1001
0000
,
0001
0100
0001
1000
0010
1000
0001
1000
,
0000
0100
0010
0001
0010
0000
0110
0000
,
0100
1000
0001
1000
0010
0100
0001
1000
,
0000
0100
0010
0001
0000
0010
0100
1000
,
0100
0100
0010
0000
0001
0100
0010
1000
,
0001
0000
0110
0000
0001
1000
1000
0001
,
0001
0010
0001
0100
0001
0010
0100
1000
,
0000
0000
0010
0000
1000
0000
0001
0000
0100
0000
0001
1000
0001
0000
0010
0000
,
0100
1000
0100
0010
0100
1000
0100
0010
,
0001
0100
0100
0001
0001
0000
2002
3003
,
0001
0100
0010
0100
0001
0100
0010
0000
,
1000
0000
0100
0000
0010
0000
0100
0000
1000
0000
0001
1000
0001
0000
0100
0000
,
0010
1000
0110
1000
,
0001
0010
0100
1000
0002
1000
1003
0000
,
2000
0000
0000
0010
3010
0000
1000
0100
,
0000
0010
0001
0100
0010
0000
0100
0001
,
0002
0000
0000
0010
0013
0000
0001
0100
,
0000
0000
0010
0000
1000
0000
0001
1000
0001
0000
1000
0000
0100
0000
0010
0001
,
0020
0000
0000
0100
0130
0000
0010
0001
,
0000
0000
0100
0000
0010
0000
1000
0001
2000
0000
0000
0000
3000
0000
0000
0000
,
0001
0001
0100
0000
0001
0010
0100
1000
,
0000
0001
1000
0010
0100
0001
1000
0100
,
0010
0100
1000
0100
0010
0001
0100
0010
,
1000
0001
1000
0001
0000
0100
0010
0100
,
0110
0000
1001
0000
0120
0100
0130
0000
,
0001
0100
0010
1000
0001
1000
0100
0010
,
0011
0000
0110
0000
2001
0001
3001
0000
,
1000
0000
0001
0000
1000
0000
0000
0100
0010
0000
0100
0000
1000
0000
0010
0000
,
0100
0000
0101
0100
0001
0000
1100
0100
,
1000
0100
0010
0001
0100
0010
1000
0001
,
0010
0000
0100
0000
1000
0000
0001
0000
0100
0000
0010
0000
1000
0000
0000
0001
,
0100
0001
0010
0110
0000
1000
0001
1000
,
1010
0000
0101
0000
0120
0100
0130
0000
,
0001
0100
0010
1000
0001
1000
0100
0010
,
0011
0000
0110
0000
2100
0100
3100
1000
,
0001
0000
1000
0000
0010
0000
0000
1000
0001
0000
0100
0000
0100
0000
0010
0000
,
0010
1000
1010
1000
0001
0000
0010
0001
,
0100
0010
1000
0100
0020
0100
0100
0130
,
0010
0001
0100
0001
1000
0010
1000
0001
,
0000
1001
0000
0110
0000
0001
1000
0000
,
1001
0000
0000
0000
0000
0000
0000
0100
,
0110
0000
0000
0000
0000
0000
0000
0001
,
1001
0000
1010
0000
0001
1001
0000
0110
,
0000
1000
0100
0010
0022
0000
0033
0000
,
0001
0100
0010
1000
0001
0100
0010
1000
,
0001
1000
0100
1000
0001
0100
0001
1000
,
0100
0010
0001
1000
0100
0010
0001
1000
,
0010
0000
1000
0000
0001
0000
0000
0010
0100
0000
1000
0000
0001
0000
1000
0000
,
0010
1000
0100
0010
0001
0100
0010
1000
,
0001
0010
0100
1000
0001
0100
0001
1000
,
0010
1000
0001
0100
0001
0010
0100
1100
,
0000
0000
0110
0000
0000
0000
0011
0000
0000
0000
0001
1000
0001
0000
0000
0000
,
0010
0000
0100
0000
1000
0000
0001
0010
,
0000
0100
1000
0010
,
1000
0001
0100
0010
1000
0001
0000
1001
,
0000
0110
0000
2002
0000
0000
3003
0000
;

//--------------- dance-single - forcednature ----------------
#NOTEDATA:;
#STEPSTYPE:dance-single;
#DESCRIPTION:forcednature;
#DIFFICULTY:Challenge;
#METER:15;
#RADARVALUES:0,0,0,0,0;
#CREDIT:forcednature;
#NOTES:
0000
0000
0000
0000
,
0000
0000
0000
0000
,
0000
0000
0000
0000
,
0000
0000
0000
0000
,
0000
0000
0000
0000
,
0000
0000
0000
0000
,
0000
0000
0000
0000
,
0000
0000
0000
0000
,
0000
0000
0000
0000
,
1001
0000
0000
0000
0000
0000
0000
0001
,
0101
0000
0000
0000
0000
0000
0000
1000
,
1100
0000
0110
0000
0011
1001
0000
0110
,
0000
0001
0100
1000
0200
0000
0300
0000
,
0001
0000
0010
0000
0100
1000
0100
0000
1000
0000
0010
0000
1000
0001
1000
0000
,
0100
0000
0010
0000
0001
0100
0001
0000
0010
0000
0100
0000
0001
0000
0100
0000
,
1000
0000
0010
0000
1000
0100
1000
0000
0001
0000
0100
0000
0010
1000
0010
0000
,
0100
0000
0001
0000
0010
0000
0000
0001
1000
0000
1000
0000
0001
0000
0001
0000
,
0010
0000
0100
0000
1000
0010
1000
0000
0100
0000
0010
0000
0100
1000
0100
0000
,
0010
0000
0001
0000
1000
0010
1000
0000
0001
0000
0100
0000
0001
0010
0001
0000
,
0100
1000
0100
0001
0100
0010
1000
0001
,
0000
0000
0110
0000
0000
0000
1001
0000
0001
0000
1000
0100
1000
0000
0000
0000
,
0010
0000
1000
0000
0010
0000
0100
0001
0100
0000
0010
0000
1000
0000
0001
0000
,
0000
1000
0100
1000
0010
0000
0110
0000
,
0100
0000
0001
0010
0001
0000
0100
0000
0010
0000
1000
0001
1000
0001
1000
0000
,
0000
0100
0001
0100
1000
0000
0110
0000
,
0001
0100
1000
0100
0001
0010
0100
1000
,
0000
0010
1000
0001
0000
0100
0001
0010
,
0100
0000
1000
0010
1000
0000
0000
0000
0001
0000
0100
0000
0001
0000
0010
0000
,
0100
0000
0000
0000
0110
0000
0000
0000
0001
0000
1000
0100
1000
0000
0001
0100
,
0001
0010
0001
0100
0010
1000
0100
0001
,
0100
0000
1000
0000
0010
0000
1000
0000
0001
0000
0100
0010
0100
0000
0001
0000
,
0100
1000
0100
0010
1000
0100
0010
0001
,
0100
0000
0010
1000
0010
0000
0100
0001
0100
0000
0000
0000
0110
0000
0000
0000
,
0001
1000
0100
1000
0001
0010
0001
1000
,
0010
0000
0001
0000
0010
0000
0100
0000
0001
0000
1000
0100
1000
0000
0010
0000
,
0100
1000
0100
0001
0010
1000
0010
0001
,
1000
0000
0010
0000
0100
0000
0001
0000
1000
0001
1000
0001
1000
0000
0010
1000
,
0020
0000
0000
0100
0130
0000
0010
1000
,
0000
0100
0001
0100
0010
0000
0001
0100
,
0200
0000
0000
0001
0301
0000
0100
1000
,
0000
0000
0100
0000
0001
0000
0010
0100
0010
0000
0001
0000
1000
0000
0010
0100
,
0020
0000
0000
0100
0130
0000
0010
1000
,
0000
0000
0001
0000
0010
0000
0100
1000
0200
0000
0000
0000
0300
0000
0000
0000
,
0010
0001
1000
0001
0100
0010
1000
0001
,
0000
0000
1000
0000
0010
0000
1000
0001
1000
0000
0100
0000
0000
0000
0010
0000
,
0001
0000
0001
0000
1000
0000
1000
0000
0001
1000
0001
1000
0001
1000
0001
1000
,
0001
0100
0010
1000
0000
0001
1000
0100
,
1100
0000
0110
0000
2001
0001
3001
1000
,
0010
0100
0001
0100
1000
0100
0010
1000
,
1100
0000
0110
0000
0012
0010
0013
0001
,
0100
0000
0010
0000
1000
0000
0100
0010
0100
0000
1000
0000
0001
0000
1000
0000
,
0010
0000
0110
0100
0001
0000
0110
0010
,
1000
0001
1000
0100
0010
0001
0100
0001
,
1000
0000
0100
0000
0001
0000
0100
0000
0010
0000
1000
0000
0010
0000
0001
1000
,
0001
0100
0010
1000
0000
0001
1000
0100
,
0110
0000
1001
0000
2010
0010
3010
1000
,
0001
0010
1000
0010
0100
1000
0001
1000
,
1010
0000
0110
0000
0201
0001
0301
0100
,
0001
0000
0010
0000
0100
0000
1000
0100
1000
0000
0001
0010
0001
0000
1000
0001
,
1000
0001
1001
1000
0001
0100
0101
0001
,
1000
0000
0100
0010
0100
0000
1000
0001
1000
0000
1000
0000
1000
0000
0001
0100
,
0001
0000
0010
0000
0100
0000
1000
0000
0010
1000
0010
1000
0010
0000
0100
0000
,
0000
0110
0000
1001
0000
1000
1001
0000
,
0101
0000
0000
0000
0000
0000
0000
0100
,
0110
0000
0000
0000
0000
0000
0000
0010
,
1010
0000
1001
0000
1100
1010
0000
0101
,
0000
0001
1000
0010
0200
0000
0300
0000
,
0001
0000
0100
0000
0010
1000
0010
1000
0010
0000
0100
0000
0001
0010
0001
0010
,
0001
0000
1000
0000
0100
0010
0100
0010
0100
0000
1000
0000
0001
0000
0010
0000
,
0100
0000
1000
0000
0001
0100
0001
0100
0001
0000
1000
0000
0100
0010
0100
0010
,
0100
0000
0000
0000
1001
0000
0000
0001
0100
0000
1000
0000
0100
0000
0001
0000
,
0010
0000
0100
0000
1000
0010
0100
0001
1000
0000
0010
0000
1000
0100
0010
0001
,
0100
0000
0001
0000
0010
0100
1000
0001
0010
0000
0001
0000
1000
0000
0010
0000
,
0100
1000
0100
0001
0010
0100
1000
1001
,
0000
0000
0110
0000
0000
0000
1001
0000
0001
0000
0100
0001
0100
0000
0010
1000
,
0010
0000
0100
0000
0001
0000
1000
0100
,
0000
0010
0001
0100
,
1000
0100
0001
1000
0010
0001
0000
0110
,
0000
1001
0000
0220
0000
0000
0330
0000
;

//--------------- dance-double - forcednature ----------------
#NOTEDATA:;
#STEPSTYPE:dance-double;
#DESCRIPTION:forcednature;
#DIFFICULTY:Easy;
#METER:5;
#RADARVALUES:0,0,0,0,0;
#CREDIT:forcednature;
#NOTES:
00000000
00000000
00000000
00000000
,
00000000
00000000
00000000
00000000
,
00000000
00000000
00000000
00000000
,
00000000
00000000
00000000
00000000
,
00000000
00000000
00000000
00000000
,
00000000
00000000
00000000
00000000
,
00000000
00000000
00000000
00000000
,
00000000
00000000
00000000
00000000
,
00000000
00000000
00000000
00000000
,
00011000
00000000
00000000
00000000
,
00011000
00000000
00000000
00000000
,
00010000
00000000
00010000
00000000
,
00001000
00001000
00001000
00000000
,
01000000
00000000
00000000
00000000
,
00010000
00000000
01000000
00000000
,
00010000
00000000
00000000
00000000
,
00100000
00000000
00010000
00000000
,
00100000
00000000
00000000
00000000
,
01000000
00000000
00100000
00000000
,
01000000
00000000
10000000
00000000
,
01000000
00000000
00000000
00000000
,
00100000
00000000
00000000
00000000
,
00100000
00000000
00001000
00000000
,
00010000
00000000
00000000
00000000
,
00010000
00000000
00000010
00000000
,
00001000
00000000
00000000
00000000
,
00001000
00000000
00000100
00000000
,
00000010
00000000
00000000
00000000
,
00000001
00000000
00001000
00000000
,
00000010
00000000
00000010
00000000
,
00001000
00000000
00000100
00000000
,
00010000
00000000
00010000
00000000
,
00001000
00000000
01000000
00000000
,
00010000
00000000
00010000
00000000
,
10000000
00000000
01000000
00000000
,
00100000
00000000
00010000
00000000
,
01000000
00000000
00000000
00000000
,
00001000
00000000
00000000
00000000
,
00010000
00000000
00000100
00000000
,
00010000
00000000
00000000
00000000
,
00000100
00000000
00001000
00000000
,
00000100
00000000
00000000
00000000
,
00000010
00000000
00000100
00000000
,
00000010
00000000
00000001
00000000
,
00000010
00000000
00000000
00000000
,
00000001
00000000
00000001
00000000
,
00000100
00000000
00000000
00000000
,
00000010
00000010
00000010
00000000
,
00001000
00000000
00000010
00000000
,
00010000
00010000
00010000
00000000
,
00001000
00000000
00100000
00000000
,
00010000
00000000
01000000
00000000
,
00010000
00000000
10000000
00000000
,
01000000
00000000
10000000
00000000
,
00100000
00100000
00000000
00000000
,
01000000
01000000
01000000
00000000
,
00001000
00000000
00010000
00000000
,
00001000
00001000
00001000
00000000
,
00010000
00000000
00000100
00000000
,
00001000
00000000
00000100
00000000
,
00000010
00000000
00000001
00000000
,
00001000
00000000
00000001
00000000
,
00000100
00000100
00000100
00000000
,
00001001
00000000
00000000
00000000
,
00000110
00000000
00000000
00000000
,
00000001
00000000
00001000
00000000
,
00000100
00000100
00000100
00000000
,
00010000
00000000
00001000
00000000
,
01000000
00000000
00010000
00000000
,
01000000
00000000
00100000
00000000
,
10000000
00000000
00100000
00000000
,
10000000
00000000
00010000
00000000
,
10000000
00000000
01000000
00000000
,
00100000
00000000
00010000
00000000
,
00100000
00100000
00100000
00000000
,
00001000
00000000
00000000
00000000
,
00010000
00000000
00000010
00000000
,
00001000
00000000
00001000
00000000
00001000
00000000
00000000
00000001
,
00000000
00000001
00000000
00000002
00000000
00000000
00000003
00000000
;

//--------------- dance-double - forcednature ----------------
#NOTEDATA:;
#STEPSTYPE:dance-double;
#DESCRIPTION:forcednature;
#DIFFICULTY:Medium;
#METER:9;
#RADARVALUES:0,0,0,0,0;
#CREDIT:forcednature;
#NOTES:
00000000
00000000
00000000
00000000
,
00000000
00000000
00000000
00000000
,
00000000
00000000
00000000
00000000
,
00000000
00000000
00000000
00000000
,
00000000
00000000
00000000
00000000
,
00000000
00000000
00000000
00000000
,
00000000
00000000
00000000
00000000
,
00000000
00000000
00000000
00000000
,
00000000
00000000
00000000
00000000
,
00011000
00000000
00000000
00000000
,
00011000
00000000
00000000
00000000
,
01000000
00000000
01000000
00000000
00010000
00000000
00000000
00010000
,
00000000
00010000
10000000
00000000
,
10000000
01000000
00100000
00010000
,
00100000
00001000
00010000
00000000
,
00010000
00000010
00001000
00000010
,
00000100
00000001
00001000
00001000
,
00000000
00001100
00000000
00001010
,
00000000
00010010
00000000
00011000
,
00000000
00101000
00000000
00110000
,
00000000
00010000
10000000
00100000
,
00000000
01000000
01000000
01000000
,
00000000
00001000
00010000
00000100
,
00000000
00001000
00001000
00000001
,
00000000
00000100
00000010
00001000
,
00000000
00000100
00000100
00010000
,
00000000
00001000
01000000
00010000
,
00000000
10000000
01000000
00000000
,
00100000
00100000
00002000
00000000
,
00013000
00000100
00001000
00000100
,
00010000
00000000
00001000
00000000
00010000
00000010
00010000
00000000
,
00000010
00001000
00000010
00000100
,
00000001
00000001
00001000
00000000
,
00000100
00010000
00001000
01000000
,
00001000
00010000
00000010
00010000
,
00001000
00001000
00100000
00100000
,
00010000
00000000
10000000
00010000
10000000
00000000
00000000
00000000
,
00100000
00000000
00000000
00100000
01000000
00000000
00000000
00001000
,
00000000
00001000
00010000
00000100
,
00001000
00000000
00000000
00001000
00000001
00000000
00000000
00000100
,
00000000
00000001
00001000
00000100
,
00010000
00000000
00000000
00010000
00001000
00000000
00000000
01000000
,
00000000
00010000
10000000
00000000
,
01000000
00000000
00100000
00000000
00010000
00100000
00010000
00000000
,
00100000
00001000
00010000
00000010
,
00001000
00000010
00001000
00000000
00000010
00000100
00000010
00000000
,
00000100
00000001
00000100
00000001
00000000
00000000
00000000
00000000
,
00001000
00000001
00001001
00000000
,
00001000
00000100
00010000
00001000
,
01000000
00010000
10010000
00000000
,
10000000
01000000
00100000
00010000
,
01000000
01001000
00000000
00011000
,
00000000
00010000
00000100
00001000
,
00000001
00000001
00000100
00000100
,
00000010
00001000
00000010
00001000
00000000
00000000
00000001
00000000
,
00000010
00000100
00000110
00000000
,
00000010
00000001
00001000
00000010
,
00010000
00001000
00011000
00000000
,
00001000
00000000
01000000
00000000
00010000
00000000
10000000
00100000
,
10000000
00000000
00010000
10000000
00010000
00000000
10000000
01000000
,
10000000
00000000
01000000
00100000
01000000
00000000
00000000
00000000
,
00100000
00000000
00100000
00000000
00001000
00000000
00001000
00010000
,
00000000
00010000
00000000
00000010
00000000
00000000
00000100
00000000
,
00001001
00000000
00000000
00000000
,
00000110
00000000
00000000
00000000
,
00010000
00000000
00001000
00000000
00010000
00001000
00000000
00010000
,
00000000
00001000
02000000
03000000
,
00100000
10000000
00100000
00000000
10000000
00000000
01000000
00000000
,
00100000
00010000
00100000
00000000
00001000
00010000
00001000
00000000
,
00010000
00000010
00010000
00000000
00000010
00000000
00001000
00000000
,
00000001
00000010
00000001
00000000
00000010
00000100
00000010
00000000
,
00000100
00001000
00000100
00000000
00010000
00000000
00001000
00000000
,
01000000
00010000
01000000
00000000
00100000
01000000
00100000
00000000
,
10000000
00100000
10000000
00000000
00010000
00000000
10000000
01000000
,
00000000
00100000
00000000
00020000
00000000
00000000
00030000
00000000
,
01000000
00000000
01000000
00000000
01000000
00000000
00001000
00010000
,
00000000
00000100
00001000
00000010
,
00000100
00000001
00000100
00000000
00000010
00010000
00000000
00001000
,
00000000
00100000
00000000
02000000
00000000
00000000
03000000
00000000
;

//--------------- dance-double - forcednature ----------------
#NOTEDATA:;
#STEPSTYPE:dance-double;
#DESCRIPTION:forcednature;
#DIFFICULTY:Hard;
#METER:14;
#RADARVALUES:0,0,0,0,0;
#CREDIT:forcednature;
#NOTES:
00000000
00000000
00000000
00000000
,
00000000
00000000
00000000
00000000
,
00000000
00000000
00000000
00000000
,
00000000
00000000
00000000
00000000
,
00000000
00000000
00000000
00000000
,
00000000
00000000
00000000
00000000
,
00000000
00000000
00000000
00000000
,
00000000
00000000
00000000
00000000
,
00000000
00000000
00000000
00000000
,
00011000
00000000
00000000
00000000
00000000
00000000
00000000
00010000
,
00100000
00000000
00000000
00000000
00000000
00000000
00000000
10000000
,
00010000
00000000
00110000
00000000
00001000
00010000
00000000
00001010
,
00000000
00001000
00000001
00000010
00000200
00000000
00000300
00000000
,
00000010
00000001
00000010
00001000
00010000
00000010
00010000
00001000
,
01000000
00001000
00010000
01000000
00100000
00010000
10000000
00000000
,
00100000
01000000
00100000
10000000
00010000
00100000
00001000
00010000
,
00000010
00000100
00001000
00000100
00000001
00000000
00001001
00000000
,
00000001
00000010
00001000
00000000
00010000
00100000
01000000
00000000
,
00010000
10000000
01000000
00000000
00010000
00001000
00000100
00000000
,
00000010
00001000
00000001
00000010
00000100
00001000
00000010
00000100
,
00000000
00000000
00000110
00000000
00000000
00000000
00011000
00000000
00000000
00000000
00010000
00001000
00010000
00000000
00000000
00000000
,
00001000
00100000
00010000
00000000
10000000
00100000
01000000
00010000
,
00000000
00100000
00001000
00010000
00000010
00000000
00001010
00000000
,
00001000
00000001
00000010
00000100
00001000
00010000
00100000
01000000
,
00000000
10000000
00010000
10000000
00100000
00000000
01100000
00000000
,
01000000
00010000
00100000
00001000
00010000
00000010
00010000
00001000
,
00000000
00000010
00000001
00000100
00000000
00000010
00001000
00000001
,
00000010
00001000
00010000
00000000
00000010
00010000
00001000
01000000
,
00001000
00000000
00010000
00000000
00011000
00010000
00010000
00001000
,
00001000
00010000
00100000
00000000
10000000
00010000
00100000
00000000
,
01000000
10000000
00100000
01000000
00010000
00100000
00001000
00010000
,
00000100
00000000
00011000
00000000
00010000
00001000
00000010
00000000
,
00000001
00000100
00000010
00001000
00000100
00000000
00001001
00000000
,
00000001
00000010
00000001
00000010
00001000
00000010
00001000
00000010
,
00001000
00010000
00001000
00010000
00100000
00010000
00100000
00010000
,
00100000
10000000
00100000
10000000
01000000
10000000
01000000
10000000
,
01000000
00010000
01000000
00010000
00001000
00010000
00001000
00000000
,
00021000
00000000
00000000
00000010
00030010
00000000
00010000
00001000
,
00000000
00000100
00000001
00000010
00000100
00000000
00000110
00000000
,
00000012
00000000
00000000
00001000
00001003
00000000
00000001
00000100
,
00000000
00001000
00010000
00100000
01000000
00000000
01100000
00000000
,
10020000
00000000
00000000
00100000
00130000
00000000
00010000
01000000
,
00000000
00001000
00010000
00000100
00002000
00000000
00003000
00000000
,
00000010
00000100
00000001
00000010
00001000
00010000
00000010
00010000
,
00000000
00001000
01000000
00001000
00010000
00100000
00000000
10000000
,
01000000
00100000
00010000
00001000
00000100
00000010
00000001
00000100
,
00001000
00001000
00010000
00010000
00000000
01000000
00100000
01000000
,
00100000
00000000
10010000
00000000
02100000
00100000
03100000
00000000
,
00010000
01000000
00100000
10000000
00010000
00100000
00001000
00010000
,
00000010
00000000
00001010
00000000
00000102
00000100
00000103
00000000
,
00000001
00000010
00000100
00001000
00000010
00000100
00000010
00001000
,
00000100
00000000
00010000
01000000
00100000
00000000
00010000
10000000
,
00010000
00100000
01000000
10000000
00100000
01000000
00010000
00100000
,
00001000
00010000
00000010
00010000
00001000
01000000
00001000
00010000
,
00000100
00000100
00001000
00001000
00000000
00000001
00000100
00000010
,
00000100
00000000
00001010
00000000
00012000
00010000
00013000
00000000
,
00001000
01000000
00001000
00010000
00000100
00010000
00001000
00100000
,
00010000
00000000
01100000
00000000
00010000
10000000
00010000
10000000
,
00100000
01000000
00001000
00010000
00000100
00001000
00000010
00000100
,
00000001
00000000
00000010
00001000
00010000
00000000
00000010
00010000
,
00001000
00000000
01000000
00000000
00001000
00000000
00010000
00000000
00000200
00000000
00000000
00000000
00001300
00000000
00000100
00001000
,
00000100
00000010
00000001
00000010
00001000
00010000
00000010
00010000
,
00000000
00011000
00000000
01001000
00000000
00001000
00010000
00000000
,
00010100
00000000
00000000
00000000
00000000
00000000
00000000
00010000
,
00001000
00000000
00000000
00000000
00000000
00000000
00000000
01000000
,
00100000
00000000
01100000
00000000
00010000
10000000
00000000
00101000
,
00000000
00010000
00001000
00000010
00000002
00000000
00000003
00000000
,
00000100
00000001
00000010
00000001
00000100
00000001
00000010
00001000
,
00010000
00000010
00010000
00001000
00100000
00001000
00010000
00000000
,
01000000
10000000
00100000
10000000
01000000
10000000
00100000
00010000
,
00001000
00000010
00000001
00000100
00000010
00001000
00000001
00000000
,
00000010
00000001
00000100
00000001
00000010
00000001
00000100
00001000
,
00010000
00000100
00010000
00001000
00100000
00001000
00010000
00000000
,
01000000
10000000
00010000
00100000
00010000
10000000
00100000
01000000
,
00000000
01010000
00000000
00011000
00000000
00001000
00010000
00001000
,
00010000
00000000
00000010
00000000
00001000
00000000
00000001
00000010
,
00000000
00001000
00010000
00100000
,
01000000
00010000
10000000
00010000
00100000
00001000
00000000
00011000
,
00000000
00010010
00000000
00202000
00000000
00000000
00303000
00000000
;

//--------------- dance-double - forcednature ----------------
#NOTEDATA:;
#STEPSTYPE:dance-double;
#DESCRIPTION:forcednature;
#DIFFICULTY:Challenge;
#METER:16;
#RADARVALUES:0,0,0,0,0;
#CREDIT:forcednature;
#NOTES:
00000000
00000000
00000000
00000000
,
00000000
00000000
00000000
00000000
,
00000000
00000000
00000000
00000000
,
00000000
00000000
00000000
00000000
,
00000000
00000000
00000000
00000000
,
00000000
00000000
00000000
00000000
,
00000000
00000000
00000000
00000000
,
00000000
00000000
00000000
00000000
,
00000000
00000000
00000000
00000000
,
00011000
00000000
00000000
00000000
00000000
00000000
00000000
01000000
,
01010000
00000000
00000000
00000000
00000000
00000000
00000000
00100000
,
10100000
00000000
01100000
00000000
00010000
00011000
00000000
00000110
,
00000000
00010000
00001000
00000100
00000001
00000000
00000000
00000000
,
00000010
00000000
00000100
00000000
00001000
00000001
00001000
00000000
00000010
00000000
00010000
00000000
00001000
01000000
00001000
00000000
,
00100000
00000000
00010000
00000000
10000000
00100000
10000000
00000000
01000000
00000000
00010000
00000000
00001000
00000000
00000100
00000000
,
00000010
00000000
00010000
00000000
00001000
00100000
00001000
00000000
00010000
00000000
00000100
00000000
00001000
00000001
00001000
00000000
,
00000100
00000000
00000010
00000000
00001000
00000000
00000000
00010000
00100000
00000000
00100000
00000000
00010000
00000000
00010000
00000000
,
00001000
00000000
00000010
00000000
00000100
00001000
00000100
00000000
00000010
00000000
00000001
00000000
00000100
00000010
00000100
00000000
,
00001000
00000000
00010000
00000000
01000000
00100000
01000000
00000000
10000000
00000000
00010000
00000000
00100000
00001000
00100000
00000000
,
00010000
01000000
00001000
00000010
00000100
00001000
00000010
00010000
,
00000000
00000000
00011000
00000000
00000000
00000000
00110000
00000000
00100000
00000000
01000000
10000000
01000000
00000000
00000000
00000000
,
00100000
00000000
00001000
00000000
00010000
00000000
00000100
00001000
00000100
00000000
00010000
00000000
00001000
00000000
00000100
00000000
,
00000000
00000001
00000010
00000001
00000100
00000000
00000110
00000000
,
00001000
00000000
00000100
00010000
00000100
00000000
00001000
00000000
00000010
00000000
00010000
00001000
00010000
00001000
00010000
00000000
,
00000000
01000000
10000000
00100000
01000000
00000000
00011000
00000000
,
00000100
00001000
00000001
00001000
00000010
00010000
01000000
00100000
,
00000000
00010000
10000000
01000000
00000000
00010000
00001000
00000010
,
00000100
00000000
00001000
00000001
00001000
00000000
00000000
00000000
00000010
00000000
00000100
00000000
00001000
00000000
00000100
00000000
,
00000001
00000000
00000000
00000000
00000110
00000000
00000000
00000000
00001000
00000000
00000100
00010000
00000100
00000000
00010000
00001000
,
00010000
00100000
10000000
00010000
00100000
01000000
00010000
00001000
,
00000010
00000000
00001000
00000000
00010000
00000000
00100000
00000000
00010000
00000000
00001000
00100000
00001000
00000000
00010000
00000000
,
00000100
00000010
00000001
00000100
00001000
00000100
00000010
00010000
,
00100000
00000000
01000000
00010000
01000000
00000000
00100000
10000000
00100000
00000000
00000000
00000000
01100000
00000000
00000000
00000000
,
00001000
00010000
00000100
00000010
00000001
00000100
00000010
00010000
,
01000000
00000000
00100000
00000000
00001000
00000000
00010000
00000000
00000010
00000000
00001000
00000001
00001000
00000000
00000100
00000000
,
00010000
00001000
01000000
00010000
10000000
00100000
00010000
00001000
,
00000010
00000000
00000100
00000000
00001000
00000000
00000001
00000000
00000100
00000001
00000100
00000001
00000100
00000000
00000010
00001000
,
00000020
00000000
00000000
00010000
00010030
00000000
00000010
00000100
,
00000000
00010000
00100000
00001000
01000000
00000000
00010000
00010000
,
00200000
00000000
00000000
01000000
01300000
00000000
00100000
00001000
,
00000000
00000000
00010000
00000000
00000100
00000000
00001000
00000001
00001000
00000000
00000010
00000000
00010000
00000000
00001000
01000000
,
00002000
00000000
00000000
00000100
00003100
00000000
00001000
00010000
,
00000000
00000000
01000000
00000000
10000000
00000000
00100000
01000000
00200000
00000000
00000000
00000000
00300000
00000000
00000000
00000000
,
00010000
00001000
00010000
00000100
00000010
00001000
00010000
00000010
,
00000000
00000000
00000100
00000000
00000001
00000000
00001000
00000100
00001000
00000000
00000010
00000000
00000000
00000000
00010000
00000000
,
00001000
00000000
00001000
00000000
00010000
00000000
00010000
00000000
00001000
01000000
00001000
01000000
00001000
01000000
00001000
01000000
,
00001000
00010000
00100000
10000000
00000000
01000000
00010000
00001000
,
00011000
00000000
00010100
00000000
00001002
00001000
00001003
00000001
,
00000100
00001000
00010000
00000100
00010000
01000000
00100000
00001000
,
00011000
00000000
01001000
00000000
10020000
10000000
10030000
00010000
,
00100000
00000000
00001000
00000000
00010000
00000000
00000100
00001000
00000100
00000000
00000010
00000000
00000001
00000000
00000100
00000000
,
00000010
00000000
00000110
00000100
00001000
00000000
00011000
00001000
,
00010000
01000000
00100000
00010000
01000000
00100000
10000000
01000000
,
00010000
00000000
00001000
00000000
00000100
00000000
00000001
00000000
00000010
00000000
00000100
00000000
00001000
00000000
00000001
00000100
,
00000001
00000010
00001000
00010000
00000000
00000100
00010000
00001000
,
00101000
00000000
10010000
00000000
01002000
01000000
01003000
00001000
,
00010000
00000100
00000001
00000100
00000010
00000001
00000100
00000010
,
00001010
00000000
00011000
00000000
00210000
00010000
00310000
00100000
,
01000000
00000000
10000000
00000000
00100000
00000000
01000000
00010000
01000000
00000000
00001000
00010000
00001000
00000000
00010000
00000100
,
00010000
00001000
00011000
00010000
00000010
00000100
00000110
00000010
,
00001000
00000000
00000001
00000010
00000001
00000000
00000100
00000010
00000100
00000000
00000100
00000000
00000100
00000000
00000001
00001000
,
00000001
00000000
00000010
00000000
00001000
00000000
00010000
00000000
00001000
01000000
00001000
01000000
00001000
00000000
00010000
00000000
,
00000000
00101000
00000000
01010000
00000000
10000000
11000000
00000000
,
00110000
00000000
00000000
00000000
00000000
00000000
00000000
00001000
,
00011000
00000000
00000000
00000000
00000000
00000000
00000000
00000100
,
00000110
00000000
00001001
00000000
00000001
00000101
00000000
00001010
,
00000000
00010000
00001000
00000100
00000020
00000000
00000030
00000000
,
00001000
00000000
00000100
00000000
00010000
00001000
00010000
00001000
00010000
00000000
01000000
00000000
10000000
00010000
10000000
00010000
,
10000000
00000000
00100000
00000000
00010000
00001000
00010000
00001000
00010000
00000000
00000100
00000000
00000010
00000000
00000001
00000000
,
00000100
00000000
00000010
00000000
00001000
00000001
00001000
00000001
00001000
00000000
00000100
00000000
00010000
00001000
00010000
00001000
,
00010000
00000000
00000000
00000000
00101000
00000000
00000000
00100000
01000000
00000000
10000000
00000000
00100000
00000000
01000000
00000000
,
00001000
00000000
00010000
00000000
00000100
00010000
00001000
00010000
00000100
00000000
00000010
00000000
00000001
00000100
00000010
00001000
,
00000010
00000000
00010000
00000000
00001000
00010000
00001000
00100000
00010000
00000000
10000000
00000000
00100000
00000000
01000000
00000000
,
00001000
00000010
00000100
00010000
00001000
00000100
00000001
00000101
,
00000000
00000000
00010010
00000000
00000000
00000000
00011000
00000000
00001000
00000000
00010000
00000100
00010000
00000000
00001000
01000000
,
00001000
00000000
00000100
00000000
00000010
00000000
00001000
00000100
,
00000000
00000010
00000001
00000100
,
00010000
01000000
00001000
00000100
00001000
00010000
00000000
01001000
,
00000000
00010100
00000000
00022000
00000000
00000000
00033000
00000000
;
