#VERSION:0.83;
#TITLE:ませまてぃっく♥ま+ま=まじっく!;
#SUBTITLE:;
#ARTIST:かめりあ feat. ななひら;
#TITLETRANSLIT:Mathematic ma+ma=magic!;
#SUBTITLETRANSLIT:;
#ARTISTTRANSLIT:Camellia feat. Nanahira;
#GENRE:;
#CREDIT:;
#MUSIC:Mathematic ma+ma=magic!.ogg;
#BANNER:Mathematic ma+ma=magic!.png;
#BACKGROUND:Mathematic ma+ma=magic!-bg.png;
#CDTITLE:./CDTitles/SDVX II -infinite infection-.png;
#SAMPLESTART:64.953;
#SAMPLELENGTH:15.000;
#SELECTABLE:YES;
#OFFSET:1.277;
#BPMS:0.000=192.000;
#STOPS:;
#TIMESIGNATURES:0.000=4=4;
#BGCHANGES:0.000=../BGAs/19po.mp4=1.000=0=0=0=StretchNoLoop====,
99999.000=-nosongbg-=1.000=0=0=0=StretchNoLoop====
;
#FGCHANGES:;

//--------------- dance-single - forcednature ----------------
#NOTEDATA:;
#STEPSTYPE:dance-single;
#DESCRIPTION:forcednature;
#DIFFICULTY:Beginner;
#METER:4;
#RADARVALUES:0,0,0,0,0;
#CREDIT:forcednature;
#NOTES:
0000
0000
0000
0000
,
0000
0000
0000
0000
,
0000
0000
0000
0000
,
0000
0000
0000
0000
,
0000
0000
0000
0000
,
0000
0000
0000
0000
,
0000
0000
0000
0000
,
0000
0000
0000
0000
,
0000
0000
0000
0000
,
0000
0000
0000
0000
,
0000
0000
0000
0000
,
0010
0000
0000
0000
,
1000
0000
0000
0000
,
0001
0000
0000
0000
,
0010
0000
0010
0000
,
0010
0000
0000
0000
,
0100
0000
0000
0000
,
1000
0000
0000
0000
,
0001
0000
1000
0000
,
0010
0000
0000
0000
,
0100
0000
0100
0000
,
0001
0000
0000
0000
,
1000
0000
0000
0000
,
0100
0000
0000
0000
,
0010
0000
0010
0000
,
0001
0000
0001
0000
,
0000
1000
0000
0000
,
0000
0001
0000
0001
,
0000
0001
1000
1000
,
0000
1000
0000
1000
,
0000
1000
0100
0100
,
0000
0100
0000
0100
,
0000
0100
0010
0010
,
0000
0010
0000
0010
,
0001
1000
0001
0000
,
0110
0000
0000
0000
,
1000
0000
0001
0000
,
1000
0000
0000
0000
,
0010
0000
0100
0000
,
0010
0000
0000
0000
,
0100
0000
0001
0000
,
0010
0000
0000
0000
,
0100
0000
0010
0000
,
0110
0000
0000
0000
,
1000
0000
0001
0000
,
1000
0000
0000
0000
,
0001
0000
1000
0000
,
0001
0000
0100
0000
,
0110
0000
0000
0000
,
1000
0000
1000
0000
,
0001
1000
0001
1000
,
0100
0000
0000
0000
,
0010
0010
0010
0000
,
1001
0000
1000
0000
,
0001
0000
0000
0000
,
0100
0000
0010
0000
,
1000
0000
0000
0000
,
0110
0000
0001
0000
,
1000
0000
0010
0000
,
0100
0000
0000
0000
,
0001
0000
1000
0000
,
0000
0110
0000
0001
,
0000
1000
0000
0000
,
0010
0000
0100
0000
,
0001
0000
0001
0000
,
0000
0110
0000
1000
,
0000
0001
0000
0000
,
0100
0000
0000
0000
,
0010
0010
0010
0010
,
2002
0000
3003
0000
,
0100
0100
0000
0000
,
1000
0001
1000
0001
,
0100
0000
0010
0000
,
1000
0000
0000
0000
,
0001
0000
0000
0000
,
0010
0100
0010
0100
,
1000
0000
0001
0000
,
0100
0000
0100
0000
,
0000
0010
0000
0000
,
1000
0001
1000
0001
,
0010
0000
0100
0000
,
0010
0000
0001
0000
,
0100
0000
0000
0000
,
0001
1000
0001
1000
,
0010
0000
1000
0000
,
0110
0000
1001
0000
,
0000
0100
0100
0000
;

//--------------- dance-single - forcednature ----------------
#NOTEDATA:;
#STEPSTYPE:dance-single;
#DESCRIPTION:forcednature;
#DIFFICULTY:Easy;
#METER:8;
#RADARVALUES:0,0,0,0,0;
#CREDIT:forcednature;
#NOTES:
0000
0000
0000
0000
,
0000
0000
0000
0000
,
0000
0000
0000
0000
,
0000
0000
0000
0000
,
0000
0000
0000
0000
,
0000
0000
0000
0000
,
0000
0000
0000
0000
,
0000
0000
0000
0000
,
0000
0000
0000
0000
,
0000
0000
0000
0000
0000
0000
0000
1001
,
0000
0000
0110
0000
0000
0010
0000
0100
,
0000
0001
1000
0010
,
1000
0100
0010
0010
,
0001
0001
0100
0010
,
1000
0000
0001
0000
0010
0000
0000
0100
,
0000
1000
0001
0100
,
0010
0000
0000
1000
0000
1000
0000
0020
,
0000
0030
0000
0100
,
0001
1000
0100
0010
,
0110
0100
1000
1000
,
0002
0003
0200
0300
,
0010
1000
0100
1000
,
0001
1000
0000
1000
0000
0001
0000
0000
,
0010
0001
0100
0001
,
0020
0030
0200
0300
,
2002
3003
0220
0330
,
0000
1000
0001
1000
0002
0000
0003
0000
,
0100
0001
0100
0001
,
0100
0001
0010
0010
,
0100
1000
0100
1000
,
0100
1000
0010
0010
,
1000
0001
1000
0001
,
1000
0001
0010
0010
,
0001
0000
1000
0000
0001
0000
1000
0020
,
0000
0000
0000
0030
,
1001
0000
0001
0100
,
0010
1000
0100
0010
,
0100
0000
1000
0001
,
0100
0010
1000
0001
,
1001
0000
0001
0010
,
0100
1000
0001
0100
,
0010
0000
1000
0100
,
0010
0001
0100
0010
,
2000
3000
0200
0300
,
1000
0001
1000
0000
,
0002
0003
0200
0300
,
0001
1000
0001
0000
,
0010
0010
0010
0000
,
0100
0000
0000
0100
0000
0000
0000
0000
,
1000
1000
0001
0001
,
0100
0010
0100
0010
,
0200
0000
0000
0300
,
1001
1001
1001
0000
,
0110
0000
1000
0001
,
0010
0100
1000
0001
,
0100
0000
0010
1000
,
0100
0000
0100
0000
0010
0000
0000
1001
,
0000
1000
0001
0100
,
0010
1000
0001
0010
,
0200
0000
0300
0000
0000
0010
0000
0110
,
0000
0000
1001
0000
0000
0100
0000
0010
,
0000
1001
1000
0010
,
0100
0001
0010
0100
,
1000
0000
0001
0100
,
0010
0000
0010
0000
1000
0000
0000
0110
,
0000
0001
0010
0100
,
0010
0001
0100
0010
,
2000
3000
0001
0010
,
0100
1000
0001
0100
,
0020
0000
0030
0000
,
1000
0001
1000
0001
0000
0000
0000
0000
,
1000
0001
0100
0001
,
0020
0030
0200
0300
,
1000
0001
0100
0010
,
1000
0001
0000
0001
0000
1000
0000
0000
,
0001
0100
0001
0010
,
0200
1300
1000
1000
,
1001
0000
0110
0000
,
0000
0100
0010
0000
0100
0000
0000
0000
,
1000
0100
1000
0010
,
0200
0001
0001
0001
,
0310
0100
0001
0100
,
0001
1000
0000
1000
0000
1000
0000
1000
,
0001
0010
0001
0100
,
0020
2030
3100
0100
,
0220
0330
2002
3003
,
0000
0001
1000
0001
2000
0000
3000
0000
;

//--------------- dance-single - forcednature ----------------
#NOTEDATA:;
#STEPSTYPE:dance-single;
#DESCRIPTION:forcednature;
#DIFFICULTY:Medium;
#METER:12;
#RADARVALUES:0,0,0,0,0;
#CREDIT:forcednature;
#NOTES:
0000
0000
0000
0000
,
0000
0000
0000
0000
,
0000
0000
0000
0000
,
0000
0000
0000
0000
,
0000
0000
0000
0000
,
0000
0000
0000
0000
,
0000
0000
0000
0000
,
0000
0000
0000
0000
,
0000
0000
0000
0000
,
0000
0000
0000
0000
0000
0000
0001
1000
,
0000
1000
0001
0000
0000
0100
0010
0100
,
0000
0000
1001
0000
1000
0010
1000
0000
,
0001
0000
0010
0000
0100
1000
0100
0010
,
0001
0110
0001
1000
,
0010
0100
0001
0100
0010
1000
0000
0110
,
0000
0001
1000
0100
,
0010
0001
0000
0100
0000
0001
0000
0020
,
0000
0000
0100
0000
0130
0010
0100
0010
,
0001
0000
1000
0000
0010
0100
0010
0000
,
1001
0101
1010
1001
,
2000
0000
3100
0010
0002
0000
0003
0000
,
0101
1010
0100
1010
,
0001
1000
0000
1100
0000
0022
0000
0033
,
1001
1100
0011
1001
,
0200
0310
2002
3003
,
0220
0330
2002
3003
,
0000
2000
3200
0320
0032
0000
0003
0000
,
0100
1001
0010
1001
,
0100
0000
1001
0000
1000
0001
1000
0001
,
0100
0011
1000
0011
,
0100
0000
0011
0000
0001
1000
0001
1000
,
0010
0010
0010
0000
0100
0000
1010
0000
,
0001
0000
1010
0000
0001
1000
0001
1000
,
0100
0011
0100
0011
,
1000
0100
0010
0001
0100
0010
1000
0000
,
0202
0000
0303
0000
0010
1000
0010
1000
,
0000
0100
0000
0010
0000
0001
1000
0000
,
2200
0000
3300
0000
0010
0001
0010
0001
,
0000
0100
0010
0000
1000
0001
1000
0000
,
2010
0000
3100
0000
0001
1000
0001
1000
,
0000
0100
0000
0010
0000
0001
1000
0000
,
0220
0000
0330
0001
1000
0001
0000
0110
,
0000
1000
1000
0001
,
1200
0000
0020
0330
,
1000
0100
1000
0010
0100
0000
0000
0000
,
0201
0000
0020
0330
,
0001
0100
0001
0010
0100
0000
0000
0000
,
1000
0001
1000
0001
0010
0000
MMMM
0000
,
1000
0010
0100
0001
0000
0000
MMMM
0000
,
0011
1000
0100
0010
,
0001
0100
0001
0010
0100
1000
0010
1000
,
0200
0000
0000
0300
,
1001
0110
1001
MMMM
,
1001
0000
0011
0000
0001
1000
0001
0000
,
0100
0000
0010
0000
2000
3200
0320
0032
,
0103
0000
0110
0000
0010
1000
0010
0000
,
0100
0001
0100
0000
0010
0010
0000
1001
,
0000
0110
1000
0001
,
0010
0100
0000
1100
0000
0011
0000
2002
,
0000
0000
3003
0000
0000
0001
0100
0001
,
0000
1000
1000
0000
0000
0010
0100
0010
,
0000
1001
0001
0010
,
0100
0000
1000
0000
0010
0100
0001
1000
,
0010
1100
0001
1000
,
0001
0100
0001
0100
0010
0010
0000
1001
,
0000
0101
0010
1100
,
0001
1000
0000
0101
0000
0110
0000
2020
,
0000
0000
3030
0000
0000
1000
0100
1000
,
0001
0100
0010
1000
,
2002
0000
3003
0000
,
0002
0203
0320
2030
3000
0000
MMMM
0000
,
1001
0101
1010
1001
,
1000
0100
0010
0001
0100
0010
1000
0000
,
0001
0010
0001
0000
1000
0010
1000
0000
,
0100
0100
0000
0110
0000
1001
0000
0000
,
1001
1100
0011
1001
,
0001
0100
0001
1000
0010
0100
0001
0000
,
0022
0033
2200
3300
,
0000
1000
0010
0100
0001
0000
MMMM
0000
,
0110
1100
0101
0110
,
0001
1000
0001
0010
0200
1000
1300
0000
,
0010
0001
0100
0000
0010
1000
0100
0000
,
0010
0010
0010
0001
1000
0010
0100
0000
,
0110
0011
1010
0110
,
1000
0010
0100
0001
0020
0100
0130
0000
,
2200
3300
0202
0303
,
0000
1000
0001
0100
0020
0000
0030
0000
;

//--------------- dance-single - forcednature ----------------
#NOTEDATA:;
#STEPSTYPE:dance-single;
#DESCRIPTION:forcednature;
#DIFFICULTY:Hard;
#METER:16;
#RADARVALUES:0,0,0,0,0;
#CREDIT:forcednature;
#NOTES:
0000
0000
0000
0000
,
0000
0000
0000
0000
,
0000
0000
0000
0000
,
0000
0000
0000
0000
,
0000
0000
0000
0000
,
0000
0000
0000
0000
,
0000
0000
0000
0000
,
0000
0000
0000
0000
,
0000
0000
0000
0000
,
0000
0000
0000
0000
0000
0000
1000
1100
,
0000
0001
0101
0000
0000
0010
0100
0110
,
0000
0000
0001
1000
0001
0000
0000
0000
0100
0000
0001
0000
0010
0000
0001
0000
,
1000
0010
0100
0001
2000
3200
0320
0032
,
0103
0000
0001
1000
0010
0000
0000
0000
0100
0000
0001
0000
1000
0000
0010
0000
,
0100
0000
0001
0010
0100
0000
1000
0010
0100
0000
0100
0000
0000
0000
0110
0000
,
0000
0000
0001
0000
1000
0100
0000
0000
0100
0010
0000
0000
0010
0001
0000
0000
,
0100
0100
0000
0011
0000
1010
0000
2001
,
0000
3200
0320
0032
0023
0130
0001
0100
,
1000
0000
1000
0000
0001
0000
0001
0000
1000
0100
0010
0001
0100
0010
1000
0001
,
0010
0001
0000
0000
1100
0000
0000
0000
0001
0010
0000
0000
1100
0000
0000
0000
,
0002
0000
0100
0100
1003
0001
0100
0000
,
0001
0010
1100
0000
1000
0010
0101
0000
,
1000
1001
0000
0110
0000
1002
0000
0000
,
1003
0010
0000
0000
0101
0000
0000
0000
0010
1000
0000
0000
0101
0000
0000
0000
,
2000
0000
3100
0010
0001
0001
1000
1000
,
2002
3003
0220
0330
,
0000
2000
3200
0320
0032
0000
0003
0000
,
1000
0100
1000
0100
2000
0000
3010
0000
0100
0000
0001
0000
2000
0000
3010
0000
,
0100
0000
0001
0000
2000
0000
3010
0000
1000
0100
1000
0000
1000
0001
1000
0000
,
0001
0100
0001
0100
0002
0000
0013
0000
0100
0000
1000
0000
0002
0000
0013
0000
,
0100
0000
1000
0000
0002
0000
0013
0000
0001
0100
0001
0000
0001
1000
0001
0000
,
1000
0100
0010
0001
0200
0000
0310
0000
1000
0000
0001
0000
0200
0000
0310
0000
,
1000
0000
0001
0000
0200
0000
0310
0000
1000
0100
1000
0000
0001
0100
0001
0000
,
1000
0000
0000
0100
0000
0000
1000
0000
0000
0100
0000
0000
0020
0000
0000
0000
0000
0000
0031
0000
0000
0000
0000
0000
1000
0000
0000
0000
0000
0000
0100
0000
0000
0000
0000
0000
0020
0000
0000
0000
0030
0000
0110
0000
0000
0000
0000
0000
,
0100
0000
1000
0000
0100
0000
0001
0000
0100
0000
0010
0000
0001
1000
0000
0000
,
2100
0000
3010
0100
1000
0100
0001
0010
,
0000
0011
0000
1100
0000
0001
0010
1000
,
0020
0000
0130
1000
0001
0100
0010
1000
,
0000
0001
0100
1000
0001
0010
1000
0000
,
0200
0300
1001
1000
0001
0100
1000
0100
,
0000
1010
0000
0101
0000
1000
0010
0001
,
0020
0000
0130
0001
1000
0100
0001
0100
,
0000
0000
0000
0000
0010
0001
0000
0000
0001
1000
0000
0000
1000
0010
0000
0000
,
0201
0000
0000
1000
1300
0000
0110
0000
,
2000
3200
0320
0032
0203
0300
0110
0000
,
1200
0000
0000
0001
0301
0000
0110
0000
,
0002
0203
0320
2030
3200
0300
0110
0000
,
1000
0100
0010
0001
0011
0000
MMMM
0000
,
0001
0100
0010
1010
0000
0000
MMMM
0000
,
1000
0100
1000
0010
0100
0001
0010
0001
,
1000
0100
0010
0001
1000
0001
0100
0010
1000
0001
1000
0100
0010
0001
0100
0020
,
0000
0000
0000
0030
,
1100
0101
1001
MMMM
,
0110
0000
1001
0000
1000
0100
0001
0100
,
0010
0001
0100
0010
2000
3200
0320
0032
,
0103
0000
0110
0000
0001
0100
0010
1000
,
0001
0000
1000
0100
0010
0000
0001
0100
0010
0000
0010
0000
0000
0000
0110
0000
,
0000
0000
1000
0000
0001
0010
0000
0000
0010
0100
0000
0000
0100
1000
0000
0000
,
0001
0101
0000
0011
0000
1100
0000
1020
,
0000
0000
0001
0000
0001
0000
0000
0000
0130
0000
0010
1000
0001
0000
0101
0000
,
0000
1000
1100
0000
0000
0001
1000
1001
,
0000
0000
1000
0100
0010
0000
0000
0000
0001
0000
0100
0000
1000
0000
0100
0000
,
0010
1000
0100
0010
0002
0203
0320
2030
,
3100
0000
0100
1000
0001
0000
0000
0000
1000
0000
0100
0000
0010
0000
0001
0000
,
1000
0000
0001
0100
0010
0000
1000
0100
0010
0000
0010
0000
0000
0000
0110
0000
,
0000
0000
0001
0000
1000
0010
0000
0000
0010
0100
0000
0000
0100
0001
0000
0000
,
1000
1100
0000
1010
0000
0101
0000
0021
,
0000
1000
1000
0000
0130
0010
0001
1000
,
0010
0000
0010
0000
0100
0000
0100
0000
0001
0010
0100
1000
0010
0100
0001
0010
,
0200
0000
0310
1001
,
0100
0010
0100
1001
0000
0000
MMMM
0000
,
1000
0100
0000
0000
0011
0000
0000
0000
0100
1000
0000
0000
0011
0000
0000
0000
,
1000
0010
1000
0000
0100
0000
0010
0000
0001
0100
0010
1000
0002
0000
0000
0000
,
1003
0000
0100
0000
0011
0000
0000
0000
0001
0000
0100
0000
1010
0000
1000
0001
,
0010
0000
0110
0000
0000
0000
1001
0000
0000
0000
0021
0000
0000
0000
0031
1000
,
0001
0100
0000
0000
1010
0000
0000
0000
0100
0001
0000
0000
1010
0000
0000
0000
,
0001
0000
0010
0000
0100
0000
0010
0000
0001
0100
0001
0100
0010
1000
0010
1000
,
0200
0300
2002
3003
,
0000
0010
0100
0010
1001
0000
MMMM
0000
,
1000
0010
0000
0000
0101
0000
0000
0000
0001
0010
0000
0000
1100
0000
0000
0000
,
1000
0000
0000
0010
0000
0000
0000
0000
0000
0100
0000
0000
0001
0000
0000
0000
0000
0000
1000
0000
0000
0000
0000
0000
0002
0000
0000
0000
0023
0000
0000
0000
0230
0000
0000
0000
2300
0000
0000
0000
0000
0000
0000
0000
0000
0000
0000
0000
,
3001
0000
0100
0000
1010
0000
0000
0000
1000
0000
0100
0000
0011
0000
0010
0100
,
1000
0000
0010
0100
0001
0000
0001
0000
1000
0000
1000
0000
0001
0010
0100
1000
,
0001
0100
0000
0000
1010
0000
0000
0000
1000
0100
0000
0000
0011
0000
0000
0000
,
0001
0100
0010
1000
0002
0000
1003
0010
0100
0001
0100
0001
1000
0100
1000
0100
,
0020
0030
0220
0330
,
0000
1001
0100
0010
2002
0000
3003
0000
;

//--------------- dance-single - forcednature ----------------
#NOTEDATA:;
#STEPSTYPE:dance-single;
#DESCRIPTION:forcednature;
#DIFFICULTY:Challenge;
#METER:18;
#RADARVALUES:0,0,0,0,0;
#CREDIT:forcednature;
#NOTES:
0000
0000
0000
0000
,
0000
0000
0000
0000
,
0000
0000
0000
0000
,
0000
0000
0000
0000
,
0000
0000
0000
0000
,
0000
0000
0000
0000
,
0000
0000
0000
0000
,
0000
0000
0000
0000
,
0000
0000
0000
0000
,
0000
0000
0000
0000
0000
0000
1100
1010
,
0000
0101
0011
0000
MMMM
0100
0010
0110
,
0000
0000
0000
0000
0000
0000
1000
0000
0100
0000
0010
0000
0001
0000
0000
0000
0000
0000
0100
0000
0000
0000
0000
0000
0001
0000
0000
0000
0000
0000
0010
0000
0000
0100
0000
0000
0010
0000
0000
0000
0000
0000
0001
0000
0000
0000
0000
0000
,
0100
0000
0010
0100
0001
0000
0010
0000
0100
0000
1100
0000
1010
0000
0000
0000
,
1000
0000
0100
0010
0100
0000
1000
0000
0010
0000
0100
0001
0010
0000
0001
0000
,
0100
0000
0010
1000
0100
0000
0010
0001
0100
0000
0110
0000
0000
0000
1001
0000
,
0000
0000
1000
0100
0010
0000
0100
1000
0010
0000
0100
0001
1000
0000
0010
0000
,
0100
0001
0000
0011
0000
1100
0000
1020
,
0000
0001
0001
0001
0031
0010
1000
0100
,
1000
0010
0100
0000
0001
0010
0100
0000
1000
0010
0100
0010
1000
0001
0100
0001
,
1000
0100
0001
0000
MMMM
0000
0000
0000
0001
0010
1000
0000
MMMM
0000
0000
0000
,
0201
0000
0000
0000
1000
0000
1300
0000
0100
0000
0001
1000
0010
0000
0000
0000
,
1000
0000
0100
1000
0010
0000
0100
0000
0001
0000
0010
0001
0100
0000
0010
1000
,
0001
0000
0011
0000
MMMM
0000
0101
0000
MMMM
0000
1100
0000
MMMM
0000
0010
1000
,
0001
0010
1000
0000
MMMM
0000
0000
0000
1000
0100
0001
0000
MMMM
0000
0000
0000
,
0001
0010
0001
0000
1000
0010
1000
0000
0001
0100
0010
0100
0001
0100
0010
0100
,
0002
0013
2001
3100
,
0000
1100
0011
0101
2020
0000
3030
0000
,
1000
0100
1000
0001
0020
0000
0130
0000
0010
0000
0001
0100
2000
0000
3100
0000
,
0010
0000
1000
0100
0002
0000
0103
0000
0010
0001
0100
0000
0100
0001
0010
0000
,
0001
0100
0001
1000
0020
0000
0130
0000
0010
0000
1000
0100
0002
0000
0103
0000
,
0010
0000
0001
0100
2000
0000
3100
0000
0010
1000
0100
0000
0100
1000
0010
0000
,
1000
0100
0001
0100
2000
0000
3010
0000
0100
0000
1000
0100
0002
0000
0013
0000
,
0100
0000
0001
0100
2000
0000
3010
0000
0100
0001
0010
0000
0100
1000
0010
0000
,
0100
0001
0010
0001
2000
0000
3100
0000
0010
0000
1000
0010
0001
0000
0011
0000
,
2000
0000
3020
0000
0230
0000
2300
0000
3002
0000
0023
0000
2030
3002
0003
0000
,
0201
0000
0301
0010
1000
0001
0100
1000
,
0000
1010
0000
0011
0000
1000
0100
0001
,
0010
0000
0100
1000
0010
0001
0110
1000
,
0000
0000
0001
0100
0010
0000
1000
0100
0010
0000
0110
0000
1001
0000
0000
0000
,
1000
0010
0100
0010
0001
0000
0010
0000
1000
0000
0001
0000
0101
0000
1000
0000
,
0000
0100
0001
0010
1000
0100
0001
0010
,
1001
0000
0000
0000
0110
0000
1000
0000
0001
0000
0100
0010
1000
0000
1100
0000
,
0000
0000
0001
0010
0001
0000
0010
0100
1000
0000
0010
0000
1001
0000
0000
0000
,
1200
0000
0000
0000
0010
0000
0010
0000
0301
0000
0000
0100
1000
0000
0000
0000
,
0021
2030
3002
0203
2300
3000
0010
1000
,
0201
0000
0000
0000
0010
0000
0010
0000
1300
0000
0000
0100
0001
0000
0000
0000
,
1020
0032
2003
3200
0302
0003
0010
0001
,
0101
0100
0110
0010
1010
0000
MMMM
0000
,
1100
0110
0011
1001
0000
MMMM
MMMM
0000
,
1000
0000
1000
0100
1000
0000
1000
0001
0010
0000
0010
0001
0100
0000
0100
0010
,
1000
0100
1000
0100
1000
0100
1000
0100
0010
0001
1000
0001
0010
0001
1000
0001
,
0200
0000
0010
0010
0000
0010
0310
0000
,
0110
0000
1001
0000
0110
MMMM
MMMM
0000
,
1100
0000
0001
0010
0100
0000
0010
0000
0101
0000
1000
0010
0100
0000
0010
0000
,
1000
0000
0001
0010
0100
0000
0010
0001
0100
0000
0010
0000
1001
0000
0000
0000
,
0101
0000
1000
0010
0100
0000
0010
0000
1100
0000
0001
0010
0100
0000
0010
0000
,
1001
0000
1000
0010
0001
0000
0001
0010
1000
0000
1010
0000
0000
0000
1100
0000
,
MMMM
0000
0001
0010
0100
0000
0010
0001
0100
0000
0010
1000
0100
0000
0001
0100
,
1000
0000
0001
0000
0010
0000
0011
0000
0000
0000
0001
0100
0010
0000
1010
0000
,
0000
0000
1000
0100
0010
0000
0100
1000
0010
0000
0100
0000
0001
0000
0011
0000
,
0000
0110
1100
0000
MMMM
0010
0110
2001
,
0000
0000
0000
0000
0000
0000
3001
0000
0010
0000
0100
0000
1000
0000
0000
0000
0000
0000
0010
0000
0000
0000
0000
0000
0110
0000
0000
0000
0000
0000
0001
0000
0000
1000
0000
0000
0100
0000
0000
0000
0000
0000
0010
0000
0000
0000
0000
0000
,
0110
0000
0001
1000
0010
0000
1000
0001
0010
0000
0100
0000
1001
0000
0000
0000
,
0011
0000
1000
0100
0010
0000
0001
0000
1010
0000
0001
0100
0010
0000
1000
0000
,
1001
0000
0001
0100
1000
0000
1000
0100
0001
0000
0011
0000
0000
0000
0110
0000
,
MMMM
0000
1000
0100
0010
0000
0001
0100
0010
0000
0100
0001
0010
0000
1000
0010
,
0001
0000
0100
0000
0001
0000
1010
0000
0000
0000
1000
0100
0010
0000
0110
0000
,
0000
0000
0100
1000
0010
0000
0100
0001
0010
0000
0100
0000
0100
0000
1000
0000
,
1010
0000
0010
0000
0110
0000
0100
0000
0001
0010
0001
1000
0001
0010
0001
1000
,
0200
0000
0000
0000
0310
MMMM
0110
MMMM
,
0101
0110
1010
2002
3003
MMMM
MMMM
0000
,
0001
0100
1000
0000
MMMM
0000
0000
0000
1000
0010
0001
0000
MMMM
0000
0000
0000
,
0201
0000
0000
0000
1000
0000
1300
0000
0100
0001
0100
0001
1000
0000
0000
0000
,
0010
0000
0100
0001
0010
0000
0100
0000
0010
0000
0100
1000
0010
0000
1000
0001
,
0100
0000
0101
0000
MMMM
0000
0011
0000
MMMM
0000
1010
0000
MMMM
0000
1000
0100
,
1000
0010
0001
0000
MMMM
0000
0000
0000
0001
0100
1000
0000
MMMM
0000
0000
0000
,
0001
0010
0100
0000
1000
0100
0010
0000
0001
1000
0010
1000
0001
0100
0010
0100
,
0002
0000
0000
0000
0013
0100
0010
0100
1000
0100
1000
0100
0010
0001
1000
0100
,
0000
0011
0101
1010
2200
3300
MMMM
0000
,
0001
0100
1000
0000
MMMM
0000
0000
0000
1000
0010
0001
0000
MMMM
0000
0000
0000
,
0011
0000
0000
0011
0000
1000
0100
0000
1000
0010
0100
0001
1000
0000
0000
0000
,
0010
0000
1000
0100
0001
0000
0100
0000
0010
0000
0001
0100
1000
0000
0100
0001
,
1000
0000
0010
0100
0001
0000
0011
0000
0110
0000
1100
0000
1001
0000
MMMM
0000
,
1000
0010
0001
0000
MMMM
0000
0000
0000
0001
0100
1000
0000
MMMM
0000
0000
0000
,
1000
0010
0100
0010
1000
0001
0100
0001
1000
0100
0010
0001
0010
0100
1000
0001
,
0200
0000
0000
0000
0310
1000
0010
1000
0001
0100
0010
0100
0001
1000
0010
0000
,
MMMM
1100
0011
0101
2020
3030
MMMM
0000
;

//--------------- dance-double - forcednature ----------------
#NOTEDATA:;
#STEPSTYPE:dance-double;
#DESCRIPTION:forcednature;
#DIFFICULTY:Easy;
#METER:8;
#RADARVALUES:0,0,0,0,0;
#CREDIT:forcednature;
#NOTES:
00000000
00000000
00000000
00000000
,
00000000
00000000
00000000
00000000
,
00000000
00000000
00000000
00000000
,
00000000
00000000
00000000
00000000
,
00000000
00000000
00000000
00000000
,
00000000
00000000
00000000
00000000
,
00000000
00000000
00000000
00000000
,
00000000
00000000
00000000
00000000
,
00000000
00000000
00000000
00000000
,
00000000
00000000
00000000
00000000
00000000
00000000
00001000
00010000
,
00000000
00001000
00010000
00000000
00000000
00100000
00000000
01000000
,
00000000
10010000
00000000
10000000
,
01000000
00100000
00010000
00010000
,
01000000
00001000
00010000
00000100
,
00001000
00000000
00001000
00000000
00000010
00000000
00000000
00000110
,
00000000
00000100
00000001
00001000
,
00000001
00000000
00000000
00000010
00000000
00000010
00000000
00000200
,
00000000
00000300
00000000
00010000
,
00001000
01000000
00010000
10000000
,
01000000
01000000
00100000
00100000
,
00020000
00030000
20000000
30000000
,
00100000
00010000
00001000
00010000
,
00000100
00001000
00000000
00000100
00000000
00001000
00000000
00000000
,
00000010
00000100
00000001
00000100
,
00000020
00000030
00002000
00003000
,
00020200
00030300
02002000
03003000
,
00000000
10000000
00010000
10000000
00020000
00000000
00030000
00000000
,
10000000
01000000
10000000
01000000
,
10000000
01000000
00100000
00100000
,
00010000
01000000
00010000
01000000
,
00010000
01000000
00001000
00001000
,
00010000
00000100
00010000
00000100
,
00010000
00000100
00000010
00000010
,
00000001
00000000
00000100
00000000
00000001
00000000
00000100
00000020
,
00000000
00000000
00000000
00000030
,
00001001
00000000
00001000
00000100
,
00010000
00001000
01000000
00010000
,
00100000
00000000
00010000
01000000
,
00001000
00010000
00000100
00001000
,
00000010
00000000
00001000
00000100
,
00010000
00001000
01000000
00010000
,
00100000
00000000
01000000
10000000
,
00100000
01000000
00010000
00100000
,
00002000
00003000
00020000
00030000
,
00000100
00001000
00000100
00000000
,
00020000
00030000
00002000
00003000
,
01000000
00010000
01000000
00000000
,
00001000
00001000
00010000
00000000
,
00010000
00000000
00000000
00010000
00000000
00000000
00000000
00000000
,
00100000
00100000
10000000
10000000
,
01000000
00010000
00001000
00010000
,
00002000
00000000
00000000
00003000
,
00011000
00011000
00011000
00000000
,
00011000
00000000
00000100
00001000
,
00000001
00001000
00000010
00010000
,
00001000
00000000
01000000
00010000
,
10000000
00000000
00010000
00000000
00100000
00000000
00000000
00011000
,
00000000
00000100
00001000
00000010
,
00001000
00000100
00010000
00001000
,
02000000
00000000
03000000
00000000
00000000
00100000
00000000
00100000
,
00000000
00000000
10010000
00000000
00000000
01000000
00000000
01000000
,
00000000
00011000
00010000
00000100
,
00001000
00000001
00001000
00000010
,
00010000
00000000
00001000
00100000
,
01000000
00000000
01000000
00000000
10000000
00000000
00000000
01100000
,
00000000
00010000
01000000
00010000
,
00100000
00001000
00010000
00000010
,
00002000
00003000
00000100
00000010
,
00000001
00000100
00000010
00001000
,
00000020
00000000
00000030
00000000
,
00010000
00001000
00010000
00001000
00000000
00000000
00000000
00000000
,
01000000
00010000
00100000
00010000
,
20000000
30000000
00200000
00300000
,
01000000
00001000
00010000
00000100
,
00001000
00000001
00000000
00000001
00000000
00001000
00000000
00000000
,
00000010
00001000
00000100
00001000
,
00000020
00010030
00001000
00010000
,
00010100
00000000
01001000
00000000
,
00000000
00001000
00010000
00000000
00001000
00000000
00000000
00000000
,
01000000
00010000
00100000
00010000
,
02000000
00100000
00100000
00100000
,
03100000
01000000
00010000
01000000
,
00001000
00010000
00000000
00010000
00000000
00010000
00000000
00010000
,
00001000
00010000
00000100
00001000
,
00000020
00000230
00000301
00000001
,
00000202
00000303
00002200
00003300
,
00000000
00010000
00001000
00010000
00002000
00000000
00003000
00000000
;

//--------------- dance-double - forcednature ----------------
#NOTEDATA:;
#STEPSTYPE:dance-double;
#DESCRIPTION:forcednature;
#DIFFICULTY:Medium;
#METER:12;
#RADARVALUES:0,0,0,0,0;
#CREDIT:forcednature;
#NOTES:
00000000
00000000
00000000
00000000
,
00000000
00000000
00000000
00000000
,
00000000
00000000
00000000
00000000
,
00000000
00000000
00000000
00000000
,
00000000
00000000
00000000
00000000
,
00000000
00000000
00000000
00000000
,
00000000
00000000
00000000
00000000
,
00000000
00000000
00000000
00000000
,
00000000
00000000
00000000
00000000
,
00000000
00000000
00000000
00000000
00000000
00000000
00001000
00010000
,
00000000
00010000
00001000
00000000
00000000
00000010
00000100
00000010
,
00000000
00001001
00001000
00000010
,
00000100
00000000
00001000
00000000
00010000
00100000
01000000
00100000
,
10000000
01100000
00010000
10000000
,
01000000
00100000
00010000
00100000
00001000
00010000
00000000
00011000
,
00000000
00000100
00001000
00000010
,
00000100
00000001
00000000
00001000
00000000
00000001
00000000
00000020
,
00000000
00000000
00000100
00000000
00000130
00000010
00000100
00001000
,
00000010
00010000
00001000
00100000
,
01100000
11000000
00110000
01100000
,
20000000
00000000
31000000
00010000
00002000
00000000
00003000
00000000
,
00010000
00001100
00010000
00001100
,
00000010
00001000
00000000
00000101
00000000
00000022
00000000
00000033
,
00000110
00000101
00001010
00000110
,
00000002
00000203
00002300
00003000
,
00022000
00033000
02002000
03003000
,
00000000
20000000
32000000
03200000
00320000
00000000
00030000
00000000
,
01000000
00011000
00100000
00011000
,
01000000
00000000
00011000
00000000
00001000
00010000
00001000
00010000
,
00000100
00011000
00000010
00011000
,
00000100
00000000
00011000
00000000
00010000
00001000
00010000
00001000
,
01000000
01000000
01000000
00000000
01000000
00000000
00011000
00000000
,
00100000
00000000
00011000
00000000
00001000
00010000
00001000
00010000
,
00000100
00011000
00000010
00011000
,
00010000
00000100
00010000
00001000
01000000
00010000
00100000
00000000
,
02200000
00000000
03300000
00000000
00010000
10000000
00010000
10000000
,
00000000
01000000
00000000
00010000
00000000
00001000
00010000
00000000
,
00022000
00000000
00033000
00000000
00000100
00001000
00000100
00001000
,
00000000
00000010
00000100
00000000
00000001
00001000
00000001
00000000
,
00000220
00000000
00000330
00000000
00001000
00000100
00001000
00000100
,
00000000
00010000
00000000
00001000
00000000
01000000
00010000
00000000
,
02200000
00000000
03300000
10000000
00010000
10000000
00000000
01100000
,
00000000
10000000
01000000
00010000
,
00022000
00003000
00000200
00030300
,
00000100
00001000
00000001
00000010
00000100
00000000
00000000
00000000
,
00022000
00030000
02000000
03003000
,
01000000
00010000
10000000
00100000
01000000
00000000
00000000
00000000
,
00001000
00010000
00001000
00010000
00200000
00000000
0030MMMM
00000000
,
00010000
00001000
00010000
00000020
00000000
00000030
MMMM0000
00000000
,
00000100
00001000
00010000
00100000
,
10000000
00010000
10000000
01000000
00100000
00010000
01000000
00001000
,
00020000
00000000
00000000
00030000
,
00010100
01001000
00011000
MMMMMMMM
,
00101000
00000000
01001000
00000000
01000000
00010000
01000000
00000000
,
00100000
00000000
10000000
00000000
02000000
03200000
00320000
00230000
,
00301000
00000000
00011000
00000000
00010000
00000010
00010000
00000000
,
00000100
00001000
00000100
00000000
00000010
00000010
00000000
00002001
,
00000000
00003100
00010000
00001000
,
01000000
00010000
00000000
00100000
00000000
01000000
00000000
20020000
,
00000000
00000000
30030000
00000000
00000000
10000000
01000000
10000000
,
00000000
00100000
00100000
00000000
00000000
00010000
00001000
00010000
,
00000000
00011000
00000100
00001000
,
00000001
00000000
00000100
00000000
00000010
00001000
00000010
00010000
,
00001000
00011000
00010000
00001000
,
00100000
00010000
00100000
00010000
01000000
01000000
00000000
01100000
,
00000000
10000000
01000000
00010000
,
00001000
00010000
00000000
00000100
00000000
00000010
00000000
00002002
,
00000000
00000000
00003003
00000000
00000000
00000001
00000100
00000001
,
00000010
00001000
00010000
00100000
,
02200000
00000000
03300000
00000000
,
20000000
32000000
03200000
00320000
00030000
0000MMMM
MMMM0000
00000000
,
01001000
00110000
01010000
01001000
,
00001000
00010000
00000100
00001000
00000100
00000010
00000001
00000000
,
00000100
00001000
00010000
00000000
00001000
00010000
00100000
00000000
,
01000000
01000000
00000000
01100000
00000000
10010000
00000000
00000000
,
00101000
00010010
00010100
00101000
,
00001000
01000000
00001000
00010000
00100000
10000000
00010000
00000000
,
20200000
30300000
22000000
33000000
,
00000000
00001000
00010000
00000100
00001000
00000000
MMMMMMMM
00000000
,
00011000
00010100
00001010
00011000
,
00000100
00001000
00000100
00000010
00000002
00001000
00001003
00000000
,
00000001
00000100
00000010
00000000
00001000
00000010
00010000
00000000
,
00001000
00001000
00001000
00100000
00010000
00100000
01000000
00000000
,
11000000
00110000
01010000
11000000
,
10000000
01000000
10000000
00100000
02000000
00010000
03010000
00000000
,
00202000
00303000
00020020
00030030
,
00000000
00010000
00001000
00000100
00000020
00000000
00000030
00000000
;

//--------------- dance-double - forcednature ----------------
#NOTEDATA:;
#STEPSTYPE:dance-double;
#DESCRIPTION:forcednature;
#DIFFICULTY:Hard;
#METER:16;
#RADARVALUES:0,0,0,0,0;
#CREDIT:forcednature;
#NOTES:
00000000
00000000
00000000
00000000
,
00000000
00000000
00000000
00000000
,
00000000
00000000
00000000
00000000
,
00000000
00000000
00000000
00000000
,
00000000
00000000
00000000
00000000
,
00000000
00000000
00000000
00000000
,
00000000
00000000
00000000
00000000
,
00000000
00000000
00000000
00000000
,
00000000
00000000
00000000
00000000
,
00000000
00000000
00000000
00000000
00000000
00000000
00001000
00001000
,
00000000
00010000
00010000
00000000
00000000
00100000
01000000
01100000
,
00000000
00000000
10000000
00010000
10000000
00000000
00000000
00000000
01000000
00000000
00010000
00000000
00001000
00000000
00010000
00000000
,
00000010
00001000
00000001
00000010
00000200
00020300
00032000
00203000
,
00310000
00000000
10000000
00100000
10000000
00000000
00000000
00000000
01000000
00000000
10000000
00000000
00100000
00000000
01000000
00000000
,
00010000
00000000
01000000
00001000
00010000
00000000
00000010
00010000
00001000
00000000
00001000
00000000
00000000
00000000
00000110
00000000
,
00000000
00000001
00000100
00000000
00010000
00000000
01000000
00000000
,
00100000
00100000
00000000
10100000
00000000
11000000
00000000
00020000
,
00000000
02030000
03002000
00023000
00030200
00001300
00000010
00001000
,
00000100
00000000
00000100
00000000
00010000
00000000
00010000
00000000
00000010
00001000
00000010
00010000
00001000
01000000
00001000
00010000
,
00001000
10010000
00001000
10010000
,
20000000
00000000
01000000
01000000
30010000
10000000
00100000
00000000
,
00010000
00001000
00000010
00000000
00001000
00010000
00100000
00000000
,
01000000
01001000
00000000
10010000
00000000
00202000
00000000
00303000
,
00010000
00001001
00010000
00001001
,
00000002
00000000
00000103
00001000
00010000
00010000
00100000
00100000
,
02200000
03300000
20020000
30030000
,
00000000
20000000
32000000
03020000
00032000
00000000
00003000
00000000
,
00010000
00000100
00010000
00000100
00002000
00000000
00003001
00000000
00000100
00000000
00000010
00000000
00002000
00000000
00003001
00000000
,
00000100
00000000
00000010
00000000
00002000
00000000
00003100
00000000
00010000
00001000
00010000
00000000
00001000
00010000
00001000
00000000
,
01000000
00010000
01000000
00010000
00200000
00000000
01300000
00000000
10000000
00000000
00010000
00000000
00200000
00000000
01300000
00000000
,
10000000
00000000
00010000
00000000
00200000
00000000
01300000
00000000
10000000
00100000
10000000
00000000
00100000
10000000
00100000
00000000
,
01000000
00010000
01000000
00001000
00020000
00000000
00030100
00000000
00001000
00000000
00000010
00000000
00020000
00000000
00030100
00000000
,
00001000
00000000
00000010
00000000
00020000
00000000
00030200
00000000
00001300
00000001
00001000
00000000
00000001
00001000
00000001
00000000
,
00001000
00000010
00001000
00000010
00020000
00000000
00031000
00000000
01000000
00000000
00100000
00000000
00020000
00000000
00130000
00000000
,
10000000
00000000
01000000
00000000
00100000
00000000
00010000
00000000
00001000
00000000
00000100
00000000
00000010
00000001
00000000
00000000
,
00000201
00000000
00001300
00000100
00000010
00001000
00010000
01000000
,
00000000
01100000
00000000
10010000
00000000
10000000
01000000
00100000
,
00020000
00000000
01030000
00001000
00010000
01000000
00100000
00010000
,
00000000
01000000
00001000
00010000
01000000
00010000
00001000
00000000
,
00000020
00000030
00001001
00000001
00000100
00001000
00010000
00001000
,
00000000
00010100
00000000
00101000
00000000
00100000
00001000
00010000
,
00000020
00000000
00000130
00001000
00000100
00000001
00001000
00000010
,
00000000
00000100
00010000
01000000
,
02200000
03300000
20020000
30030000
,
20000000
32000000
03020000
00032000
00003020
00000030
00000011
00000000
,
00000220
00000330
00002002
00003003
,
00000002
00000203
00002300
00023000
00230000
00300000
10100000
00000000
,
10000000
01000000
00100000
00010000
00001000
MMMM0000
0000MMMM
00000000
,
00000001
00000100
00000010
00001000
00000000
0000MMMM
MMMM0000
00000000
,
01000000
00010000
01000000
00001000
00010000
00000100
00001000
00000100
,
00010000
00000010
00010000
00000010
00010000
00001000
01000000
00000000
00001000
00100000
00001000
00100000
00001000
00010000
00000100
00000000
,
00000020
00000000
00000000
00000030
,
00000100
00010000
00011000
MMMMMMMM
,
01001000
00000000
00010010
00000000
00000010
00001000
00000100
00001000
,
00000001
00000100
00000010
00001000
00020000
02030000
0302MMMM
00230000
,
01300000
00000000
11000000
00000000
10000000
01000000
00100000
00010000
,
01000000
00000000
00001000
00010000
00000100
00000000
00001000
00000100
00000010
00000000
00000010
00000000
MMMM0000
00000000
00001001
00000000
,
00000000
00000001
00001000
00000000
00010000
00000000
10000000
00000000
,
01000000
00100000
00000000
00101000
00000000
00010010
00000000
02001000
,
00000000
10000000
10000000
00000000
1300MMMM
01000000
00010000
00100000
,
00000000
00001000
00000010
00000000
MMMM0000
00000001
00000100
00002000
,
00000000
00000000
00013000
00001000
00010000
00000000
00000000
00000000
01000000
00000000
00010000
00000000
00001000
00000000
00000010
00000000
,
00000001
00000100
00001000
00010000
00002000
00003020
MMMM0230
00002300
,
00003010
00000000
00000010
00001000
00000001
00000000
00000000
00000000
00000100
00000000
00001000
00000000
00010000
00000000
00100000
00000000
,
01000000
00000000
01000000
00010000
00100000
00000000
00100000
01000000
10000000
00000000
10000000
00000000
0000MMMM
00000000
00110000
00000000
,
00000000
10000000
00010000
00000000
00001000
00000000
00000001
00000000
,
00000100
00000100
00000000
00010010
00000000
01001000
00000000
00210000
,
00000000
00001000
00001000
00000000
0130MMMM
00100000
00010000
00001000
,
00000100
00000000
00000100
00000000
00000010
00000000
00000010
00000000
00000001
00000100
00000001
00000100
00000010
00001000
00000010
00001000
,
00000200
00000000
00010300
0010MMMM
,
10000000
01000000
00100000
00010000
00000000
MMMM0000
0000MMMM
00000000
,
00001000
1001MMMM
00001000
1001MMMM
,
10000000
01000000
10000000
00000000
00100000
00000000
01000000
00000000
00010000
01000000
00001000
00010000
00002000
00000000
00000000
00000000
,
00003010
00000000
00001000
00000000
00010000
00000000
00000000
00000000
00100000
00000000
00010000
00000000
00001000
00000000
00010000
00000100
,
00010000
00001000
00000000
01001000
00000000
00210000
00000000
00301000
,
00010000
MMMM1001
00010000
MMMM1001
,
00010000
00000000
00000100
00000000
00001000
00000000
00000100
00000000
00010000
00001000
00010000
00001000
01000000
00010000
01000000
00010000
,
00200000
00300000
02000000
03000000
,
00000000
10000000
00100000
00010000
00001000
00000000
MMMMMMMM
00000000
,
0001MMMM
MMMM1001
0001MMMM
MMMM1001
,
00000001
00000000
00000000
00000100
00000000
00000000
00000000
00000000
00000000
00000001
00000000
00000000
00000010
00000000
00000000
00000000
00000000
00000000
00000100
00000000
00000000
00000000
00000000
00000000
00020000
00000000
00000000
00000000
00032000
00000000
00000000
00000000
00203000
00000000
00000000
00000000
00302000
00000000
00000000
00000000
00000000
00000000
00000000
00000000
00000000
00000000
00000000
00000000
,
00013000
00000000
00100000
00000000
01000000
00000000
00000000
00000000
00001000
00000000
00000010
00000000
00000100
00000000
00001000
00000001
,
00001000
00000000
00001000
00000010
00001000
00000000
00000100
00000000
00010000
00000000
00001000
00000000
00100000
00000000
00000000
00000000
,
MMMM1000
1001MMMM
MMMM1000
1001MMMM
,
10000000
01000000
00100000
00010000
00200000
00000000
00301000
00010000
00000010
00001000
00000010
00001000
00000001
00000010
00000001
00000010
,
MMMM0200
00000300
0200MMMM
03000000
,
00000000
0010MMMM
00010000
00001000
MMMM0200
00000000
00000300
00000000
;

//--------------- dance-double - forcednature ----------------
#NOTEDATA:;
#STEPSTYPE:dance-double;
#DESCRIPTION:forcednature;
#DIFFICULTY:Challenge;
#METER:18;
#RADARVALUES:0,0,0,0,0;
#CREDIT:forcednature;
#NOTES:
00000000
00000000
00000000
00000000
,
00000000
00000000
00000000
00000000
,
00000000
00000000
00000000
00000000
,
00000000
00000000
00000000
00000000
,
00000000
00000000
00000000
00000000
,
00000000
00000000
00000000
00000000
,
00000000
00000000
00000000
00000000
,
00000000
00000000
00000000
00000000
,
00000000
00000000
00000000
00000000
,
00000000
00000000
00000000
00000000
00000000
00000000
00011000
00101000
,
00000000
00011000
00010010
00000000
MMMMMMMM
00000001
00000100
00002000
,
00000000
00000000
00000000
00000000
00000000
00000000
00013000
00000000
00001000
00000000
00010000
00000000
00001000
00000000
00000000
00000000
00000000
00000000
00100000
00000000
00000000
00000000
00000000
00000000
00010000
00000000
00000000
00000000
00000000
00000000
00100000
00000000
00000000
01000000
00000000
00000000
10000000
00000000
00000000
00000000
00000000
00000000
01000000
00000000
00000000
00000000
00000000
00000000
,
10000000
00000000
00100000
00010000
00001000
00000000
00100000
00000000
00010000
00000000
00110000
00000000
00101000
00000000
00000000
00000000
,
00001000
00000000
00000010
00000100
00000010
00000000
00000001
00000000
00000100
00000000
00000001
00000010
00001000
00000000
00010000
00000000
,
00001000
00000000
00100000
00010000
01000000
00000000
00100000
10000000
01000000
00000000
01100000
00000000
00000000
00000000
00011000
00000000
,
00000000
00000000
00000100
00001000
00000001
00000000
00000010
00000001
00001000
00000000
00000010
00000100
00000001
00000000
00000010
00000000
,
00001000
00010000
00000000
00011000
00000000
00101000
00000000
00210000
,
00000000
01000000
01000000
01000000
01300000
00100000
00001000
00010000
,
00000100
00001000
00000010
00000000
00000100
00000001
00000010
00000000
00000100
00001000
00000100
00010000
00001000
00100000
00010000
00100000
,
00010000
01000000
10000000
00000000
MMMMMMMM
00000000
00000000
00000000
00001000
00000100
00000001
00000000
MMMMMMMM
00000000
00000000
00000000
,
00021000
00000000
00000000
00000000
00130000
00000000
00010000
00000000
01000000
00000000
00010000
10000000
00100000
00000000
00000000
00000000
,
10000000
00000000
01000000
00010000
00001000
00000000
00100000
00000000
00010000
00000000
00100000
00001000
00010000
00000000
00000100
00001000
,
00000010
00000000
00000110
00000000
MMMMMMMM
00000000
00000101
00000000
MMMMMMMM
00000000
00000011
00000000
MMMMMMMM
00000000
00001000
00000100
,
00001000
00000010
00000001
00000000
MMMMMMMM
00000000
00000000
00000000
00010000
00100000
10000000
00000000
MMMMMMMM
00000000
00000000
00000000
,
00001000
00010000
00001000
00000000
00100000
00010000
00100000
00000000
00001000
00010000
00000010
00001000
00000010
00010000
00001000
00010000
,
02000000
03100000
10020000
00130000
,
00000000
10000000
00010000
00001000
00000002
00000000
00000003
00000000
,
00000100
00000001
00000100
00000001
00002000
00000000
00003010
00000000
00000100
00000000
00001000
00010000
00200000
00000000
01300000
00000000
,
00100000
00000000
10000000
01000000
00020000
00000000
00031000
00000000
00100000
00010000
01000000
00000000
01000000
00010000
00100000
00000000
,
00001000
00010000
00001000
00010000
00000020
00000000
00001030
00000000
00000001
00000000
00001000
00000100
00000002
00000000
00000103
00000000
,
00001000
00000000
00000001
00000010
00002000
00000000
00013000
00000000
00100000
00010000
01000000
00000000
01000000
00010000
00100000
00000000
,
01000000
10000000
01000000
00010000
02000000
00000000
03100000
00000000
00001000
00000000
00010000
00000100
00002000
00000000
00003010
00000000
,
00000100
00000000
00000001
00000010
00002000
00000000
00013000
00000000
00000010
00001000
00000100
00000000
00000100
00001000
00000010
00000000
,
00010000
00001000
00100000
00010000
00200000
00000000
01300000
00000000
10000000
00000000
00100000
10000000
01000000
00000000
01100000
00000000
,
20000000
00000000
32000000
00000000
03200000
00000000
00320000
00000000
00032000
00000000
00003200
00000000
00000320
00000032
00000003
00000000
,
00000201
00000000
00001300
00000100
00000001
00001000
00000010
00001000
,
00000000
00011000
00000000
01100000
00000000
10000000
01000000
00010000
,
00100000
00000000
01000000
00010000
00001000
00100000
00110000
00001000
,
00000000
00000000
00000010
00000100
00001000
00000000
00000010
00000100
00000001
00000000
00000110
00000000
00001001
00000000
00000000
00000000
,
00010000
00001000
00000010
00001000
00010000
00000000
00100000
00000000
01000000
00000000
00010000
00000000
01010000
00000000
10000000
00000000
,
00000000
01000000
00010000
00000100
00001000
01000000
00010000
00000100
,
00011000
00000000
00000000
00000000
00000110
00000000
00001000
00000000
00000001
00000000
00000010
00000100
00001000
00000000
00001100
00000000
,
00000000
00000000
00010000
00001000
00010000
00000000
00001000
00100000
00010000
00000000
01000000
00000000
10010000
00000000
00000000
00000000
,
12000000
00000000
00000000
00000000
00010000
00000000
00010000
00000000
03010000
00000000
00000000
01000000
00100000
00000000
00000000
00000000
,
00002000
00003020
00000230
00020300
00032000
00003000
00000010
00000001
,
00001200
00000000
00000000
00000000
00000001
00000000
00000001
00000000
00000301
00000000
00000000
00000100
00010000
00000000
00000000
00000000
,
00002000
00203000
20300000
30020000
02030000
03000000
10000000
00100000
,
10010000
00010000
00011000
00001000
00001001
00000000
MMMMMMMM
00000000
,
00000010
00100000
00000100
01000000
00000000
MMMMMMMM
MMMMMMMM
00000000
,
10000000
00000000
10000000
01000000
00100000
00000000
00100000
00001000
00010000
00000000
00010000
00000100
00001000
00000000
00001000
00000010
,
00000100
00000001
00000100
00000001
00000100
00000001
00000100
00000001
00000010
00000100
00001000
00000100
00000010
00000100
00001000
00000100
,
00020000
00000000
00000010
00000010
00000000
00000010
00030010
00000000
,
00000110
00000000
00011000
00000000
01100000
MMMMMMMM
MMMMMMMM
00000000
,
11000000
00000000
00010000
00100000
01000000
00000000
00100000
00000000
00110000
00000000
00001000
00010000
00000100
00000000
00001000
00000000
,
00000010
00000000
00000100
00000001
00000010
00000000
00000100
00001000
00000010
00000000
00010000
00000000
00011000
00000000
00000000
00000000
,
00110000
00000000
10000000
01000000
00100000
00000000
00010000
00000000
00110000
00000000
00001000
00010000
00000010
00000000
00001000
00000000
,
00001100
00000000
00000001
00000010
00001000
00000000
00001000
00000010
00000001
00000000
00000101
00000000
00000000
00000000
00001010
00000000
,
MMMMMMMM
00000000
00010000
00001000
00000010
00000000
00001000
00010000
00100000
00000000
00010000
00001000
00000100
00000000
00001000
00010000
,
01000000
00000000
10000000
00000000
00100000
00000000
10100000
00000000
00000000
00000000
00010000
01000000
00100000
00000000
10010000
00000000
,
00000000
00000000
10000000
01000000
00010000
00000000
00001000
00000100
00000001
00000000
00000010
00000000
00001000
00000000
00000110
00000000
,
00000000
00011000
00101000
00000000
MMMMMMMM
01000000
10010000
00210000
,
00000000
00000000
00000000
00000000
00000000
00000000
01300000
00000000
10000000
00000000
01000000
00000000
00010000
00000000
00000000
00000000
00000000
00000000
00001000
00000000
00000000
00000000
00000000
00000000
00011000
00000000
00000000
00000000
00000000
00000000
00000010
00000000
00000000
00001000
00000000
00000000
00000100
00000000
00000000
00000000
00000000
00000000
00000010
00000000
00000000
00000000
00000000
00000000
,
00000110
00000000
00001000
00000001
00000010
00000000
00000001
00000100
00001000
00000000
00010000
00000000
00101000
00000000
00000000
00000000
,
00110000
00000000
10000000
01000000
00010000
00000000
00001000
00000000
00110000
00000000
00100000
00001000
00010000
00000000
00000010
00000000
,
00001010
00000000
00000001
00000100
00001000
00000000
00010000
01000000
10000000
00000000
00100000
00000000
00000000
00000000
01100000
00000000
,
MMMMMMMM
00000000
10000000
01000000
00100000
00000000
00010000
00100000
01000000
00000000
00010000
00001000
00000010
00000000
00001000
00010000
,
00100000
00000000
01000000
00000000
00010000
00000000
00110000
00000000
00000000
00000000
00001000
00010000
00000010
00000000
00001010
00000000
,
00000000
00000000
00001000
00000100
00000001
00000000
00000100
00001000
00000001
00000000
00000010
00000000
00001000
00000000
00010000
00000000
,
00011000
00000000
00100000
00000000
00011000
00000000
01000000
00000000
00010000
00100000
00010000
10000000
00010000
00100000
00010000
10000000
,
02000000
00000000
00000000
00000000
03010000
MMMMMMMM
00011000
MMMMMMMM
,
00000010
01000000
00000100
00200000
00000000
0030MMMM
MMMM0000
00000000
,
00010000
01000000
10000000
00000000
MMMMMMMM
00000000
00000000
00000000
00001000
00000010
00000001
00000000
MMMMMMMM
00000000
00000000
00000000
,
00021000
00000000
00000000
00000000
00030010
00000000
00000010
00000000
00001000
00000001
00000100
00000001
00001000
00000000
00000000
00000000
,
00000001
00000000
00000100
00001000
00010000
00000000
00100000
00000000
10000000
00000000
01000000
00010000
00001000
00000000
00000010
00000100
,
00001000
00000000
00001100
00000000
MMMMMMMM
00000000
00011000
00000000
MMMMMMMM
00000000
00110000
00000000
MMMMMMMM
00000000
01000000
00001000
,
00010000
00100000
10000000
00000000
MMMMMMMM
00000000
00000000
00000000
00001000
00000100
00000001
00000000
MMMMMMMM
00000000
00000000
00000000
,
00001000
00000100
00010000
00000000
00001000
00010000
00000100
00000000
00001000
00000010
00000100
00000010
00001000
00000001
00000100
00000001
,
00002000
00000000
00000000
00000000
00003100
00010000
00000100
00010000
00001000
00100000
00001000
00100000
00010000
01000000
00100000
10000000
,
00000000
10000000
00001000
00010000
00000002
00000003
MMMMMMMM
00000000
,
00001000
00000010
00000001
00000000
MMMMMMMM
00000000
00000000
00000000
00010000
00100000
10000000
00000000
MMMMMMMM
00000000
00000000
00000000
,
00110000
00000000
00000000
00110000
00000000
10000000
01000000
00000000
10000000
00100000
01000000
00010000
00100000
00000000
00000000
00000000
,
01000000
00000000
00010000
00001000
00010000
00000000
00000010
00000000
00000100
00000000
00001000
00010000
00001000
00000000
00100000
00010000
,
01000000
00000000
00100000
10000000
01000000
00000000
01100000
00000000
00101000
00000000
00010100
00000000
00000110
00000000
MMMMMMMM
00000000
,
00001000
00000100
00000001
00000000
MMMMMMMM
00000000
00000000
00000000
00010000
01000000
10000000
00000000
MMMMMMMM
00000000
00000000
00000000
,
00010000
00100000
01000000
00100000
00010000
00100000
00001000
00100000
01000000
00010000
00001000
00010000
00000010
00010000
00001000
00010000
,
00200000
00000000
00000000
00000000
01300000
00010000
01000000
00001000
00010000
00000010
00001000
00000010
00000100
00000001
00001000
00000000
,
MMMMMMMM
00000010
01000000
00000100
00200000
00300000
MMMMMMMM
00000000
;
