#VERSION:0.83;
#TITLE:摩天楼ノ特異点~Anti-HERO;
#SUBTITLE:;
#ARTIST:純情ディスコード;
#TITLETRANSLIT:Matenrou no tokuiten~Anti HERO;
#SUBTITLETRANSLIT:;
#ARTISTTRANSLIT:Junjou discord;
#GENRE:;
#CREDIT:;
#MUSIC:Matenrou no tokuiten~Anti HERO.ogg;
#BANNER:Matenrou no tokuiten~Anti HERO.png;
#BACKGROUND:Matenrou no tokuiten~Anti HERO-bg.png;
#CDTITLE:./CDTitles/GITADORA Matixx.png;
#SAMPLESTART:49.126;
#SAMPLELENGTH:15.000;
#SELECTABLE:YES;
#OFFSET:1.237;
#BPMS:0.000=178.000
,264.500=89.000
,275.750=178.000
;
#STOPS:29.000=0.337
,264.500=0.506
,275.750=0.421
;
#TIMESIGNATURES:0.000=4=4,
28.000=3=4,
31.000=4=4,
263.000=2=4,
265.000=4=4
;
#BGCHANGES:0.000=../BGAs/17te.mp4=1.000=0=0=0=StretchNoLoop====,
99999.000=-nosongbg-=1.000=0=0=0=StretchNoLoop====
;
#FGCHANGES:;

//--------------- dance-single - forcednature ----------------
#NOTEDATA:;
#STEPSTYPE:dance-single;
#DESCRIPTION:forcednature;
#DIFFICULTY:Beginner;
#METER:3;
#RADARVALUES:0,0,0,0,0;
#CREDIT:forcednature;
#NOTES:
0000
0000
0000
0000
,
0000
0000
0000
0000
,
0000
0000
0000
0000
,
0000
0000
0000
0000
,
0000
0000
0000
0000
,
0000
0000
0000
0000
,
1000
0000
0000
0000
,
0001
0000
0000
0000
,
0000
0100
0000
0000
,
0000
0010
0000
0000
,
0000
1000
0000
0000
,
0000
0001
0000
0000
,
0000
0010
0000
0010
,
0000
0010
0000
0100
,
0000
0000
0000
1000
,
0000
0000
0000
0001
,
0000
0000
0000
0100
,
0000
0000
0000
0010
,
0000
0000
0000
1000
,
0000
0000
0000
0001
,
0000
0001
0000
0001
,
0000
0000
0000
0010
,
0000
0000
0000
0100
,
0000
0000
0000
1000
,
0000
0000
0000
0001
,
0000
0000
0000
0100
,
0000
0000
0000
0010
,
0000
0000
0000
1000
,
0000
0000
0000
1000
,
0000
1000
0000
1000
,
0000
0000
0000
0001
,
0000
0000
0000
0010
,
0000
0000
0000
0100
,
0000
0000
0000
1000
,
0000
0000
0000
0001
,
0000
0000
0000
0100
,
0000
0000
0000
0010
,
0000
0000
0000
1001
,
0000
0000
0000
0001
,
0000
0000
0000
0100
,
0000
0000
0000
0001
,
0000
0000
0000
1000
,
0000
0000
0000
0100
,
0000
0000
0000
1000
,
0000
0000
0000
0010
,
0000
0010
0000
0010
,
0000
0000
0000
0100
,
0000
0000
0000
0001
,
0000
0000
0000
0010
,
0000
0000
0000
0100
,
0000
0000
0000
1000
,
0000
0000
0000
0001
,
0000
0000
0000
0100
,
0000
0000
0000
1001
,
0000
0000
0000
1000
,
0000
0000
0000
0010
,
0000
0000
0000
0100
,
0000
0000
0000
0001
,
0000
0000
0000
1000
,
0000
0000
0000
0001
,
0000
0000
0000
0010
,
0000
0000
0000
0100
,
0000
0000
0000
1000
,
0000
0000
0000
0001
,
0000
0000
0000
1000
,
0000
0000
0000
0010
,
0000
1001
0000
0000
,
0000
0001
0000
1000
,
0000
0010
0000
0100
,
0000
1001
0000
0000
,
0000
1000
0000
0000
,
0000
0100
0000
0000
,
0000
0010
0000
0000
,
0000
0001
0000
0000
,
0000
0001
0000
0000
,
0000
0100
0000
0000
,
0000
0010
0000
0000
,
0000
1000
0000
0000
,
0000
1000
0000
0000
,
0000
0100
0000
0000
,
0000
0010
0000
0000
,
0000
0001
0000
0001
,
0000
0001
0000
0000
,
0000
1001
0000
0000
,
0000
1000
0000
0010
,
0000
1000
0000
0001
,
0001
0000
0000
0000
;

//--------------- dance-single - forcednature ----------------
#NOTEDATA:;
#STEPSTYPE:dance-single;
#DESCRIPTION:forcednature;
#DIFFICULTY:Easy;
#METER:7;
#RADARVALUES:0,0,0,0,0;
#CREDIT:forcednature;
#NOTES:
0000
0000
0000
0000
,
0000
0000
0000
0000
,
0000
0000
0000
0000
,
0000
0000
0000
0000
,
0000
0000
0000
0000
,
0000
0000
0000
0000
,
1000
1000
0001
0001
,
0000
0000
0100
0000
0000
1001
0000
0000
,
1000
0100
1000
0000
,
0001
0100
0001
0010
,
0000
0100
1000
0001
,
1000
0010
0000
0100
,
0100
0001
0000
0010
,
0100
1000
0000
0001
,
0000
0100
0000
0001
,
0100
0001
0000
0100
,
0010
0100
0000
0010
,
1000
0010
0000
1000
,
0000
0001
0000
1000
,
0100
1000
0000
0100
,
0000
0100
0000
0010
,
0010
0010
0000
1001
,
0000
0001
0000
0100
,
0000
0001
0000
1000
,
0000
0100
0000
1000
,
0010
1000
0000
0001
,
0000
0010
0000
0001
,
0000
0100
0000
0010
,
0000
0010
0000
0000
0010
0000
0000
1000
,
0000
1000
0000
0000
0000
0000
0001
0000
,
0000
0010
0000
0001
,
0010
0001
0000
0010
,
0000
0100
0000
0010
,
0100
0010
0000
0100
,
0000
1000
0000
0001
,
0000
1000
0000
0010
,
0010
0100
0100
0010
,
0010
0000
0000
1001
,
0000
1000
0100
0010
,
0001
0100
0010
1000
,
0000
0100
1000
0010
,
0100
0001
0010
0100
,
0000
0010
0001
1000
,
0001
0100
0000
0010
,
0010
1000
0001
1000
,
0100
0010
0000
0110
,
0000
0100
1000
0001
,
1000
0010
0100
0001
,
0000
0010
0001
0100
,
0010
1000
0100
0010
,
0000
0100
1000
0001
,
1000
0010
0000
0110
,
0000
0100
0100
0001
,
0001
0000
0010
0000
0000
1001
0000
0000
,
1000
0001
1000
0000
,
0001
0100
0001
0010
,
0000
0100
1000
0100
,
0010
0000
0001
0000
0000
1001
0000
0000
,
1000
0010
1000
0001
,
1000
0100
0000
0010
,
0000
0010
0000
0000
0001
0000
0000
0001
,
0000
0100
0010
1000
,
0000
1000
0100
0010
,
0100
1000
0000
0001
,
0001
0100
0100
0010
,
1000
0000
0010
0000
0000
1001
0000
0000
,
0010
1001
1000
0100
,
1000
0001
0100
0001
,
0001
0000
0010
0010
0010
0000
0100
0200
,
0300
1001
0000
1000
,
0000
0100
1000
0001
,
0100
0010
0000
1000
,
0001
0010
0100
1000
,
0000
1001
0000
0001
,
0100
0001
1000
0010
,
0000
0100
0001
0010
,
0001
1000
0010
1000
,
0000
1001
0000
0000
0001
0000
0010
0000
,
0001
0000
1000
0010
,
1000
0000
0100
0100
,
0010
0000
0100
1000
,
0001
1000
1000
0010
,
0010
0100
0100
0001
,
0000
1001
0000
0000
1000
0000
0100
0000
,
1000
0000
0001
0100
,
0000
1001
0000
0000
0010
0000
0100
0000
,
1001
0000
0000
0000
;

//--------------- dance-single - forcednature ----------------
#NOTEDATA:;
#STEPSTYPE:dance-single;
#DESCRIPTION:forcednature;
#DIFFICULTY:Medium;
#METER:12;
#RADARVALUES:0,0,0,0,0;
#CREDIT:forcednature;
#NOTES:
0000
0000
0000
0000
,
0000
0000
0000
0000
,
0000
0000
0000
0000
,
0000
0000
0000
0000
,
0000
0000
0000
0000
,
0000
0000
0000
0000
,
1001
1000
1000
0001
,
0001
0000
0100
0000
0000
1001
0000
0000
,
1000
0100
1000
0000
,
0001
0000
0100
0001
0100
0000
0010
0000
,
1000
0000
0001
0000
0010
0000
0100
0010
,
0100
0000
1000
0100
1000
0100
0000
0000
,
0010
0000
0001
0000
1000
0000
0001
0100
,
0001
0000
1000
0010
0000
0000
1000
0010
,
1000
0000
0000
0000
1000
0100
0000
1000
,
0100
0000
0010
0000
0001
0010
0001
0010
,
0001
0000
1000
0000
0001
0100
0000
0010
,
1000
0000
0001
0010
0100
1000
0010
0000
,
0100
0000
0001
1000
0001
0000
0010
0000
,
0100
0000
1000
0000
0010
0100
0000
0001
,
0010
0100
0000
1000
0000
1001
0000
0001
,
0100
0000
0010
1000
0010
0000
1001
0000
,
1000
0000
0100
0010
0000
0001
0000
0010
,
0100
1000
0001
0200
,
0010
0000
0300
0000
0100
0000
0010
1000
,
0001
0000
1000
0100
0010
0000
0110
0000
,
0100
0000
1000
0001
1000
0010
0000
0010
,
0100
0001
0000
0010
0100
0000
1000
1000
,
0000
0001
0001
0000
0100
0100
0000
0010
,
0000
2002
0000
0000
3003
0000
1000
0100
,
1000
0100
0000
0010
0000
1001
0000
0001
,
0100
0010
1000
0001
0000
0010
0001
0010
,
0100
0000
1000
0001
0000
0101
0000
0010
,
1000
0000
0001
0010
0100
1000
0001
0000
,
0100
0010
1000
0000
0100
0010
0002
0000
,
0203
0000
2300
0000
3001
0010
0000
1000
,
0001
0010
0000
0001
1000
0010
0000
0100
,
0100
0020
0000
0000
0030
0000
1001
0000
,
1000
0100
0010
0100
1000
0001
0000
0100
,
0010
1000
0000
0001
0010
0000
1000
0000
,
0001
0100
0010
1000
0001
0010
0000
0100
,
0010
0001
0000
1000
0010
0000
0100
0000
,
0001
0010
0001
1000
0010
1000
0000
0100
,
0010
0000
0000
0000
0100
0000
0000
1000
0000
0000
0001
0000
0010
0000
0000
0000
,
0100
1000
0000
0001
0000
1000
0000
0010
,
0100
0001
1000
0100
0010
0000
0110
0000
,
0100
1000
0000
0001
0100
0010
0000
1000
,
0001
0010
0000
0001
1000
0010
0100
0000
,
0001
0010
0100
1000
0010
0100
0000
0001
,
0000
1000
0100
0010
0001
0000
1001
0000
,
1000
0010
1000
0000
0001
0010
0000
0001
,
0100
0000
0001
0000
1000
0000
0000
0010
0000
0000
1000
0000
0001
0000
0000
0000
,
0010
0100
0000
1000
0000
1001
0000
0001
,
0001
0000
0100
0010
1000
0001
0000
0010
,
0100
0000
1000
0001
0100
0001
0000
0010
,
0000
0100
0000
0010
0001
1000
0010
0100
,
0010
0000
1000
0000
0001
0010
0000
0100
,
1000
0000
0001
0001
0100
0010
0000
1000
,
0100
1000
0000
1000
0010
1000
0000
0001
,
0010
0001
0100
0000
0010
1000
0001
0000
,
0010
0100
0000
1000
0001
0000
0100
0010
,
0000
1001
0000
0100
0010
0000
0110
0000
,
0001
0010
0100
0000
1000
0001
0000
0100
,
0010
0000
1000
0100
0010
0001
0000
0100
,
0001
0100
0010
1000
0010
0100
0000
0001
,
1000
0001
0010
0000
0100
1001
0000
0010
,
0010
0000
1001
0000
1000
0000
0001
0001
,
0001
0100
0010
0000
1000
1000
1000
0100
,
0010
0000
0000
0000
0110
0000
0000
0000
0100
0000
1000
0001
0000
0001
1000
0000
,
0000
0000
1001
0000
0001
0100
0000
0010
,
1000
0001
0000
1000
0100
0010
0000
0100
,
1000
0000
0010
0000
0100
0001
0010
0000
,
0100
1000
0000
0010
1000
1000
0001
0000
,
0010
0100
1000
0000
1000
0010
0000
0100
,
0001
0000
0010
0000
0000
0000
0100
0000
1000
0000
0001
0000
0100
0000
0000
0010
,
0000
1000
0001
0000
0010
0100
0000
0010
,
0001
1000
0000
0010
0100
0001
0010
0000
,
0100
1001
0000
1000
0010
0100
0010
0000
,
1000
0001
0000
0010
0100
0010
0001
0000
,
0100
0010
0000
1000
0100
1000
0001
0000
,
0100
0001
0000
0010
0100
0010
0001
0000
,
1000
0010
0100
0000
0001
0010
0000
0100
,
1000
0010
0000
0100
0002
0000
1000
0000
,
0013
1001
0000
0001
0100
0000
0010
0000
,
1001
0000
0000
1000
0100
0010
0001
0000
,
0100
0010
0000
1000
0001
0010
0100
0000
,
1001
0000
0000
0000
;

//--------------- dance-single - forcednature ----------------
#NOTEDATA:;
#STEPSTYPE:dance-single;
#DESCRIPTION:forcednature;
#DIFFICULTY:Hard;
#METER:14;
#RADARVALUES:0,0,0,0,0;
#CREDIT:forcednature;
#NOTES:
0000
0000
0000
0000
,
0000
0000
0000
0000
,
0000
0000
0000
0000
,
0000
0000
0000
0000
,
0000
0000
0000
0000
,
0000
0000
0000
0000
,
1001
0000
0001
0100
0010
1000
0001
0010
,
0000
0100
0200
0300
0000
1001
0000
1000
,
0010
0000
0100
0010
0100
0000
0001
0000
1000
0000
0002
0000
0000
0000
0010
0000
,
0000
0203
0000
0310
1000
0001
0000
0010
,
0100
0000
1000
0000
0001
0100
0001
0000
1000
0000
0100
0000
0000
0000
0010
0000
,
1001
0000
0001
0100
0010
2000
0000
0000
,
0100
0000
0000
0000
3001
0000
1000
0000
0010
1000
0020
0000
0000
0000
0130
0000
,
0001
0000
1000
0001
1000
0000
0200
0000
0000
0000
0300
0000
0010
0000
0010
0000
,
0010
0000
0001
0010
0100
0010
0000
0010
,
0010
0000
0100
1000
0001
0010
0000
0010
,
0010
0000
0001
1000
0001
0100
0000
0100
,
0100
0000
0010
1001
0000
0110
0000
0001
,
0010
0100
2000
0000
0010
0010
0000
0001
,
3001
1000
0100
0010
0001
0101
0000
0010
,
1000
1100
0000
0100
0000
1001
0000
1000
,
0010
0000
0100
0010
0100
0000
0001
0000
1000
0000
0000
0000
0110
0000
0000
0000
,
0001
0010
0100
1000
0001
0100
0000
0010
,
1000
0001
0100
1000
0001
0010
2000
0000
,
0100
0000
3001
1000
0010
0210
0000
0000
,
1000
0000
0301
0100
0010
1000
1001
0000
,
0001
0010
1000
0000
1000
0010
0000
0100
,
0010
0000
0001
0010
0001
0000
1000
0000
1001
0000
0000
0000
0001
0000
0101
0000
,
0000
1000
1100
0000
0010
0110
0000
0100
,
0000
1002
0000
0010
0013
0000
0001
0100
,
1000
0100
0000
0010
1000
0002
0000
0013
,
0100
1000
0100
0010
0000
0011
0000
0001
,
0100
0000
0010
0001
0000
0021
0000
1000
,
1030
0000
0010
0000
0100
0000
0001
0100
0001
0000
1000
0000
0100
0000
0000
0000
,
0010
0001
0100
0001
0010
0110
0000
0010
,
0001
1000
0010
0010
0100
1001
0000
1000
,
0100
0000
0010
0100
0010
0000
0001
0000
0100
0000
0102
0000
0000
0000
0010
0000
,
0010
0023
0000
0000
0030
0000
1001
0000
,
1000
0000
0100
0000
0010
0000
0001
0010
0001
0000
0100
0000
0010
0000
1000
0000
,
0100
0001
0100
1000
0010
0100
0110
0000
,
0001
0000
0100
0000
0010
0000
1000
0010
1000
0000
0001
0000
0010
0000
0100
0000
,
1000
1010
0000
0001
0010
0100
0110
0000
,
0010
0000
0001
0010
0001
0000
1000
0000
0001
0000
0201
0000
0000
0000
0010
0000
,
0320
0000
0000
0000
1030
0000
0000
0001
0000
0000
0010
0000
0100
0000
1000
0000
,
0100
0000
0010
0100
0010
0000
0001
0000
1000
0000
1010
0000
0000
0000
0001
0010
,
0001
0000
0010
0000
0100
0000
1000
0000
0010
0100
0010
0100
0001
0000
0000
0000
,
0010
0000
0100
0000
1000
0000
0001
1000
0001
0000
0200
0000
0000
0000
0310
0000
,
1000
0001
0010
1000
0010
0001
0100
0000
,
0010
0000
1000
0000
0100
0000
1000
0100
1000
0000
0010
0000
0000
0000
0100
0000
,
1001
0000
0000
1000
0100
0000
0010
0000
0001
0000
0100
0000
0110
0000
0000
0000
,
0010
0000
1000
0000
0001
0000
0100
0001
0100
0000
0010
0000
0000
0000
1000
0000
,
0010
0000
0001
0000
0010
0000
0000
1000
0000
0000
0001
0000
0011
0000
0000
0000
,
0010
0100
0000
1100
0000
2001
0000
0010
,
3010
0000
1000
0000
0100
0000
0010
0001
0010
0000
1002
0000
0000
0000
0103
0000
,
0020
0000
0000
0000
1030
0000
0001
0010
0100
0000
1000
0000
0000
0010
1000
0000
,
0010
1000
0010
0000
0100
0000
0001
0000
0010
0000
2000
0000
0000
0000
3010
0000
,
0001
0000
0100
0000
0001
1000
0001
0000
0010
0000
0110
0000
0000
0000
0100
0000
,
0001
0000
0100
0000
1000
0000
0001
1000
0001
0000
0200
0000
0000
0000
0310
0000
,
0001
0010
0100
0010
1000
0001
0010
0100
,
0010
0000
0000
0000
0000
0000
0100
0000
0000
1000
0000
0000
0001
0000
0000
0000
0000
0000
0000
0000
0100
0000
0000
0000
0010
0000
0000
0000
1000
0000
0000
0000
0001
0000
0000
0000
0010
0000
0000
0000
0000
0000
0000
0000
0000
0100
0000
0000
,
1000
0000
0010
0000
0000
0100
0001
0000
1000
0000
0100
0000
0010
0001
0010
0000
,
0100
0000
2001
0000
0000
0000
3001
0000
0100
0000
0010
1000
0010
0000
0100
0000
,
0001
0020
0000
0130
1000
0020
0000
0100
,
1000
1030
0010
0100
0001
1001
0000
1000
,
0100
0000
0001
0000
0100
0000
1000
0001
1000
0000
0020
0000
0000
0000
0130
0010
,
0100
0000
0000
0001
0000
0000
1000
0000
0100
0000
0010
0000
0001
0000
0000
2001
0000
0000
0000
0000
0000
0010
0000
0000
,
3010
0000
0200
0300
1001
0000
0001
0010
0000
0100
0000
1000
0000
0100
0010
0001
,
0000
1000
1000
0000
0001
0000
1000
0010
0000
0100
0000
0001
0000
0100
0010
1000
,
0000
0001
0001
0000
0110
0000
1000
0001
1000
0001
0100
1000
0000
0100
0100
0002
,
0003
0000
0000
0000
2100
0000
0000
0000
3001
0000
0100
0000
0010
0000
1000
0010
,
1000
0002
0000
0013
0100
1000
0010
0001
,
0010
0000
0100
0000
0001
0000
0000
0000
0010
0000
0100
0000
1000
0000
0001
0100
,
0001
0000
2000
0000
0000
0000
3100
0000
0010
0000
1001
0000
0000
1000
0010
0000
,
0100
0001
0100
0000
0001
0000
0000
0000
0010
0000
0100
0000
1000
0000
0010
1000
,
0010
0000
0200
0000
0000
0000
1300
0000
0100
0000
0001
0000
0010
0000
0000
0100
,
0000
1000
0002
0000
0103
0010
0001
0010
,
1000
0000
1001
0000
0000
0000
0001
0000
0010
0000
1000
0000
0010
0000
0000
0010
,
0100
1100
0000
0001
0100
1000
0100
0001
,
0010
0110
0000
1000
0100
0001
0100
1000
,
0010
0110
0000
0100
1000
0001
0010
1000
,
0001
2001
0000
3100
0001
1000
0010
0001
,
1000
0000
0010
0000
0110
0000
0000
0100
0001
0000
0010
0000
0000
0100
1000
0000
,
0010
0000
1001
0000
0000
0000
1000
0000
0100
0000
0010
0000
0001
1000
0001
1000
,
0010
0100
0000
0010
1000
0000
1010
0000
,
1100
0000
0001
0000
0000
0000
1000
0010
1000
0000
0001
0000
0010
0000
0100
0000
,
0010
1001
0000
1000
0100
0001
0110
0000
,
1001
0000
0000
0000
;

//--------------- dance-double - forcednature ----------------
#NOTEDATA:;
#STEPSTYPE:dance-double;
#DESCRIPTION:forcednature;
#DIFFICULTY:Easy;
#METER:8;
#RADARVALUES:0,0,0,0,0;
#CREDIT:forcednature;
#NOTES:
00000000
00000000
00000000
00000000
,
00000000
00000000
00000000
00000000
,
00000000
00000000
00000000
00000000
,
00000000
00000000
00000000
00000000
,
00000000
00000000
00000000
00000000
,
00000000
00000000
00000000
00000000
,
00001000
00010000
00001000
00010000
,
00000000
00000000
00000100
00000000
00000000
00001001
00000000
00000000
,
00000001
00000100
00001000
00000000
,
00000100
00000001
00001000
00000000
,
00000010
00010000
00001000
00100000
,
00001000
00010000
00000000
00100000
,
00100000
01000000
00000000
00100000
,
10000000
00010000
00000000
10010000
,
00000000
10000000
00000000
01000000
,
00010000
00001000
00000000
00010000
,
00000100
00001000
00000000
00000100
,
00010000
00001000
00000000
00011000
,
00000000
00001000
00000000
01000000
,
00010000
10000000
00000000
01000000
,
00100000
01000000
00100000
00001000
,
00001000
00001000
00000000
00011000
,
00000000
00010000
00000000
00000010
,
00001000
00000001
00000000
00000010
,
00000100
00001000
00000000
00000100
,
00010000
00001000
00000000
00011000
,
00000000
00010000
00000000
00001000
,
01000000
00010000
00000000
00100000
,
00000000
01000000
00000000
00000000
00100000
00000000
00000000
00010000
,
00000000
00010000
00000000
00000000
00000000
00000000
10010000
00000000
,
00000000
10000000
00000000
01000000
,
00010000
00001000
00000000
00100000
,
00000000
00001000
00000000
00010000
,
00000010
00001000
00000000
00001001
,
00000000
00000001
00000000
00000010
,
00000100
00010000
00000000
00001000
,
00001000
00100000
00100000
00001000
,
00010000
00000000
00000000
00011000
,
00000000
00001000
01000000
00010000
,
01000000
00010000
10000000
00100000
,
00000000
10000000
01000000
10000000
,
00010000
00100000
00001000
00010000
,
00000000
00000010
00001000
00000010
,
00000100
00000001
00000100
00000010
,
00000010
00010000
00001000
00100000
,
00100000
00001000
00000000
00011000
,
00000000
00010000
00001000
01000000
,
00010000
01000000
00100000
10000000
,
00000000
01000000
00100000
00001000
,
00010000
00000100
00000010
00000001
,
00000000
00000100
00000001
00001000
,
00000010
00001000
00000000
00001001
,
00000000
00000001
00000010
00001000
,
00010000
00000000
01000000
00000000
00000000
01100000
00000000
00000000
,
00100000
00001000
00010000
00000000
,
00001000
01000000
00010000
01000000
,
00000000
00100000
10000000
01000000
,
00010000
00000000
00001000
00000000
00000000
00011000
00000000
00000000
,
00010000
00000100
00001000
00000100
,
00010000
00001000
00000000
00000010
,
00000000
00000010
00000000
00000000
00000001
00000000
00000000
00000001
,
00000000
00000100
00001000
00011000
,
00000000
00010000
00001000
01000000
,
00010000
01000000
00000000
00100000
,
00100000
10000000
10000000
01000000
,
00010000
00000000
00001000
00000000
00000000
00011000
00000000
00000000
,
00000010
00001001
00000001
00000100
,
00001000
00010000
00001000
00000000
00010000
00000000
01000000
00000000
,
10000000
00010000
10000000
00000000
00100000
00100000
00000000
02200000
,
03300000
10010000
00000000
10000000
,
01000000
00010000
00001000
00100000
,
00001000
00010000
00000000
00000010
,
00001000
00000001
00000100
00000001
,
00001000
00001001
00000000
00000001
,
00000010
00000100
00010000
00001000
,
00000000
01000000
01000000
00010000
,
00010000
00100000
01000000
10000000
,
00000000
10010000
00000000
00000000
00010000
00000000
01000000
00000000
,
00001000
00000000
00010000
00000100
,
00001000
00000000
00000001
00000001
,
00000001
00000000
00000100
00000010
,
00001000
00000100
00010000
00001000
,
00010000
00000010
00010000
00001000
,
00000000
00011000
00000000
00000000
01000000
00000000
00010000
00000000
,
10010000
00000000
10000000
01000000
,
00000000
01100000
00000000
00000000
00100000
00000000
00001000
00000000
,
00011000
00000000
00000000
00000000
;

//--------------- dance-double - forcednature ----------------
#NOTEDATA:;
#STEPSTYPE:dance-double;
#DESCRIPTION:forcednature;
#DIFFICULTY:Medium;
#METER:12;
#RADARVALUES:0,0,0,0,0;
#CREDIT:forcednature;
#NOTES:
00000000
00000000
00000000
00000000
,
00000000
00000000
00000000
00000000
,
00000000
00000000
00000000
00000000
,
00000000
00000000
00000000
00000000
,
00000000
00000000
00000000
00000000
,
00000000
00000000
00000000
00000000
,
00011000
00001000
00010000
01000000
,
10000000
00000000
00010000
00000000
00000000
10010000
00000000
00000000
,
10000000
01000000
00010000
00000000
,
00001000
00000000
00010000
00001000
00010000
00000000
00000100
00000000
,
00001000
00000000
00000001
00000000
00000100
00000000
00001000
00010000
,
00001000
00000000
01000000
00010000
01000000
00020000
00000000
00000000
,
10030000
00000000
01000000
00000000
00010000
00000000
00001000
00100000
,
00001000
00000000
00010000
00000200
00000000
00000300
00001000
00000010
,
00001000
00000000
00000000
00000000
00001000
00000100
00000000
00001000
,
00000100
00000000
00010000
00000000
00001000
00100000
00010000
00100000
,
00001000
00000000
00010000
00000000
00100000
01000000
00000000
00100000
,
10000000
00000000
00010000
10000000
01000000
00010000
00002000
00000000
,
00000000
00013000
00000200
00000000
00000000
00001300
00000000
00001000
,
00000001
00000000
00000100
00000000
00001000
00010000
00000000
00001000
,
01000000
00010000
00000000
00100000
00000000
01100000
00000000
01000000
,
10000000
00000000
00100000
10000000
00100000
00000000
10010000
00000000
,
10000000
00000000
01000000
00010000
00000000
00002000
00000000
00003020
,
00000000
00000130
00000010
00000000
00000001
00000100
00000002
00000000
,
00000010
00000000
00000003
00000000
00000001
00000000
00000100
00001000
,
00010000
00000000
00001000
00010000
00100000
00000000
01100000
00000000
,
01000000
00000000
00010000
10000000
01000000
10000000
00000000
01000000
,
00010000
00001000
00000000
00001000
00000010
00000000
00000100
00000100
,
00000000
00010000
00010000
00000000
00001000
00001000
00000000
01000000
,
00000000
20020000
00000000
00000000
30030000
00000000
10000000
01000000
,
10000000
01000000
00000000
00100000
00000000
00011000
00000000
00001000
,
00010000
00000010
00001000
00000010
00000000
00000100
00000001
00000010
,
00000001
00000000
00001000
00000010
00000000
00011000
00000000
00001000
,
00100000
00000000
00010000
01000000
00100000
10000000
00010000
00000000
,
00100000
01000000
10000000
00000000
01000000
00010000
00002000
00000000
,
00003020
00000000
00000032
00000000
00000103
00000100
00000000
00000100
,
00001000
00010000
00000000
00001000
00010000
00100000
00000000
01000000
,
01000000
02000000
00000000
00000000
03000000
00000000
10010000
00000000
,
10000000
01000000
00010000
01000000
10000000
00010000
00000000
00100000
,
00001000
00010000
00000000
00000100
00001000
00000100
00000010
00000000
,
00000001
00000100
00001000
00000100
00000001
00001000
00000000
00000010
,
00010000
00001000
00000000
01000000
00001000
00010000
00001000
00000000
,
00100000
00010000
00100000
01000000
10000000
01000000
00000000
00010000
,
00001000
00000000
00000000
00000000
00100000
00000000
00000000
00100000
00000000
00000000
00001000
00000000
00010000
00000000
00000000
00000000
,
00000010
00000100
00000000
00001000
00010000
00001000
00000000
00000100
,
00000010
00000100
00000001
00001000
00000001
00000000
00000011
00000000
,
00000010
00000100
00000001
00000100
00000000
00001100
00000000
00001000
,
00000010
00010000
00000000
00001000
01000000
00010000
00100000
00000000
,
01000000
00010000
00001000
00100000
00000000
00110000
00000000
01010000
,
00000000
01000000
00100000
10000000
00010000
00000000
10010000
00000000
,
10000000
01000000
00010000
00001000
00100000
00020000
00000000
01030000
,
00001000
00000000
00001000
00000000
00010000
00000000
00000000
00010000
00000000
00000000
00010000
00000000
00000100
00000000
00000000
00000000
,
00001000
00000010
00000000
00000110
00000000
00001001
00000000
00000001
,
00000100
00000000
00001000
00010000
00001000
00200000
00000000
01300000
,
00200000
00000000
00301000
00010000
00000010
00002000
00000000
00003200
,
00000000
00000302
00000000
00000103
00001000
00000001
00000010
00000001
,
00000100
00000000
00001000
00000000
00010000
00200000
00000000
10300000
,
00020000
00000000
00130000
00100000
01000000
00010000
00000000
00010000
,
00001000
00100000
00000000
00100000
00001000
00010000
00000000
00000010
,
00010000
00001000
00000000
00001000
00010000
00000100
00002000
00000000
,
00000010
00000010
00000000
00000001
00000001
00000000
00000100
00003100
,
00000000
00022000
00000000
00000000
00033000
00000000
01000000
00000000
,
00010000
00100000
01000000
00000000
10000000
00100000
00000000
10000000
,
01000000
00000000
01010000
00000000
00010000
00001000
00000000
00000010
,
00000100
00001000
00000100
00000010
00000001
00000100
00000000
00001000
,
00000100
00001000
00020000
00000000
00130000
01100000
00000000
01000000
,
01000000
00000000
10010000
00000000
10000000
00000000
01000000
00010000
,
00001000
00000000
00000010
00000000
00000001
00000001
00000001
00000000
,
00000100
00000000
00000000
00000000
00000110
00000000
00000000
00000000
00000010
00000000
00010000
00001000
00000000
00001000
00010000
00000000
,
00000000
00000000
00011000
00000000
00010000
01000000
10000000
00010000
,
00100000
00010000
00000000
10000000
00100000
00010000
00000000
00001000
,
00010000
00000100
00010000
00000000
00001000
00000010
00000001
00000010
,
00000100
00002000
00000000
00003020
00000000
00000031
00000000
00000010
,
00001000
00000010
00020000
00000000
00031000
00200000
00000000
01300000
,
10000000
00000000
00200000
00000000
00000000
00000000
01300000
00000000
00001000
00000000
00000000
00000000
00010000
00000000
00000000
00010000
,
00000000
00010000
00000100
00000000
00001000
00000010
00000000
00000110
,
00000000
00000101
00000000
00000001
00000010
00001000
00010000
00001000
,
00000000
00011000
00000000
00010000
00100000
10000000
00100000
00000000
,
01000000
00010000
00000000
00010000
00100000
01000000
00000000
00010000
,
00001000
00000020
00000000
00000100
00000100
00000000
00000031
00000000
,
00000010
00000100
00000000
00010000
00001000
00100000
00001000
00010000
,
00000100
00001000
00000001
00000000
00000100
00000110
00000000
00000010
,
00001000
00100000
00000000
01000000
00020000
00000000
10000000
10000000
,
10030000
10010000
00000000
00010000
00100000
01000000
00010000
00000000
,
00011000
00000000
00001000
00000010
00000001
00000100
00001000
00000100
,
00000001
00000010
00000000
00001000
00010000
01000000
01100000
00000000
,
10010000
00000000
00000000
00000000
;

//--------------- dance-double - forcednature ----------------
#NOTEDATA:;
#STEPSTYPE:dance-double;
#DESCRIPTION:forcednature;
#DIFFICULTY:Hard;
#METER:15;
#RADARVALUES:0,0,0,0,0;
#CREDIT:forcednature;
#NOTES:
00000000
00000000
00000000
00000000
,
00000000
00000000
00000000
00000000
,
00000000
00000000
00000000
00000000
,
00000000
00000000
00000000
00000000
,
00000000
00000000
00000000
00000000
,
00000000
00000000
00000000
00000000
,
00011000
00000000
00010000
00001000
01000000
00010000
10000000
01000000
,
00000000
00100000
00200000
00300000
00000000
10010000
00000000
00010000
,
01000000
00000000
00010000
01000000
00001000
00000000
00010000
00000000
00000100
00000000
00002000
00000000
00000000
00000000
00000010
00000000
,
00000000
00003002
00000000
00000013
00000100
00010000
00000000
00001000
,
00100000
00000000
01000000
00000000
10000000
01000000
10000000
00000000
00010000
00000000
01000000
00000000
00000000
00000000
00001000
00000000
,
00011000
00000000
00010000
00000100
00001000
00000020
00000000
00000000
,
00000100
00000000
00000000
00000000
00010030
00000000
00000010
00000000
00001000
00000010
00000200
00000000
00000000
00000000
00000301
00000000
,
00001000
00000000
00000010
00001000
00000010
00000000
00020000
00000000
00000000
00000000
00030000
00000000
00001000
00000000
00001000
00000000
,
00001000
00000000
00100000
01000000
00010000
01000000
00000000
01000000
,
01000000
00000000
10000000
00100000
00010000
00001000
00000000
00001000
,
00001000
00000000
00010000
00000010
00000100
00001000
00000000
00001000
,
00001000
00000000
00000100
00000101
00000000
00000011
00000000
00000010
,
00000100
00010000
00002000
00000000
00100000
00100000
00000000
00010000
,
00013000
00001000
01000000
00010000
00100000
01100000
00000000
01000000
,
10000000
10100000
00000000
01000000
00000000
00011000
00000000
00001000
,
00010000
00000000
00000100
00001000
00000100
00000000
00001000
00000000
00000001
00000000
00000000
00000000
00000011
00000000
00000000
00000000
,
00000010
00000100
00000001
00000100
00010000
00001000
00000000
00100000
,
00001000
00010000
00100000
10000000
00010000
00100000
20000000
00000000
,
30100000
00001000
00010000
00000100
00001000
00001020
00000000
00000000
,
00000100
00000000
00000031
00000010
00001000
00000100
00000110
00000000
,
00000010
00001000
00010000
00000000
00010000
00001000
00000100
00000001
,
00001000
00000000
00000010
00001000
00000010
00000000
00010000
00000000
00011000
00000000
00000000
00000000
00001000
00000000
01001000
00000000
,
00000000
00010000
00010100
00000000
00001000
00101000
00000000
01000000
,
00000000
20010000
00000000
00100000
30100000
00000000
10000000
01000000
,
00010000
01000000
00000000
00100000
00001000
00000020
00000000
00000130
,
00010000
00001000
00000010
00000110
00000000
00001001
00000000
00000001
,
00000100
00000000
00001000
00010000
00000000
00201000
00000000
01000000
,
01300000
00000000
00100000
00000000
00010000
00000000
10000000
00010000
10000000
00000000
00100000
00000000
01000000
00000000
00000000
00000000
,
10000000
01000000
00010000
00100000
00001000
00011000
00000000
00010000
,
00000010
00001000
00000100
00000001
00000100
00000110
00000000
00000010
,
00000001
00000000
00000100
00000001
00000100
00000000
00000010
00000000
00001000
00000000
00001200
00000000
00000000
00000000
00010000
00000000
,
00010000
00020300
00000000
00000000
00030000
00000000
00011000
00000000
,
00001000
00000000
01000000
00000000
00010000
00000000
00100000
00010000
00100000
00000000
01000000
00000000
10000000
00000000
00010000
00000000
,
00100000
01000000
00010000
01000000
00100000
00001000
00011000
00000000
,
00010000
00000000
00000010
00000000
00001000
00000000
00000100
00001000
00000100
00000000
00000010
00000000
00001000
00000000
00000010
00000000
,
00000001
00000101
00000000
00000100
00001000
00010000
00012000
00000000
,
01003000
00000000
00010000
01000000
00010000
00000000
10000000
00000000
01000000
00000000
00020000
00000000
00000000
00000000
00000100
00000000
,
00030200
00000000
00000000
00000000
00001300
00000000
00000000
00000001
00000000
00000000
00000100
00000000
00001000
00000000
00010000
00000000
,
00001000
00000000
01000000
00010000
01000000
00000000
00100000
00000000
10000000
00000000
11000000
00000000
00000000
00000000
01000000
00100000
,
00010000
00000000
00100000
00000000
00001000
00000000
00010000
00000000
00000100
00001000
00000100
00000010
00000002
00000000
00000000
00000000
,
00000103
00000000
00001000
00000000
00010000
00000000
00000010
00001000
00000010
00000000
00020000
00000000
00000000
00000000
00130000
00000000
,
01000000
00010000
10000000
01000000
00010000
00001000
00200000
00000000
,
00301000
00000000
00000010
00000000
00000100
00000000
00001000
00000100
00001000
00000000
00000001
00000000
00000000
00000000
00000100
00000000
,
00010000
00000000
00000000
00001000
00000010
00000000
00000100
00000000
00000001
00000000
00000010
00000000
00000110
00000000
00000000
00000000
,
00000100
00000000
00010000
00000000
00001000
00000000
00100000
00010000
00100000
00000000
02000000
00000000
00000000
00000000
03010000
00000000
,
00001000
00000000
01000000
00000000
00010000
00000000
00000000
00100000
00000000
00000000
10000000
00000000
00200000
00000000
00000000
00000000
,
00301000
00010000
00000000
00001010
00000000
00020010
00000000
00100000
,
00130000
00000000
00010000
00000000
00001000
00000000
01000000
00010000
10000000
00000000
00200000
00000000
00000000
00000000
10300000
00000000
,
02000000
00000000
00000000
00000000
03010000
00000000
00001000
00010000
00001000
00000000
00000020
00000000
00000000
00000130
00001000
00000000
,
00000100
00000010
00000001
00000000
00000100
00000000
00001000
00000000
00010000
00000000
00002000
00000000
00000000
00000000
01003000
00000000
,
00010000
00000000
00100000
00000000
01000000
10000000
01000000
00000000
00010000
00000000
00021000
00000000
00000000
00000000
00031000
00000000
,
00000010
00000000
00000001
00000000
00000100
00000000
00000001
00000100
00000010
00000000
00002000
00000000
00000000
00000000
00103000
00000000
,
00010000
00100000
01000000
00010000
10000000
01000000
00010000
00001000
,
00010000
00000000
00000000
00000000
00000000
00000000
00001000
00000000
00000000
00010000
00000000
00000000
00000020
00000000
00000000
00000000
00000000
00000000
00000000
00000000
00000130
00000000
00000000
00000000
00001000
00000000
00000000
00000000
00000100
00000000
00000000
00000000
00000001
00000000
00000000
00000000
00002000
00000000
00000000
00000000
00000000
00000000
00000000
00000000
00000000
00003010
00000000
00000000
,
00010000
00000000
00002000
00000000
00000000
00103000
00010000
00000000
01000000
00000000
10000000
00000000
01000000
00010000
01000000
00000000
,
00001000
00000000
00021000
00000000
00000000
00000000
00031000
00000000
00000010
00000000
00000100
00000010
00000001
00000000
00000100
00000000
,
00001000
00021000
00000000
00130000
10000000
12000000
00000000
00100000
,
00010000
03010000
01000000
10000000
01000000
01100000
00000000
00100000
,
00001000
00000000
00000010
00000000
00000100
00000000
00001000
00000001
00000100
00000000
00002000
00000000
00000000
00000000
00013000
00001000
,
01000000
00000000
00000000
01000000
00000000
00000000
00010000
00000000
00100000
00000000
00010000
00000000
01000000
00000000
00000000
01200000
00000000
00000000
00000000
00000000
00000000
10000000
00000000
00000000
,
10300000
00000000
02020000
03030000
10010000
00000000
10000000
01000000
00000000
00010000
00000000
00001000
00000000
00000100
00000001
00000010
,
00000000
00000100
00000100
00000000
00010000
00000000
00001000
00100000
00000000
01000000
00000000
00010000
00000000
01000000
00100000
00001000
,
00000000
00010000
00010000
00000000
00011000
00000000
00010000
00100000
01000000
00100000
10000000
01000000
00000000
00010000
00001000
00000020
,
00000030
00000000
00000000
00000000
00000110
00000000
00000000
00000000
00000100
00000000
00010000
00000000
00001000
00000000
00010000
00001000
,
00100000
00020000
00000000
01030000
10000000
01000000
00001000
00010000
,
00000010
00000000
00001000
00000000
00000001
00000000
00000000
00000000
00000010
00000000
00001000
00000000
00010000
00000000
00001000
00010000
,
00000100
00000000
00000020
00000000
00000000
00000000
00000031
00000000
00000100
00000000
00010000
00000000
00000000
00001000
00000010
00000000
,
00010000
00001000
00010000
00000000
00001000
00000000
00000000
00000000
00100000
00000000
01000000
00000000
00010000
00000000
01000000
10000000
,
00010000
00000000
00200000
00000000
00000000
00000000
00301000
00000000
00000010
00000000
00000100
00000000
00010000
00000000
00000000
00011000
,
00000000
00100000
00020000
00000000
01030000
10000000
01000000
00010000
,
00100000
00000000
01100000
00000000
00000000
00000000
01000000
00000000
00010000
00000000
00001000
00000000
00000010
00000000
00000000
00000010
,
00000100
00001100
00000000
00001000
00000010
00000100
00001000
00010000
,
01000000
01100000
00000000
00100000
00001000
00010000
01000000
10000000
,
00100000
01100000
00000000
01000000
10000000
01000000
00010000
00100000
,
00001000
00021000
00000000
00030010
00001000
00000001
00000010
00001000
,
00010000
00000000
00000100
00000000
00000110
00000000
00000000
00000010
00000001
00000000
00000101
00000000
00000000
00000100
00000010
00000000
,
00001000
00000000
00001200
00000000
00000000
00000000
00010300
00000000
00001000
00000000
01000000
00000000
00010000
01000000
00100000
10000000
,
00100000
00000000
01100000
00000000
00000000
00000000
01000000
00000000
10000000
00000000
01000000
00000000
01010000
00000000
00000000
00010000
,
00100000
00000000
01000000
00000000
00000000
00000000
00010000
00001000
00010000
00000000
00000100
00000000
00000010
00000000
00001000
00000000
,
00000010
00000000
00000011
00000000
00000000
00000000
00000001
00000100
00001000
00000000
00010000
00000000
00011000
00000000
00001000
00000000
,
01010000
00000000
00000000
00000000
;
