#VERSION:0.83;
#TITLE:MODEL FT4;
#SUBTITLE:;
#ARTIST:BEMANI Sound Team "Mutsuhiko Izumi";
#TITLETRANSLIT:;
#SUBTITLETRANSLIT:;
#ARTISTTRANSLIT:Mutsuhiko Izumi;
#GENRE:;
#CREDIT:;
#MUSIC:MODEL FT4.ogg;
#BANNER:MODEL FT4.png;
#BACKGROUND:MODEL FT4-bg.png;
#CDTITLE:./CDTitles/GITADORA Matixx.png;
#SAMPLESTART:8.080;
#SAMPLELENGTH:15.000;
#SELECTABLE:YES;
#OFFSET:0.645;
#BPMS:0.000=155.000
,189.500=145.000
,221.500=155.000
;
#STOPS:22.000=0.387
,294.333=1.548
;
#TIMESIGNATURES:20.000=3=4,
23.000=4=4
;
#BGCHANGES:0.000=MODEL FT4.mp4=1.000=0=0=0=StretchNoLoop====,
99999.000=-nosongbg-=1.000=0=0=0=StretchNoLoop====
;
#FGCHANGES:;

//--------------- dance-single - forcednature ----------------
#NOTEDATA:;
#STEPSTYPE:dance-single;
#DESCRIPTION:forcednature;
#DIFFICULTY:Beginner;
#METER:6;
#RADARVALUES:0,0,0,0,0;
#CREDIT:forcednature;
#NOTES:
0000
0000
0000
0000
,
0000
0000
0000
0000
,
0000
0000
0000
0000
,
0000
0000
0000
0000
,
0000
0000
0000
0000
,
0010
0000
1001
1000
,
0000
1000
0000
0100
,
0000
0000
0000
1000
,
0000
1000
0000
0010
,
0000
0000
0000
0100
,
0100
0100
0000
0010
,
0010
0010
0000
0100
,
0100
0100
0000
0010
,
0000
1001
0000
0001
,
0000
0100
0000
0001
,
0000
0000
0000
0001
,
0000
0010
0000
0001
,
0000
0000
0000
1000
,
1000
1000
0000
0100
,
0100
0100
0000
1000
,
1000
1000
0000
0010
,
0000
0100
0000
1001
,
0000
0000
0000
1000
,
0000
0001
0000
0100
,
0000
0010
0000
0100
,
0100
0100
0000
1001
,
0000
0000
0000
0001
,
0000
1000
0000
0100
,
0100
0100
0000
0010
,
0100
0010
0000
0001
,
1000
0001
0000
1000
,
1000
0010
0000
1001
,
0000
0000
0000
0110
,
0000
0001
0000
1001
,
0000
0000
0000
0110
,
0000
1000
0000
0001
,
0001
0001
0000
0100
,
0000
1001
0000
1000
,
1000
1000
0000
0100
,
0000
1001
0000
0001
,
0010
0001
0000
0010
,
0100
0010
0000
0100
,
1000
0100
0000
1001
,
0000
0110
0000
1000
,
0010
1000
0000
0010
,
0100
0010
0000
0100
,
0001
0100
0000
0110
,
0000
1001
0000
2000
,
0000
0000
3000
0200
,
0000
0000
0300
0020
,
0000
0000
0030
0002
,
0000
0000
0003
2000
,
0000
0000
3000
0020
,
0000
0000
0030
0200
,
0000
0000
0300
0001
,
0000
1000
0000
1001
,
0000
0001
0001
0001
,
0000
0010
0000
1001
,
0000
1000
1000
1000
,
0000
0010
0000
0100
,
0100
0100
0000
0001
,
0001
0001
0000
0100
,
0100
0100
0000
0010
,
0000
0110
0000
1001
,
0000
1000
0001
1000
,
0000
0010
0000
1001
,
0000
0001
1000
0001
,
0000
0010
0000
0110
,
0000
0100
1000
0001
,
0000
0100
0000
0110
,
0000
0010
1000
0001
,
0000
0100
0001
1000
,
0000
0100
0010
0001
,
0001
0000
0000
0000
1000
0000
0000
0000
0010
0000
0000
0000
0100
0000
0000
0010
,
0000
0000
0000
0000
0000
0100
0000
0000
0010
0000
0000
0000
0000
0000
0100
0000
,
0000
0010
0000
0000
0000
0000
0000
0000
0000
1001
0000
0000
0000
0000
0000
0000
;

//--------------- dance-single - forcednature ----------------
#NOTEDATA:;
#STEPSTYPE:dance-single;
#DESCRIPTION:forcednature;
#DIFFICULTY:Easy;
#METER:9;
#RADARVALUES:0,0,0,0,0;
#CREDIT:forcednature;
#NOTES:
0000
0000
0000
0000
,
0000
0000
0000
0000
,
0000
0000
0000
0000
,
0000
0000
0000
0000
,
0000
0000
0000
0000
,
1000
0001
1000
0000
1001
0000
0001
0000
,
0100
0010
0100
0001
,
0100
0010
0000
1000
,
0100
0010
0100
1000
,
0100
0000
0010
0000
0000
0000
0001
1000
,
0001
0000
0001
0000
0001
0000
1000
0001
,
1000
0000
1000
0000
1000
0000
0001
1000
,
0001
0001
0001
0100
,
0000
0110
0000
0000
0000
0000
0001
0000
,
0010
0100
0010
0001
,
1000
0100
0000
1000
,
0010
0100
0010
1000
,
0001
0000
0100
0000
0000
0000
0010
0100
,
0010
0000
0010
0000
0010
0000
0100
0010
,
0100
0000
0100
0000
0100
0000
0010
0100
,
0010
0010
0010
0100
,
0100
0010
0000
1000
0001
0000
1001
0000
,
0000
0110
0000
0001
1000
0000
0010
0000
,
0010
0100
0100
0001
,
0000
0010
0100
0000
0010
0000
0001
0000
,
0001
1000
1000
0010
,
0000
0100
0010
0000
1000
0000
0100
0000
,
0100
0010
0010
0001
,
0000
1000
0001
0000
0100
0000
0110
0000
,
0000
0000
0000
1000
0000
0001
0000
1000
0000
0001
0000
0000
,
0000
0000
0000
0010
0000
0100
0000
0010
0000
0100
0000
0000
,
1000
0001
0010
1001
,
1000
0010
1000
0000
0001
0000
1001
0000
,
0000
0110
0000
0001
1000
0000
1001
0000
,
0001
0010
0100
0110
,
0000
1001
0000
0100
0010
0000
1000
0000
,
1000
0100
0100
1000
,
0010
0000
1000
0001
1000
0000
0001
0000
,
0001
0100
0100
0001
,
0010
0000
0001
1000
0001
0000
0100
0000
,
0010
0000
0100
0010
0100
0000
0001
0000
,
1000
0000
0001
1000
0001
0000
0010
0000
,
0100
0000
0010
0100
0010
0000
0001
0000
,
1000
0000
0001
1000
0001
0000
1000
0000
,
0100
0000
1000
0100
1000
0000
0001
0000
,
0100
0000
0001
0100
0001
0000
0010
0000
,
0100
0000
0010
0100
0010
0000
0110
0000
,
0000
0000
0000
1001
0000
0000
0000
0000
0000
0000
0000
0000
2000
0000
0000
0000
,
0000
3002
0000
2003
,
0000
3010
0100
0002
,
0000
2003
0000
3002
,
0000
0013
0100
2000
,
0000
3001
0100
0020
,
0000
2030
0000
3002
,
0000
0013
0100
0110
,
0000
2002
0000
0000
3003
0000
1000
0100
,
1000
0000
0001
0000
0010
0000
0001
0100
,
0001
0000
1000
0000
0010
0000
1000
0001
,
1000
0000
0100
0000
0010
0000
0001
1000
,
0001
0000
0100
0000
0010
0000
1000
0001
,
1000
0000
1000
0000
1000
0000
0001
1000
,
0001
0000
0001
0000
0001
0000
0100
0010
,
0100
0000
0100
0000
0100
0000
0010
0100
,
0010
0100
0010
0110
,
0000
0000
0001
0000
1000
0000
0100
1000
,
0100
0000
0010
0001
0010
0000
0210
0000
,
0000
0000
1300
0000
0001
0000
0100
0001
,
0100
0000
0010
1000
0010
0000
0100
0000
,
0001
0000
0010
0001
0010
0000
0100
0010
,
0100
0000
1000
0100
1000
0000
0002
0000
,
0000
0000
0103
0001
0100
0000
0020
0000
,
0000
0000
1030
0010
1000
0000
0002
0000
,
0023
0000
0230
0000
2300
0000
3010
0100
,
0010
0000
0000
0000
0000
0000
0100
0000
0000
0000
0000
0000
0001
0000
0000
0000
0000
0000
0000
0000
1000
0000
0000
0000
0000
0000
0000
0000
1001
0000
0000
0000
0000
0000
0000
0000
0001
0000
0000
0000
0000
0000
0000
0000
0000
0101
0000
0000
,
0000
0000
0000
0000
0000
1000
0000
0000
1100
0000
0000
0000
0000
0000
0010
0000
,
0000
0110
0000
0000
0000
0000
0000
0100
0000
1001
0000
0000
0000
0000
0000
0000
;

//--------------- dance-single - forcednature ----------------
#NOTEDATA:;
#STEPSTYPE:dance-single;
#DESCRIPTION:forcednature;
#DIFFICULTY:Medium;
#METER:14;
#RADARVALUES:0,0,0,0,0;
#CREDIT:forcednature;
#NOTES:
0000
0000
0000
0000
,
0000
0000
0000
0000
,
0000
0000
0000
0000
,
0000
0000
0000
0000
,
0000
0000
0000
0000
,
1000
0001
1000
0001
1000
0000
0001
0000
1001
0000
0000
0000
1000
0000
0100
0000
,
0010
0000
0100
1000
0010
0000
0100
0001
,
0010
0100
0010
0001
1000
0000
0001
0100
,
0010
0000
0100
0001
0010
0000
0100
1000
,
0010
0100
0010
1000
0100
0010
0000
0001
,
0100
1000
0100
0001
0100
1000
0100
0001
,
0010
1000
0010
0001
0010
1000
0010
0001
,
0100
1000
0100
0001
0100
1000
0100
0000
,
0010
0000
0110
0000
0000
0000
1000
0000
0001
1000
0001
0000
0010
0000
0100
0000
,
1000
0000
0010
0100
0001
0000
0010
0001
,
0100
0010
0100
0001
0010
0000
0100
1000
,
0010
0000
0100
0001
0010
0000
0100
1000
,
0010
0100
0010
1000
0100
0000
1000
0100
,
0001
0100
1000
0100
0001
0100
1000
0010
,
0001
0010
1000
0010
0001
0010
1000
0100
,
0001
0100
1000
0100
0001
0100
1000
0000
,
0010
0000
0210
0000
0000
0000
0301
0000
0010
0000
0100
0000
1000
0000
0000
1000
,
0010
0000
0110
0000
0000
0000
0100
0000
0001
0000
0010
0000
0100
0000
1000
0100
,
0000
1000
0100
0000
0010
0000
0001
0010
0000
0001
0010
0000
0200
0000
0000
0000
,
1300
0000
0001
0000
0100
0000
0000
0010
0000
0000
1000
0000
0002
0000
0000
0023
,
0000
0000
0230
0000
2300
0000
0000
3020
0000
0000
0230
0000
0301
0000
0000
0001
,
0010
0000
0110
0000
0000
0000
0100
0000
1000
0000
0001
0000
0100
0000
0010
1000
,
0000
0010
1000
0000
0100
0000
0010
0001
0000
0010
0001
0000
2000
0000
0000
0000
,
0000
0000
3001
0100
0001
0000
0000
1000
0000
0000
0010
0000
0200
0000
0000
0000
,
0000
0000
0000
0000
0000
0000
0301
0000
0000
1000
0000
0000
0001
0000
0000
0000
0000
0000
0000
0000
0010
0000
0000
0000
0000
0000
0000
0000
0100
0000
0000
0000
0000
0000
0000
0000
2000
0000
0000
0000
0000
0000
0000
0000
0000
0000
0000
0000
,
0000
0000
0000
0000
0000
0000
3010
0000
0000
0100
0000
0000
0010
0000
0000
0000
0000
0000
0000
0000
1000
0000
0000
0000
0000
0000
0000
0000
0001
0000
0000
0000
0000
0000
0000
0000
0010
0000
0000
0000
0000
0000
0100
0000
0000
0010
0000
0000
,
0100
0000
1000
0100
1000
0000
0100
0010
0001
0000
0000
0000
1000
0000
0010
0000
,
0100
0001
0100
1000
0100
0000
0101
0000
,
0010
1100
0000
0001
0010
0000
0210
0000
,
1300
1000
0100
0100
1000
0001
0011
0000
,
0100
0000
1010
0000
0000
0000
0001
1000
0001
1000
0001
0000
0200
0000
0000
0000
,
0000
0310
1000
0100
0001
0100
1000
0000
,
0010
0110
0000
0100
1001
0000
0001
0010
,
1000
0010
0001
0100
1000
0100
0001
0000
,
0010
2002
0000
0000
3003
0000
1000
0100
,
0001
0000
0100
0000
1000
0000
0001
0010
0001
0000
0000
0000
0001
0000
0100
0000
,
1000
0000
0100
0000
0001
0000
1000
0010
1000
0000
0000
0000
0100
0000
0010
0000
,
0001
0000
1000
0000
0010
0000
0100
0001
0100
0000
0000
0000
0220
0000
0000
0000
,
0000
0000
0330
0000
0010
1000
0010
0000
0100
0000
0001
0000
1000
0000
0100
0000
,
0001
0000
0100
0000
1000
0000
0001
0010
0001
0000
0000
0000
0001
0000
0100
0000
,
1000
0000
0100
0000
0001
0000
1000
0010
1000
0000
0000
0000
0100
0000
0010
0000
,
0001
0000
1000
0000
0010
0000
0000
0000
0110
0000
0000
0000
0001
1000
0001
1000
,
0001
0000
1000
0001
0000
0000
0000
0000
0000
0000
0000
0000
0020
0000
0000
0000
,
0000
0230
0000
2300
,
0000
0000
3000
0001
0100
0001
2000
0000
,
0000
3020
0000
0230
,
0000
0000
0300
0001
0010
0001
2000
0000
,
0000
0000
3000
0000
0100
0010
0100
0000
0010
0000
0001
0000
2000
0000
0000
0000
,
3000
0010
0200
0000
0000
0000
0302
0000
,
0000
0000
0003
0000
0010
0100
0010
0000
0100
0000
1000
0000
0010
0000
0000
0000
,
0100
2002
0000
0000
3003
0000
1000
0100
,
0001
0000
0100
1000
0000
1000
0000
0001
0000
0000
0010
0000
0001
0000
0000
0001
,
0100
0010
1000
0001
0100
0000
0010
1000
,
0001
0000
0010
1000
0000
1000
0000
1000
0000
0000
0010
0000
0001
0000
0000
1000
,
0010
0100
0000
0001
0001
0001
0010
1000
,
0010
0001
0010
1000
0010
0001
0100
1000
,
0100
0001
0100
1000
0100
0001
0010
1000
,
0010
0001
0010
1000
0010
0001
0100
0000
,
0010
1001
0000
1000
0100
0010
0002
0000
,
0000
0000
0000
0000
0000
0000
0103
0000
0000
0010
0000
0000
0100
0000
0000
0000
0000
0000
0000
0000
0001
0000
0000
0000
0000
0000
0000
0000
1000
0000
0000
0000
0000
0000
0000
0000
0010
0000
0000
0000
0000
0000
0100
0000
0000
0001
0000
0000
,
0000
0100
0001
0000
0010
0000
0100
1000
0000
0100
1000
0000
0002
0000
0000
0000
,
0000
0000
0000
0000
0000
0000
0103
0000
0000
0010
0000
0000
0100
0000
0000
0000
0000
0000
0000
0000
0010
0000
0000
0000
0000
0000
0000
0000
1000
0000
0000
0000
0000
0000
0000
0000
0001
0000
0000
0000
0000
0000
0010
0000
0000
0001
0000
0000
,
0000
0010
0001
0000
1000
0000
0100
1000
0000
0100
1000
0000
0001
0000
0100
0000
,
1000
0000
0100
0000
0001
0000
1000
0000
0010
0000
1000
0000
0001
0000
0000
0010
,
0100
0000
1000
0000
0001
0000
0000
0100
0010
0000
1000
0000
0002
0000
0000
0000
,
0000
0000
0000
0000
0000
0000
0013
0000
0000
0100
0000
0000
0010
0000
0000
0000
0000
0000
0000
0000
0100
0000
0000
0000
0000
0000
0000
0000
1000
0000
0000
0000
0000
0000
0000
0000
0020
0000
0000
0000
0000
0000
0000
0000
0000
0000
0000
0000
,
0000
0000
0000
0030
0000
0000
0100
0000
0000
0010
0000
0000
0100
0000
0000
0000
0000
0000
0000
0000
0001
0000
0000
0000
0000
0000
0000
0000
0010
0000
0000
0000
0000
0000
0000
0000
0200
0000
0000
0000
0000
0000
0000
0000
0000
0000
0000
0000
,
0000
1300
0001
1000
0000
0010
0000
0100
0000
0001
0010
0100
,
1000
0000
0000
0000
0100
0000
0000
0000
0010
0000
0000
0000
0001
0000
0000
0000
0000
0000
0000
0000
0110
0000
0000
0000
0000
0000
0000
0000
1001
0000
0000
0000
0000
0000
0000
0000
0001
0000
0000
0000
0000
0000
0001
0000
0000
0100
0000
0000
,
0000
0100
0000
0001
0000
1000
0000
1000
0100
0000
0100
0000
1000
0000
0010
0000
,
0010
0100
0000
0100
0000
0010
0000
0100
0000
1001
0000
0000
0000
0000
0000
0000
;

//--------------- dance-single - forcednature ----------------
#NOTEDATA:;
#STEPSTYPE:dance-single;
#DESCRIPTION:forcednature;
#DIFFICULTY:Hard;
#METER:17;
#RADARVALUES:0,0,0,0,0;
#CREDIT:forcednature;
#NOTES:
0000
0000
0000
0000
,
0000
0000
0000
0000
,
0000
0000
0000
0000
,
0000
0000
0000
0000
,
0000
0000
0000
0000
,
0001
1000
0001
1000
0001
0000
1000
0001
0020
0030
0000
0000
0100
1000
0100
0000
,
1000
0000
0010
0000
0100
0001
0100
0000
0001
0000
0010
0000
0100
1000
0100
0000
,
0010
0000
0002
0000
0000
0000
1003
0000
0010
0000
0100
0000
0001
0010
0001
0000
,
1000
0000
0100
0000
1000
0010
1000
0000
0001
0000
0100
0000
0001
0010
0001
0000
,
1000
0000
0200
0000
0000
0000
0310
0001
0000
0001
0000
0000
0100
0000
0100
0010
,
0100
0000
0100
0001
0100
0000
0100
0010
1000
0000
1000
0000
0100
0000
0100
0010
,
0100
0000
0100
1000
0100
0000
0100
0010
0001
0000
0001
0000
0010
0000
0010
0100
,
0010
0000
0010
0001
0010
0000
0010
0100
1000
0000
0001
0000
0200
0000
0000
0000
,
0310
0000
0110
0000
0000
0000
1000
0001
0100
0010
1000
0000
0001
0010
0001
0000
,
0100
0000
0001
0000
1000
0010
1000
0000
0100
0000
1000
0000
0010
0100
0010
0000
,
1000
0000
0002
0000
0000
0000
0013
0000
0100
0000
1000
0000
0001
0100
0001
0000
,
0010
0000
0100
0000
1000
0001
1000
0000
0010
0000
0100
0000
0001
0010
0001
0000
,
1000
0000
0200
0000
0000
0000
0310
0100
0000
0010
0000
0000
0001
0000
0001
0100
,
0010
0000
0010
1000
0001
0000
0001
0100
0010
0000
0010
0000
1000
0000
1000
0100
,
0010
0000
0010
0001
1000
0000
1000
0100
0010
0000
0010
0000
0001
0000
0001
0100
,
0010
0000
0010
1000
0001
0000
0001
0100
0010
0000
1000
0000
1002
0000
0000
0000
,
0103
0000
0110
0000
0000
0000
0001
0010
0001
0010
0100
1000
0100
0000
0000
0010
,
0001
0000
0110
0000
0000
0000
1000
0100
0000
1000
0001
0000
0100
0000
0100
1000
,
0000
0100
0001
0000
1000
0000
1000
0010
0000
0100
0001
0000
2000
0000
0100
0000
,
3100
0000
1000
0001
0010
0000
0100
1000
0000
0001
0010
0000
0002
0000
0000
0203
,
0000
0000
2300
0000
3002
0000
0000
0023
0000
0000
2030
0000
3001
0000
0000
0010
,
0100
0000
0110
0000
0000
0000
0001
0100
0000
0001
1000
0000
0100
0000
0100
0001
,
0000
0100
1000
0000
0001
0000
0001
0010
0000
0100
1000
0000
0002
0000
0100
0000
,
0103
0000
0000
0000
0000
0000
0001
0000
0000
1000
0000
0000
0010
0000
0000
0000
0000
0000
0100
0000
0000
0001
0000
0000
0000
0000
0000
1000
0000
0000
0010
0000
0000
0000
0000
0000
2000
0000
0000
0000
0000
0000
0000
0000
3200
0000
0000
0000
,
0000
0000
0000
0000
0302
0000
0000
0000
0000
0000
0000
0000
2003
0000
0000
0000
0000
0000
0000
0000
3020
0000
0000
0000
0000
0000
0000
0000
0032
0000
0000
0000
0000
0000
0000
0000
0103
0000
0000
0000
0000
0000
0010
0000
0000
0100
0000
0000
,
0010
0000
0000
0100
0000
0000
0010
0000
0000
0100
0000
0000
0020
0000
0000
0000
0000
0000
0000
0000
2030
0000
0000
0000
0000
0000
0000
0000
3002
0000
0000
0000
0000
0000
0000
0000
0013
0000
0000
0100
0000
0000
0010
0000
0000
0100
0000
0000
,
1000
0100
1000
0100
0010
0001
0010
0001
1000
0000
0000
0000
0020
0000
0000
0000
,
0100
0100
0130
0002
0000
1003
1010
0000
,
0001
0000
0011
0000
0000
0000
1000
0100
0010
0000
0000
0000
0102
0000
0000
0000
,
1003
0010
0100
0010
1000
0010
0100
0010
1000
0000
0000
0000
0201
0000
0000
0000
,
0310
0000
1010
0000
0000
0000
0001
0000
0010
0100
0010
0100
1000
0000
0001
0000
,
0010
0000
0001
1000
0100
1000
0001
0010
0001
1000
0010
0000
0110
0000
0000
0100
,
0001
0000
1010
0000
0000
1000
0100
0000
0110
0000
0000
0000
0001
0100
0010
0000
,
1000
0100
0010
0000
0001
0100
0010
1000
0010
0000
0100
0000
0110
0000
0000
1000
,
0001
0000
0021
0000
0000
0130
1000
0100
1000
0100
1000
0100
0010
0000
0001
0100
,
0010
0000
1000
0100
0010
0000
0001
0100
0010
0000
1000
0000
0001
0000
0010
0100
,
1000
0000
0010
0100
0001
0000
0010
0100
1000
0000
0010
0000
1000
0000
0100
0010
,
0001
0000
0100
0010
1000
0000
0100
0010
0001
0000
0100
0000
0120
0000
0000
0000
,
2030
0000
0000
0000
3001
0100
0010
1000
0001
0000
1001
0000
1000
0100
0010
0000
,
0001
0100
0010
0000
1000
0100
0010
0001
1000
0000
0010
0000
0100
0001
0010
0000
,
0100
1000
0010
0000
0100
0001
0010
0100
1000
0000
0010
0000
0100
0001
1000
0000
,
0010
1000
0001
0000
0010
0100
0010
0000
0110
0000
0000
0000
1000
0001
1000
0001
,
1000
0000
0010
0100
0000
0000
0001
0000
0010
0000
0100
0000
2000
0000
0000
3002
,
0000
0000
0203
0000
0302
0000
0000
2003
0000
0000
3020
0000
2030
0000
0000
3002
,
0000
0000
0203
0000
0000
0000
0310
0000
1000
0000
0001
0000
0020
0000
0000
0230
,
0000
0000
2300
0000
3020
0000
0000
0230
0000
0000
0302
0000
0023
0000
0000
0230
,
0000
2300
0000
3001
0100
0010
2000
0000
,
0000
0000
0000
0000
3001
0010
0001
0000
0010
0000
0100
0000
2000
0000
0000
0000
,
0000
0000
3010
0100
0002
0000
0000
0000
0000
0000
0000
0000
0023
0000
0000
0000
,
0000
0000
0030
0000
0100
0010
0100
0000
1000
0000
0001
0000
0011
0000
0000
1000
,
0100
0000
2100
0000
0000
3000
0001
1000
0001
1000
0001
0000
0100
0000
0010
1000
,
0010
0000
0100
0001
0000
0101
0000
0110
0000
0010
1000
0000
0001
0000
0010
0100
,
1000
0000
1010
0000
0000
0000
1000
0001
0010
0001
1000
0000
0100
0000
0010
0001
,
0010
0000
0100
1000
0000
1100
0000
0110
0000
0010
0001
0000
1000
0000
0010
0100
,
0001
0000
0010
0000
0001
0000
0100
0010
0100
0010
1000
0000
0001
0000
0001
0100
,
0010
0000
0010
1000
0001
0000
0001
0100
0010
0000
0010
0000
1000
0000
1000
0100
,
0010
0000
0010
0001
1000
0000
1000
0100
0010
0000
0010
0000
0001
0000
0001
0100
,
0010
0000
0010
1000
0001
0000
0001
0100
0010
0000
0010
0000
1001
0000
1000
0100
,
0010
0000
0210
0000
0000
0000
0310
0001
0010
0001
1000
0100
0020
0000
0000
0001
,
0000
0000
0000
0000
0000
0000
0130
0000
0000
1000
0000
0000
0002
0000
0000
0000
0000
0000
0000
0000
0203
0000
0000
0000
0000
0000
0000
0000
0320
0000
0000
0000
0000
0000
0000
0000
1030
0000
0000
0000
0000
0000
0100
0000
0000
0010
0000
0000
,
0000
0001
0010
0000
0001
0000
0100
0010
0000
1000
0010
0000
0200
0000
0000
0000
,
0000
0000
0000
0000
0000
0000
0301
0000
0000
1000
0000
0000
0020
0000
0000
0000
0000
0000
0000
0000
0230
0000
0000
0000
0000
0000
0000
0000
0302
0000
0000
0000
0000
0000
0000
0000
1003
0000
0000
0000
0000
0000
0100
0000
0000
1000
0000
0000
,
0000
0010
1000
0000
0001
0000
0100
0001
0000
0010
0001
0000
0100
0000
0010
0000
,
1000
0010
0100
0000
0001
0000
1000
0100
1000
0001
0010
0000
0110
0000
0100
1000
,
0000
0010
1000
0000
0100
0000
0010
0001
0000
0100
0001
0000
0020
0000
0000
0000
,
0000
0000
0000
0000
0000
0000
0130
0000
0000
1000
0000
0000
0002
0000
0000
0000
0000
0000
0000
0000
0203
0000
0000
0000
0000
0000
0000
0000
0320
0000
0000
0000
0000
0000
0000
0000
1030
0000
0000
0001
0000
0000
1000
0000
0000
0001
0000
0000
,
0100
0010
0100
0010
1000
0000
0100
0010
0000
0001
0010
0000
2001
0000
0000
0000
,
0000
0000
0000
0000
3010
0000
0000
0000
0100
0000
0000
0000
0002
0000
0000
0000
0000
0000
0000
0000
2003
0000
0000
0000
0000
0000
0000
0000
3200
0000
0000
0000
0000
0000
0000
0000
0310
0000
0000
0001
0000
0000
0010
0000
0000
0001
0000
0000
,
1000
0000
0000
0100
0000
0000
0010
0000
0000
0001
0000
0000
1000
0000
0000
0000
0000
0000
0000
0000
1010
0000
0000
0000
0000
0000
0000
0000
0101
0000
0000
0000
0000
0000
0000
0000
0001
0000
0000
0010
0000
0000
0001
0000
0000
0100
0000
0000
,
0000
0101
0000
0011
0000
1000
0010
1000
0100
0000
1100
0000
1010
0000
0001
0010
,
0001
0100
0000
0101
0000
0011
0000
0010
0100
1000
0000
0000
0000
0000
0000
0000
;

//--------------- dance-single - forcednature ----------------
#NOTEDATA:;
#STEPSTYPE:dance-single;
#DESCRIPTION:forcednature;
#DIFFICULTY:Challenge;
#METER:18;
#RADARVALUES:0,0,0,0,0;
#CREDIT:forcednature;
#NOTES:
0000
0000
0000
0000
,
0000
0000
0000
0000
,
0000
0000
0000
0000
,
0000
0000
0000
0000
,
0000
0000
0000
0000
,
1000
0100
0001
0100
1000
0000
0001
1000
0020
0030
0000
0000
1000
0100
0010
0100
,
1000
0000
0001
0000
1000
0010
0100
0010
1000
0000
0001
0000
1000
0100
0001
0100
,
1000
0000
1100
0000
0000
0000
0001
1000
0001
0010
0100
1000
0001
0100
0010
0100
,
0001
0000
1000
0000
0001
0010
0100
0010
0001
0000
1000
0000
0001
0100
1000
0100
,
0001
0000
0101
0000
0000
0000
1000
0001
1000
0010
0100
0001
1000
0000
1000
0100
,
0010
0100
1000
0001
0010
0001
1000
0010
0100
0001
0010
0100
1000
0000
0001
0100
,
0010
0100
0001
1000
0010
1000
0001
0010
0100
1000
0010
0100
0001
0000
1000
0100
,
1000
0001
0010
0100
0010
0001
1000
0010
0100
0001
0010
0100
2000
0000
3010
0100
,
0001
0000
0021
0000
0000
0000
0130
1000
0100
0010
0001
1000
0001
0100
0010
0100
,
0001
0000
1000
0000
0001
0010
0100
0010
0001
0000
1000
0000
0001
0100
1000
0100
,
0001
0000
0011
0000
0000
0000
1000
0010
0100
0001
0010
0001
1000
0100
0010
0100
,
1000
0000
0001
0000
1000
0010
0100
0010
1000
0000
0001
0000
1000
0100
0001
0100
,
1000
0000
1100
0000
0000
0000
0001
0010
0001
0100
0010
1000
0100
0000
0100
1000
,
0001
1000
0010
1000
0100
0010
0001
0010
0100
1000
0001
0010
0001
0000
0100
0001
,
1000
0001
0010
0001
0100
0010
1000
0010
0100
0001
1000
0010
1000
0000
0001
0010
,
0001
1000
0100
1000
0001
0100
0010
1000
0010
0100
0001
1000
0100
0000
0010
0100
,
1000
0100
0002
0000
0000
0000
0103
1000
0100
0010
0001
1000
0010
0000
1000
0100
,
0001
0000
0101
0000
0000
0000
0100
1000
0000
0001
0010
0000
0110
0000
0100
1000
,
0000
0010
0100
0000
0110
0000
0100
0001
0000
0010
0100
0000
1000
0010
1000
0010
,
0100
0001
0100
0001
1000
0010
0100
0001
0100
0010
1000
0001
1000
0100
0010
0001
,
0010
0100
1000
0001
0100
0010
1000
0100
0010
0001
0100
0010
1000
0000
0001
0100
,
1000
0000
0110
0000
0001
0000
0100
0001
0000
1000
0010
0000
0110
0000
0100
0001
,
0000
0010
0100
0000
0110
0000
0100
1000
0000
0010
0100
0000
0001
0010
0001
0010
,
0100
1000
0100
1000
0001
0010
0100
1000
0100
0010
0001
1000
0010
0100
0001
0010
,
0100
0000
0000
1000
0000
0000
0010
0000
0000
0100
0000
0000
0001
0000
0000
0000
0000
0000
0000
0000
0011
0000
0000
0000
0000
0000
0000
0000
0101
0000
0000
0000
0000
0000
0000
0000
1000
0000
0000
0010
0000
0000
0100
0000
0000
0001
0000
0000
,
0010
0000
0000
0100
0000
0000
1000
0000
0000
0010
0000
0000
0100
0000
0000
0000
0000
0000
0000
0000
0110
0000
0000
0000
0000
0000
0000
0000
1001
0000
0000
0000
0000
0000
0000
0000
0001
0000
0010
0000
0001
0000
0010
0000
0000
0001
0000
0000
,
0010
0000
0100
0000
0010
0000
0100
0000
0000
0010
0000
0000
0100
0000
1000
0000
0100
0000
1000
0000
0000
0100
0000
0000
1000
0000
0001
0000
1000
0000
0001
0000
0000
1000
0000
0000
0020
0000
0000
0000
0000
0000
0130
0000
0000
0010
0000
0000
,
1000
0010
0100
0010
1000
0010
0100
0001
1000
0000
0001
0000
0011
0000
0010
0100
,
1000
0000
1200
0000
0000
0000
0310
0001
0100
0000
0001
0000
2000
0000
3100
0010
,
0100
1000
0100
0010
0100
1000
0100
0010
0001
0000
0010
0000
0110
0000
0000
0100
,
1000
0000
2010
0000
0000
0000
3001
0000
1000
0100
0001
0100
0020
0000
0000
0000
,
0000
0000
0031
0100
0010
0100
0001
1000
0010
1000
0001
0010
0100
1000
0010
0001
,
0010
1000
0100
0010
0001
0100
0010
1000
0002
0000
0000
0000
0013
0001
0200
0000
,
0310
1000
0200
0000
0310
0001
1000
0001
0010
0000
0100
0000
0110
0000
0010
0001
,
1000
0000
1010
0000
0001
1000
0001
1000
0001
1000
0001
1000
0010
0100
0001
0100
,
0010
0100
0001
0100
0010
0100
1000
0100
0001
0100
0010
0000
1000
0100
0010
0100
,
1000
0100
0010
0100
1000
0001
0010
0100
1000
0100
0010
0001
0100
0010
1000
0010
,
0100
0010
1000
0010
0001
0010
1000
0001
1000
0010
0100
0000
0001
0010
0001
1000
,
0001
0010
0001
1000
0001
0010
0200
0000
2300
0000
3002
0000
1003
0010
0100
0010
,
1000
0010
0100
0010
1000
0001
0100
1000
0100
0001
1000
0000
0001
0010
0100
0010
,
0001
0010
0100
0010
1000
0010
0001
1000
0010
0100
0001
1000
0100
0010
0001
0010
,
1000
0010
0001
0100
1000
0100
0001
0000
1001
0000
0000
0000
0010
1000
0010
0001
,
0010
0000
0100
0110
0000
0000
2000
0000
3020
0000
0230
0000
0302
0000
0000
0010
,
0000
0000
0103
0000
0002
0000
0000
1000
0000
0000
0013
0000
0002
0000
0000
1000
,
0000
0000
0103
0000
0000
0000
0002
0000
0023
0000
0230
0000
2300
0000
0000
0010
,
0000
0000
3001
0000
2000
0000
0000
0100
0000
0000
3001
0000
2000
0000
0000
0010
,
0000
3100
0000
2000
3002
0203
0320
0000
,
0000
0000
0000
0030
1000
0010
1000
0000
0001
0000
0010
0000
0200
0000
0000
0000
,
0000
0000
0310
0001
2000
0000
0000
0000
0000
0000
0000
0000
3020
0000
0000
0000
,
0000
0000
0000
0030
0100
0001
0100
0000
0010
0000
1000
0000
0110
0000
0100
0010
,
0100
0000
2002
0000
0003
0000
3001
0100
0001
0100
0010
1000
0001
0000
1000
0100
,
0010
0000
0100
0001
0000
0101
0000
0100
1000
0100
0010
0000
0110
0000
0100
1000
,
0001
0000
0100
0000
0010
1000
0010
0100
0001
0100
0010
0000
1000
0000
0001
0010
,
0100
0000
0010
1000
0000
1010
0000
0010
0001
1000
0001
0000
0100
0000
0010
1000
,
0001
0000
0010
0000
0100
1000
0001
0010
0001
1000
0100
1000
0001
0000
0001
0100
,
1000
0100
0001
0100
0010
0100
1000
0100
0010
0100
0001
0100
0010
0000
1000
0100
,
0001
0100
1000
0100
0010
0100
0001
0100
0010
0100
1000
0100
0010
0000
0001
0010
,
1000
0010
0001
0010
0100
0010
1000
0010
0100
0010
0001
1000
0200
0000
1300
0001
,
0100
0010
2000
0000
0010
0000
3001
0010
0100
1000
0100
0010
0002
0000
0000
0010
,
0000
0000
0000
0000
0000
0000
0103
0000
0000
0010
0000
0000
2000
0000
0000
0000
0000
0000
0000
0000
3200
0000
0000
0000
0000
0000
0000
0000
0301
0000
0000
0000
0000
0000
0000
0000
0101
0000
0000
0000
0000
0000
0100
0000
0000
1000
0000
0000
,
0000
0001
0010
1000
0010
0000
0001
0100
0000
1000
0100
0000
0120
0000
0000
0001
,
0000
0000
0000
0000
0000
0000
1030
0000
0000
0001
0000
0000
0200
0000
0000
0000
0000
0000
0000
0000
0020
0300
0000
0000
0000
0000
0000
0000
2030
0000
0000
0000
0000
0000
0000
0000
3100
0000
0000
0000
0000
0000
0010
0000
0000
0100
0000
0000
,
0010
0001
1000
0010
0001
0000
0010
1000
0001
0100
0010
0000
1010
0000
0001
0010
,
1000
0010
0001
0000
1000
0010
0100
0010
1000
0100
0001
0100
0110
0000
0010
0001
,
0000
0001
0100
0000
0120
0000
1030
0200
0000
0301
0100
0000
1002
0000
0000
0000
,
0000
0000
0000
0000
0000
0000
0103
0000
0000
0010
0000
0000
2000
0000
0000
0000
0000
0000
0000
0000
3002
0000
0000
0000
0000
0000
0000
0000
0023
0000
0000
0000
0000
0000
0000
0000
0031
0000
0100
0000
0001
0000
1000
0000
0010
0000
1000
0000
,
0001
0100
0001
1000
0100
0010
0001
0000
0100
0000
1000
0000
0100
0000
0010
1000
0001
0100
0020
0000
0000
0000
0000
0000
,
0030
0000
1000
0000
0001
0000
2000
0000
0000
0000
3200
0000
0000
0000
0320
0000
0000
0000
0031
0100
0010
1000
0100
0010
,
0001
0000
0100
0000
0010
0000
1000
0000
0100
0000
0010
0000
0001
0000
0000
0000
0000
0000
0000
0000
0110
0000
0000
0000
0000
0000
0000
0000
1001
0000
0000
0000
0000
0000
0000
0000
1000
0000
0000
0100
0000
0000
0001
0000
0000
0101
0000
0000
,
0000
1100
0000
1010
0000
0001
0100
1000
1100
0000
0101
0000
0011
0000
1000
0010
,
0001
0011
0000
1010
0000
1100
0000
0010
0100
1001
0000
0000
0000
0000
0000
0000
;

//--------------- dance-double - forcednature ----------------
#NOTEDATA:;
#STEPSTYPE:dance-double;
#DESCRIPTION:forcednature;
#DIFFICULTY:Easy;
#METER:9;
#RADARVALUES:0,0,0,0,0;
#CREDIT:forcednature;
#NOTES:
00000000
00000000
00000000
00000000
,
00000000
00000000
00000000
00000000
,
00000000
00000000
00000000
00000000
,
00000000
00000000
00000000
00000000
,
00000000
00000000
00000000
00000000
,
00010000
00001000
00010000
00000000
00011000
00000000
00100000
00000000
,
00010000
01000000
00010000
00100000
,
01000000
10000000
00000000
00010000
,
00100000
00001000
00010000
00000010
,
00001000
00000000
00000100
00000000
00000000
00000000
00000010
00000001
,
00000010
00000000
00000010
00000000
00000010
00000000
00000100
00001000
,
00000100
00000000
00000100
00000000
00000100
00000000
00010000
00001000
,
00010000
00010000
00010000
00100000
,
00000000
01100000
00000000
00000000
00000000
00000000
10000000
00000000
,
00100000
01000000
00100000
10000000
,
00010000
01000000
00000000
00001000
,
00010000
00001000
00100000
00001000
,
00010000
00000000
00000100
00000000
00000000
00000000
00001000
00000001
,
00001000
00000000
00001000
00000000
00001000
00000000
00000010
00000100
,
00000010
00000000
00000010
00000000
00000010
00000000
00001000
00000100
,
00001000
00001000
00001000
00000010
,
00000010
00010000
00000000
00001000
00010000
00000000
00011000
00000000
,
00000000
00101000
00000000
00100000
00010000
00000000
01000000
00000000
,
01000000
00010000
00010000
10000000
,
00000000
00100000
01000000
00000000
00100000
00000000
10000000
00000000
,
10000000
00010000
00010000
00100000
,
00000000
00001000
00010000
00000000
00000100
00000000
00001000
00000000
,
00001000
00000001
00000001
00000100
,
00000000
00000010
00000100
00000000
00000001
00000000
00001001
00000000
,
00000000
00000000
00000000
00001000
00000000
00000100
00000000
00010000
00000000
00002000
00000000
00000000
,
00003000
00000000
00000000
00100000
00000000
00010000
00000000
10000000
00000000
00200000
00000000
00000000
,
02300000
03020000
10030000
10010000
,
00010000
00100000
00001000
00000000
00010000
00000000
00011000
00000000
,
00000000
00010100
00000000
00000100
00001000
00000000
00001001
00000000
,
00000001
00000100
00000010
00000110
,
00000000
00001001
00000000
00001000
00001000
00000000
00000100
00000000
,
00000100
00010000
00010000
00001000
,
00100000
00000000
00010000
10000000
00010000
00000000
01000000
00000000
,
01000000
00001000
00001000
00010000
,
00000010
00000000
00001000
00000001
00001000
00000000
00000100
00000000
,
00010000
00000000
00001000
00010000
00001000
00000000
01000000
00000000
,
00001000
00000000
00010000
00001000
00010000
00000000
00000010
00000000
,
00010000
00000000
00001000
00010000
00001000
00000000
00200000
00000000
,
00000000
00000000
00310000
10000000
00010000
00000000
10000000
00000000
,
01000000
00000000
00100000
01000000
00100000
00000000
00010000
00000000
,
00100000
00000000
00001000
00010000
00001000
00000000
00010000
00000000
,
00000010
00000000
00001000
00000010
00001000
00000000
00001001
00000000
,
00000000
00000000
00000000
00000110
00000000
00000000
00000000
00000000
00000000
00000000
00000000
00000000
00000002
00000000
00000000
00000000
,
00000000
00000203
00000000
00002300
,
00000000
00003000
00000000
00020000
,
00000000
00230000
00000000
20300000
,
00000000
30000000
00000000
02000000
,
00000000
03100000
00001000
00020000
,
00000000
00030200
00000000
00002300
,
00000000
00003001
00000010
00000210
,
00000300
00002002
00000000
00000000
00003003
00000000
00001000
00000100
,
00001000
00000000
00000100
00000000
00010000
00000000
00001000
00010000
,
00001000
00000000
00100000
00000000
00010000
00000000
10000000
00100000
,
10000000
00000000
00010000
00000000
01000000
00000000
00010000
10000000
,
00010000
00000000
00100000
00000000
00001000
00000000
00010000
00001000
,
00010000
00000000
00010000
00000000
00010000
00000000
00000100
00001000
,
00000100
00000000
00000100
00000000
00000100
00000000
00000010
00000001
,
00000010
00000000
00000010
00000000
00000010
00000000
00000100
00001000
,
00000100
00010000
00001000
00011000
,
00000000
00000000
01000000
00000000
00010000
00000000
10000000
00100000
,
10000000
00000000
00010000
01000000
00010000
00000000
00200000
00000000
,
00000000
00000000
00301000
00000000
00010000
00000000
00000100
00001000
,
00000100
00000000
00000010
00000001
00000010
00000000
00000100
00000000
,
00010000
00000000
00001000
00100000
00001000
00000000
00010000
00000100
,
00010000
00000000
00001000
00010000
00001000
00000000
00000020
00000000
,
00000000
00000000
00000130
00000010
00000100
00000000
00002000
00000000
,
00000000
00000000
00003001
00001000
00000001
00000000
00000200
00000000
,
00002300
00000000
00023000
00000000
00230000
00000000
01300000
00100000
,
01000000
00000000
00000000
00000000
00000000
00000000
00100000
00000000
00000000
00000000
00000000
00000000
10000000
00000000
00000000
00000000
00000000
00000000
00000000
00000000
10000000
00000000
00000000
00000000
00000000
00000000
00000000
00000000
00010000
00000000
00000000
00000000
00000000
00000000
00000000
00000000
00100000
00000000
00000000
00000000
00000000
00000000
00000000
00000000
00000000
00100000
00000000
00000000
,
00000000
00000000
00000000
00000000
00000000
00001000
00000000
00000000
00001000
00000000
00000000
00000000
00000000
00000000
00010000
00000000
,
00000000
00010000
00000000
00000000
00000000
00000000
00000000
00000100
00000000
00000110
00000000
00000000
00000000
00000000
00000000
00000000
;

//--------------- dance-double - forcednature ----------------
#NOTEDATA:;
#STEPSTYPE:dance-double;
#DESCRIPTION:forcednature;
#DIFFICULTY:Medium;
#METER:14;
#RADARVALUES:0,0,0,0,0;
#CREDIT:forcednature;
#NOTES:
00000000
00000000
00000000
00000000
,
00000000
00000000
00000000
00000000
,
00000000
00000000
00000000
00000000
,
00000000
00000000
00000000
00000000
,
00000000
00000000
00000000
00000000
,
00001000
00010000
00001000
00010000
00001000
00000000
00010000
00000000
00011000
00000000
00000000
00000000
00000100
00000000
00001000
00000000
,
00000010
00000000
00000100
00000001
00000010
00000000
00000100
00010000
,
00001000
00100000
00001000
00010000
01000000
00000000
00100000
00010000
,
01000000
00000000
00100000
10000000
01000000
00000000
00100000
00001000
,
00010000
01000000
00010000
00001000
00000010
00000010
00000000
00000001
,
00000100
00001000
00010000
01000000
10000000
00100000
00000000
10000000
,
01000000
00010000
00001000
00000100
00000001
00000010
00000000
00000001
,
00000100
00001000
00010000
01000000
10000000
00100000
01000000
00000000
,
00100000
00000000
10010000
00000000
00000000
00000000
10000000
00000000
00010000
10000000
00010000
00000000
00100000
00000000
00010000
00000000
,
01000000
00000000
00100000
10000000
01000000
00000000
00100000
00001000
,
00010000
00000100
00010000
00001000
00000010
00000000
00000100
00001000
,
00000010
00000000
00000100
00000001
00000010
00000000
00000100
00010000
,
00001000
00100000
00001000
00010000
01000000
00000000
10000000
01000000
,
00010000
00001000
00000100
00000001
00000010
00000000
00000001
00000100
,
00001000
00010000
01000000
10000000
00100000
00000000
10000000
01000000
,
00010000
00001000
00000100
00000001
00000010
00000000
00000100
00000000
,
00000010
00000000
00001001
00000000
00000000
00000000
00000001
00000000
00000100
00000000
00001000
00000000
00010000
00000000
00000000
00010000
,
00001000
00000000
00100000
00000000
00000000
00000000
01000000
00000000
10000000
00000000
00100000
00000000
10000000
00000000
01000000
00100000
,
00000000
01000000
00100000
00000000
00010000
00000000
00100000
00010000
00000000
00100000
00001000
00000000
00020000
00000000
00000000
00000000
,
00030100
00000000
00001000
00000000
00000010
00000000
00000000
00000100
00000000
00000000
00000001
00000000
00000200
00000000
00000000
00002300
,
00000000
00000000
00023000
00000000
00032000
00000000
00000000
00023000
00000000
00000000
00230000
00000000
01300000
00000000
00000000
00100000
,
01000000
00000000
01100000
00000000
00000000
00000000
00100000
00000000
10000000
00000000
00010000
00000000
00100000
00000000
00001000
00010000
,
00000000
00001000
00010000
00000000
00000010
00000000
00001000
00000001
00000000
00000100
00000001
00000000
00000020
00000000
00000000
00000000
,
00000000
00000000
00000130
00001000
00000100
00000000
00000000
00010000
00000000
00000000
00001000
00000000
00200000
00000000
00000000
00000000
,
00000000
00000000
00000000
00000000
00000000
00000000
00310000
00000000
00000000
10000000
00000000
00000000
00010000
00000000
00000000
00000000
00000000
00000000
00000000
00000000
01000000
00000000
00000000
00000000
00000000
00000000
00000000
00000000
00100000
00000000
00000000
00000000
00000000
00000000
00000000
00000000
20000000
00000000
00000000
00000000
00000000
00000000
00000000
00000000
00000000
00000000
00000000
00000000
,
00000000
00000000
00000000
00000000
00000000
00000000
31000000
00000000
00000000
00100000
00000000
00000000
01000000
00000000
00000000
00000000
00000000
00000000
00000000
00000000
00100000
00000000
00000000
00000000
00000000
00000000
00000000
00000000
00001000
00000000
00000000
00000000
00000000
00000000
00000000
00000000
00010000
00000000
00000000
00000000
00000000
00000000
00001000
00000000
00000000
00000000
00000000
00000000
,
00000010
00000000
00000100
00000000
00001000
00000000
00000100
00000010
00000001
00000000
00000000
00000000
00000100
00000000
00001000
00000000
,
00010000
00000010
00001000
00000010
00010000
00000000
00011000
00000000
,
00100000
00110000
00000000
10000000
01000000
00000000
01200000
00000000
,
00301000
00001000
00010000
00010000
00001000
00000000
00011000
00000000
,
00000010
00000000
00001010
00000000
00000000
00000000
00000001
00001000
00000001
00001000
00000001
00000000
00000020
00000000
00000000
00000000
,
00000000
00000130
00010000
00001000
00000010
00001000
00010000
00000000
,
01000000
01100000
00000000
00100000
10010000
00000000
10000000
00100000
,
00010000
00100000
10000000
01000000
00010000
00001000
00000010
00000000
,
00000100
00002002
00000000
00000000
00003003
00000000
00000001
00000100
,
00001000
00000000
00010000
00000000
00100000
00000000
01000000
00100000
10000000
00000000
00000000
00000000
10000000
00000000
01000000
00000000
,
00010000
00000000
00001000
00000000
00000010
00000000
00000100
00000010
00000001
00000000
00000000
00000000
00000001
00000000
00000100
00000000
,
00001000
00000000
00010000
00000000
00100000
00000000
01000000
00100000
10000000
00000000
00000000
00000000
20020000
00000000
00000000
00000000
,
00000000
00000000
30030000
00000000
00010000
10000000
00010000
00000000
01000000
00000000
00100000
00000000
10000000
00000000
01000000
00000000
,
00010000
00000000
00001000
00000000
00000010
00000000
00000100
00000010
00000001
00000000
00000000
00000000
00000001
00000000
00000100
00000000
,
00001000
00000000
00010000
00000000
00100000
00000000
01000000
00100000
10000000
00000000
00000000
00000000
10000000
00000000
01000000
00000000
,
00010000
00000000
00001000
00000000
00100000
00000000
00000000
00000000
00011000
00000000
00000000
00000000
00001000
00010000
00001000
00010000
,
00001000
00000000
00010000
00001000
00000000
00000000
00000000
00000000
00000000
00000000
00000000
00000000
00000020
00000000
00000000
00000000
,
00000000
00000032
00000000
00000203
,
00000000
00000000
00000300
00001000
00010000
00001000
00020000
00000000
,
00000000
00230000
00000000
20300000
,
00000000
00000000
30000000
00010000
00100000
00010000
20000000
00000000
,
00000000
00000000
30000000
00000000
01000000
00100000
01000000
00000000
00100000
00000000
00001000
00000000
00020000
00000000
00000000
00000000
,
00030000
00000100
00002000
00000000
00000000
00000000
00003002
00000000
,
00000000
00000000
00000003
00000000
00000100
00000010
00000100
00000000
00000010
00000000
00001000
00000000
00000100
00000000
00000000
00000000
,
00010000
00022000
00000000
00000000
00033000
00000000
00100000
00010000
,
00100000
00000000
01000000
10000000
00000000
10000000
00000000
00010000
00000000
00000000
01000000
00000000
00001000
00000000
00000000
00001000
,
00010000
00000010
00001000
00000100
00000010
00000000
00000100
00010000
,
00001000
00000000
00000010
00000100
00000000
00000100
00000000
00000100
00000000
00000000
00000010
00000000
00000001
00000000
00000000
00000001
,
00000100
00001000
00000000
00000100
00000100
00000100
00000001
00000010
,
00001000
00010000
00100000
10000000
01000000
00000000
10000000
00100000
,
00010000
00001000
00000010
00000001
00000100
00000000
00000001
00000010
,
00001000
00010000
00100000
10000000
01000000
00000000
01100000
00000000
,
00100000
10010000
00000000
10000000
01000000
00010000
00002000
00000000
,
00000000
00000000
00000000
00000000
00000000
00000000
00013000
00000000
00000000
00001000
00000000
00000000
00010000
00000000
00000000
00000000
00000000
00000000
00000000
00000000
00000100
00000000
00000000
00000000
00000000
00000000
00000000
00000000
00001000
00000000
00000000
00000000
00000000
00000000
00000000
00000000
00000010
00000000
00000000
00000000
00000000
00000000
00000100
00000000
00000000
00000001
00000000
00000000
,
00000000
00000100
00000001
00000000
00000010
00000000
00000100
00001000
00000000
00000100
00010000
00000000
00002000
00000000
00000000
00000000
,
00000000
00000000
00000000
00000000
00000000
00000000
00013000
00000000
00000000
00001000
00000000
00000000
00010000
00000000
00000000
00000000
00000000
00000000
00000000
00000000
00100000
00000000
00000000
00000000
00000000
00000000
00000000
00000000
10000000
00000000
00000000
00000000
00000000
00000000
00000000
00000000
01000000
00000000
00000000
00000000
00000000
00000000
00100000
00000000
00000000
01000000
00000000
00000000
,
00000000
00100000
01000000
00000000
00100000
00000000
00010000
00100000
00000000
00001000
00010000
00000000
00000010
00000000
00001000
00000000
,
00000100
00000000
00010000
00000000
00001000
00000000
00000010
00000000
00000001
00000000
00000000
00000000
00000100
00000000
00000000
00001000
,
00000100
00000000
00001000
00000000
00010000
00000000
00000000
00001000
00010000
00000000
00100000
00000000
00020000
00000000
00000000
00000000
,
00000000
00000000
00000000
00000000
00000000
00000000
00130000
00000000
00000000
10000000
00000000
00000000
00100000
00000000
00000000
00000000
00000000
00000000
00000000
00000000
10000000
00000000
00000000
00000000
00000000
00000000
00000000
00000000
01000000
00000000
00000000
00000000
00000000
00000000
00000000
00000000
00020000
00000000
00000000
00000000
00000000
00000000
00000000
00000000
00000000
00000000
00000000
00000000
,
00030000
00000000
00000000
00000000
00000000
00000000
00001000
00000000
00000000
00010000
00000000
00000000
00001000
00000000
00000000
00000000
00000000
00000000
00000000
00000000
00000010
00000000
00000000
00000000
00000000
00000000
00000000
00000000
00000001
00000000
00000000
00000000
00000000
00000000
00000000
00000000
00000200
00000000
00000000
00000000
00000000
00000000
00000000
00000000
00000000
00000000
00000000
00000000
,
00000000
00000301
00001000
00000001
00000000
00000010
00000000
00001000
00000000
00010000
00001000
00100000
,
00010000
00000000
00000000
00000000
00100000
00000000
00000000
00000000
01000000
00000000
00000000
00000000
00100000
00000000
00000000
00000000
00000000
00000000
00000000
00000000
01100000
00000000
00000000
00000000
00000000
00000000
00000000
00000000
10010000
00000000
00000000
00000000
00000000
00000000
00000000
00000000
10000000
00000000
00000000
00000000
00000000
00000000
00000000
00000000
00000000
01000000
00000000
00000000
,
00000000
01000000
00000000
00010000
00000000
00001000
00000000
00000000
00000010
00000000
00000010
00000000
00000001
00000000
00000100
00000000
,
00000000
00001000
00000000
00001000
00000000
00010000
00000000
00100000
00000000
01100000
00000000
00000000
00000000
00000000
00000000
00000000
;

//--------------- dance-double - forcednature ----------------
#NOTEDATA:;
#STEPSTYPE:dance-double;
#DESCRIPTION:forcednature;
#DIFFICULTY:Hard;
#METER:17;
#RADARVALUES:0,0,0,0,0;
#CREDIT:forcednature;
#NOTES:
00000000
00000000
00000000
00000000
,
00000000
00000000
00000000
00000000
,
00000000
00000000
00000000
00000000
,
00000000
00000000
00000000
00000000
,
00000000
00000000
00000000
00000000
,
00001000
00010000
00001000
00010000
00001000
00000000
00010000
00001000
00200000
00300000
00000000
00000000
01000000
10000000
01000000
00000000
,
10000000
00000000
00010000
00000000
00100000
00010000
00100000
00000000
00001000
00000000
00010000
00000000
00000010
00001000
00000010
00000000
,
00000100
00000000
00000002
00000000
00000000
00000000
00000013
00000000
00000100
00000000
00001000
00000000
00000100
00010000
00001000
00000000
,
00100000
00000000
00010000
00000000
00100000
00010000
01000000
00000000
00010000
00000000
10000000
00000000
00100000
01000000
00010000
00000000
,
10000000
00000000
02000000
00000000
00000000
00000000
03100000
00010000
00000000
00010000
00000000
00000000
01000000
00000000
01000000
10000000
,
01000000
00000000
01000000
00100000
01000000
00000000
01000000
00010000
00100000
00000000
00001000
00000000
00010000
00000000
00010000
00001000
,
00010000
00000000
00010000
00000100
00010000
00000000
00010000
00001000
00000010
00000000
00000100
00000000
00001000
00000000
00001000
00000010
,
00001000
00000000
00001000
00000100
00001000
00000000
00001000
00000001
00000100
00000000
00001000
00000000
00020000
00000000
00000000
00000000
,
00031000
00000000
00011000
00000000
00000000
00000000
01000000
00010000
01000000
00100000
10000000
00000000
01000000
10000000
01000000
00000000
,
00100000
00000000
00001000
00000000
00010000
00000100
00010000
00000000
00001000
00000000
00000010
00000000
00000100
00001000
00000100
00000000
,
00000010
00000000
00000002
00000000
00000000
00000000
00000103
00000000
00000010
00000000
00001000
00000000
00000001
00000010
00000100
00000000
,
00001000
00000000
00000010
00000000
00001000
00000100
00010000
00000000
00001000
00000000
01000000
00000000
00010000
00100000
01000000
00000000
,
10000000
00000000
00020000
00000000
00000000
00000000
01030000
00100000
00000000
01000000
00000000
00000000
00010000
00000000
00010000
00100000
,
00001000
00000000
00001000
00010000
00000100
00000000
00000100
00001000
00000010
00000000
00000010
00000000
00000100
00000000
00000100
00000001
,
00000010
00000000
00000010
00000100
00001000
00000000
00001000
00000010
00010000
00000000
00010000
00000000
00001000
00000000
00001000
01000000
,
00010000
00000000
00010000
00100000
01000000
00000000
01000000
10000000
00100000
00000000
01000000
00000000
10020000
00000000
00000000
00000000
,
00130000
00000000
00011000
00000000
00000000
00000000
00000100
00001000
00000100
00000010
00000001
00000010
00000100
00000000
00000000
00001000
,
00000010
00000000
00000110
00000000
00000000
00000000
00000100
00000001
00000000
00000100
00001000
00000000
00010000
00000000
00010000
00001000
,
00000000
00010000
00100000
00000000
10000000
00000000
10000000
00010000
00000000
01000000
00100000
00000000
20000000
00000000
01000000
00000000
,
31000000
00000000
10000000
00010000
00100000
00000000
00001000
00010000
00000000
00000100
00001000
00000000
00000020
00000000
00000000
00000230
,
00000000
00000000
00002300
00000000
00023000
00000000
00000000
02030000
00000000
00000000
03200000
00000000
00310000
00000000
00000000
10000000
,
01000000
00000000
01100000
00000000
00000000
00000000
00100000
00010000
00000000
00100000
00001000
00000000
00010000
00000000
00010000
00000010
,
00000000
00001000
00000010
00000000
00000100
00000000
00000100
00001000
00000000
00000100
00000001
00000000
00000020
00000000
00000001
00000000
,
00000031
00000000
00000000
00000000
00000000
00000000
00000010
00000000
00000000
00000100
00000000
00000000
00001000
00000000
00000000
00000000
00000000
00000000
00000100
00000000
00000000
00010000
00000000
00000000
00000000
00000000
00000000
00001000
00000000
00000000
00010000
00000000
00000000
00000000
00000000
00000000
00200000
00000000
00000000
00000000
00000000
00000000
00000000
00000000
20300000
00000000
00000000
00000000
,
00000000
00000000
00000000
00000000
32000000
00000000
00000000
00000000
00000000
00000000
00000000
00000000
03020000
00000000
00000000
00000000
00000000
00000000
00000000
00000000
00032000
00000000
00000000
00000000
00000000
00000000
00000000
00000000
00203000
00000000
00000000
00000000
00000000
00000000
00000000
00000000
00301000
00000000
00000000
00000000
00000000
00000000
00010000
00000000
00000000
00000100
00000000
00000000
,
00010000
00000000
00000000
00001000
00000000
00000000
00010000
00000000
00000000
00000100
00000000
00000000
00020000
00000000
00000000
00000000
00000000
00000000
00000000
00000000
00032000
00000000
00000000
00000000
00000000
00000000
00000000
00000000
00003020
00000000
00000000
00000000
00000000
00000000
00000000
00000000
00000130
00000000
00000000
00001000
00000000
00000000
00000100
00000000
00000000
00001000
00000000
00000000
,
00000001
00000010
00000001
00000010
00000100
00001000
00000100
00010000
00001000
00000000
00000000
00000000
00200000
00000000
00000000
00000000
,
01000000
01000000
01000000
00320000
00000000
10030000
10100000
00000000
,
00010000
00000000
01010000
00000000
00000000
00000000
00001000
00010000
00000010
00000000
00000000
00000000
00002010
00000000
00000000
00000000
,
00003001
00000010
00000100
00000010
00000001
00000010
00000100
00000010
00000001
00000000
00000000
00000000
00001200
00000000
00000000
00000000
,
00010300
00000000
00011000
00000000
00000000
00000000
00100000
00000000
00010000
10000000
00010000
10000000
00200000
00000000
00000000
00000000
,
00000000
00000000
01300000
00010000
01000000
00001000
00010000
00001000
00100000
00010000
00100000
00000000
00110000
00000000
00000000
00001000
,
00010000
00000000
00011000
00000000
00000000
00000010
00001000
00000000
00001010
00000000
00000000
00000000
00000010
00000100
00000001
00000000
,
00000010
00000100
00001000
00000000
00000010
00000100
00000001
00000100
00000010
00000000
00001000
00000000
00001001
00000000
00000000
00000001
,
00000010
00000000
00000210
00000000
00000000
00001300
00000100
00001000
00000100
00001000
00000100
00001000
00000010
00000000
00001000
00000100
,
00000010
00000000
00000100
00010000
00001000
00000000
00100000
00001000
00010000
00000000
00100000
00000000
10000000
00000000
01000000
00100000
,
00010000
00000000
01000000
00100000
10000000
00000000
01000000
00100000
00010000
00000000
01000000
00000000
00001000
00000000
00010000
00000010
,
00001000
00000000
00000100
00010000
00001000
00000000
00100000
00010000
01000000
00000000
00100000
00000000
20100000
00000000
00000000
00000000
,
00000000
00000000
00000000
00000000
31000000
00100000
00010000
00100000
00001000
00000000
00011000
00000000
00010000
00000100
00001000
00000000
,
00000010
00010000
00001000
00000000
00100000
00010000
01000000
00010000
00100000
00000000
00001000
00000000
00010000
00000100
00001000
00000000
,
00000010
00010000
00001000
00000000
01000000
00010000
00100000
00010000
01000000
00000000
00100000
00000000
10000000
01000000
00100000
00000000
,
01000000
10000000
00100000
00000000
01000000
00001000
00010000
00000000
00011000
00000000
00000000
00000000
00000010
00000100
00000010
00000100
,
00000010
00000000
00000100
00000001
00000000
00000000
00000010
00000000
00000100
00000000
00010000
00000000
00002000
00000000
00000000
00203000
,
00000000
00000000
00302000
00000000
00023000
00000000
00000000
02030000
00000000
00000000
03020000
00000000
00032000
00000000
00000000
00203000
,
00000000
00000000
00302000
00000000
00000000
00000000
00013000
00000000
00000010
00000000
00001000
00000000
00000200
00000000
00000000
00000320
,
00000000
00000000
00000032
00000000
00000203
00000000
00000000
00000320
00000000
00000000
00002030
00000000
00003200
00000000
00000000
00020300
,
00000000
00032000
00000000
00103000
00010000
01000000
20000000
00000000
,
00000000
00000000
00000000
00000000
31000000
00010000
01000000
00000000
00001000
00000000
00010000
00000000
00000020
00000000
00000000
00000000
,
00000000
00000000
00001030
00000001
00000200
00000000
00000000
00000000
00000000
00000000
00000000
00000000
00002300
00000000
00000000
00000000
,
00000000
00000000
00003000
00000000
00010000
00001000
00010000
00000000
00001000
00000000
00100000
00000000
00110000
00000000
00000000
10000000
,
01000000
00000000
21000000
00000000
00000000
30000000
00010000
10000000
00010000
10000000
00010000
00000000
00100000
00000000
00010000
00100000
,
00001000
00000000
00010000
00000100
00000000
00001100
00000000
00001010
00000000
00000010
00000100
00000000
00000001
00000000
00000010
00000100
,
00001000
00000000
00001100
00000000
00000000
00000000
00010000
00001000
00100000
00001000
00010000
00000000
01000000
00000000
10000000
00010000
,
00100000
00000000
00001000
00010000
00000000
00011000
00000000
00010010
00000000
00000010
00001000
00000000
00000100
00000000
00000010
00000001
,
00000100
00000000
00000010
00000000
00001000
00000000
00000100
00001000
00000100
00010000
00001000
00000000
00100000
00000000
00100000
00010000
,
01000000
00000000
01000000
00001000
00010000
00000000
00010000
00000010
00001000
00000000
00001000
00000000
00000100
00000000
00000100
00010000
,
00001000
00000000
00001000
01000000
00010000
00000000
00010000
00100000
01000000
00000000
01000000
00000000
00010000
00000000
00010000
00001000
,
00100000
00000000
00100000
00010000
01000000
00000000
01000000
00001000
00010000
00000000
00010000
00000000
00011000
00000000
00000100
00001000
,
00000010
00000000
00000210
00000000
00000000
00000000
00000301
00001000
00000010
00000100
00000010
00001000
00000002
00000000
00000000
00000000
,
00000000
00000000
00000000
00000000
00000000
00000000
00000103
00000000
00000000
00001000
00000000
00000000
00020000
00000000
00000000
00000000
00000000
00000000
00000000
00000000
00230000
00000000
00000000
00000000
00000000
00000000
00000000
00000000
02300000
00000000
00000000
00000000
00000000
00000000
00000000
00000000
03010000
00000000
00000000
00000000
00000000
00000000
10000000
00000000
00000000
01000000
00000000
00000000
,
00000000
00100000
01000000
00000000
00100000
00000000
00001000
00010000
00000000
00000100
00001000
00000000
00000020
00000000
00000000
00000000
,
00000000
00000000
00000000
00000000
00000000
00000000
00000130
00000000
00000000
00000001
00000000
00000000
00002000
00000000
00000000
00000000
00000000
00000000
00000000
00000000
00003020
00000000
00000000
00000000
00000000
00000000
00000000
00000000
00020030
00000000
00000000
00000000
00000000
00000000
00000000
00000000
00031000
00000000
00000000
00000000
00000000
00000000
00001000
00000000
00000000
01000000
00000000
00000000
,
00000000
01000000
00010000
00000000
00100000
00000000
00100000
01000000
00000000
01000000
10000000
00000000
01000000
00000000
00010000
00000000
,
00001000
00100000
00010000
00000000
00100000
00000000
00001000
00010000
00000100
00001000
00000100
00000000
00000110
00000000
00000010
00000001
,
00000000
00000100
00001000
00000000
00011000
00000000
00010000
00100000
00000000
10000000
00010000
00000000
02000000
00000000
00000000
00000000
,
00000000
00000000
00000000
00000000
00000000
00000000
03001000
00000000
00000000
00010000
00000000
00000000
00000020
00000000
00000000
00000000
00000000
00000000
00000000
00000000
00002030
00000000
00000000
00000000
00000000
00000000
00000000
00000000
00003002
00000000
00000000
00000000
00000000
00000000
00000000
00000000
00000013
00000000
00000000
00000100
00000000
00000000
00001000
00000000
00000000
00000100
00000000
00000000
,
00010000
00001000
00100000
00010000
01000000
00000000
00100000
10000000
00000000
00010000
00100000
00000000
02100000
00000000
00000000
00000000
,
00000000
00000000
00000000
00000000
13000000
00000000
00000000
00000000
01000000
00000000
00000000
00000000
00020000
00000000
00000000
00000000
00000000
00000000
00000000
00000000
00032000
00000000
00000000
00000000
00000000
00000000
00000000
00000000
00003020
00000000
00000000
00000000
00000000
00000000
00000000
00000000
00000031
00000000
00000000
00000100
00000000
00000000
00000010
00000000
00000000
00000100
00000000
00000000
,
00001000
00000000
00000000
00010000
00000000
00000000
00001000
00000000
00000000
00010000
00000000
00000000
00100000
00000000
00000000
00000000
00000000
00000000
00000000
00000000
01100000
00000000
00000000
00000000
00000000
00000000
00000000
00000000
10010000
00000000
00000000
00000000
00000000
00000000
00000000
00000000
10000000
00000000
00000000
01000000
00000000
00000000
10000000
00000000
00000000
00010000
00000000
00000000
,
00000000
00110000
00000000
00101000
00000000
00001000
00010000
00000010
00010000
00000000
00001010
00000000
00000110
00000000
00000100
00000001
,
00001000
00000001
00000000
00000011
00000000
00000110
00000000
00000100
00010000
00001000
00000000
00000000
00000000
00000000
00000000
00000000
;

//--------------- dance-double - forcednature ----------------
#NOTEDATA:;
#STEPSTYPE:dance-double;
#DESCRIPTION:forcednature;
#DIFFICULTY:Challenge;
#METER:18;
#RADARVALUES:0,0,0,0,0;
#CREDIT:forcednature;
#NOTES:
00000000
00000000
00000000
00000000
,
00000000
00000000
00000000
00000000
,
00000000
00000000
00000000
00000000
,
00000000
00000000
00000000
00000000
,
00000000
00000000
00000000
00000000
,
00001000
00010000
00001000
00010000
00001000
00000000
00010000
00100000
20000000
30000000
00000000
00000000
01000000
00100000
00010000
00100000
,
01000000
00000000
00010000
00000000
00001000
00100000
00010000
00100000
00001000
00000000
00010000
00000000
00000010
00001000
00000010
00000100
,
00000001
00000000
00001001
00000000
00000000
00000000
00001000
00000010
00001000
00000001
00000010
00000001
00000100
00000010
00001000
00000010
,
00000100
00000000
00001000
00000000
00010000
00000010
00001000
00000010
00010000
00000000
00001000
00000000
00100000
00010000
00100000
01000000
,
10000000
00000000
10010000
00000000
00000000
00000000
10000000
01000000
00100000
01000000
00100000
00010000
01000000
00000000
01000000
00001000
,
00010000
00001000
00100000
00010000
00100000
00001000
00010000
00000100
00001000
00000010
00010000
00001000
00000010
00000000
00000100
00010000
,
00001000
00010000
00000010
00001000
00000010
00010000
00001000
01000000
00010000
00100000
00001000
00010000
00100000
00000000
01000000
00001000
,
00010000
00001000
00100000
00010000
00100000
00001000
00010000
00000100
00001000
00000010
00010000
00001000
00000020
00000000
00000130
00001000
,
00000001
00000000
00000021
00000000
00000000
00000000
00000031
00000100
00000001
00001000
00000010
00001000
00000100
00000010
00000001
00000010
,
00000100
00000000
00010000
00000000
00001000
00100000
00010000
00100000
00001000
00000000
00010000
00000000
00100000
10000000
01000000
10000000
,
00100000
00000000
10010000
00000000
00000000
00000000
10000000
00100000
01000000
00010000
00100000
00010000
01000000
00100000
10000000
00100000
,
01000000
00000000
00001000
00000000
00010000
00000010
00001000
00000010
00010000
00000000
00001000
00000000
00000010
00000001
00000100
00000001
,
00000010
00000000
00001001
00000000
00000000
00000000
00000001
00000010
00000100
00001000
00000010
00001000
00000100
00000000
00000100
00000010
,
00000001
00000010
00000100
00001000
00000100
00010000
00001000
00100000
00001000
00010000
01000000
00100000
00001000
00000000
01000000
00100000
,
10000000
00100000
01000000
00010000
01000000
00001000
00010000
00000010
00010000
00001000
00000100
00000010
00010000
00000000
00000100
00000010
,
00000001
00000010
00000100
00001000
00000100
00010000
00001000
00100000
00001000
00010000
01000000
00100000
00001000
00000000
00010000
01000000
,
10000000
01000000
00020000
00000000
00000000
00000000
00031000
00000010
00000100
00000010
00000001
00001000
00000010
00000000
00000100
00001000
,
00010000
00000000
00011000
00000000
00000000
00000000
00001000
00100000
00000000
00010000
00100000
00000000
01100000
00000000
01000000
00010000
,
00000000
00001000
00010000
00000000
00011000
00000000
00001000
00000010
00000000
00000001
00000010
00000000
00000001
00000100
00000001
00000100
,
00000010
00001000
00000010
00001000
00010000
01000000
00010000
01000000
00100000
10000000
00100000
10000000
00010000
00100000
00001000
00010000
,
00000010
00001000
00000100
00010000
00001000
01000000
00010000
00100000
01000000
10000000
00010000
00000000
00100000
00000000
01000000
00010000
,
00001000
00000000
00011000
00000000
00000000
00000000
00010000
00000010
00000000
00001000
00000010
00000000
00000110
00000000
00000100
00001000
,
00000000
00010000
00001000
00000000
00011000
00000000
00010000
00100000
00000000
10000000
00100000
00000000
10000000
01000000
10000000
01000000
,
00100000
00010000
00100000
00010000
00001000
00000100
00001000
00000100
00000010
00000001
00000010
00000001
00001000
00000010
00010000
00001000
,
00010000
00000000
00000000
00000100
00000000
00000000
00001000
00000000
00000000
00000100
00000000
00000000
00000010
00000000
00000000
00000000
00000000
00000000
00000000
00000000
00000110
00000000
00000000
00000000
00000000
00000000
00000000
00000000
00001001
00000000
00000000
00000000
00000000
00000000
00000000
00000000
00000001
00000000
00000000
00000100
00000000
00000000
00000010
00000000
00000000
00001000
00000000
00000000
,
00010000
00000000
00000000
01000000
00000000
00000000
00100000
00000000
00000000
10000000
00000000
00000000
00010000
00000000
00000000
00000000
00000000
00000000
00000000
00000000
10010000
00000000
00000000
00000000
00000000
00000000
00000000
00000000
01100000
00000000
00000000
00000000
00000000
00000000
00000000
00000000
10000000
00000000
01000000
00000000
10000000
00000000
01000000
00000000
00000000
10000000
00000000
00000000
,
01000000
00000000
00100000
00000000
01000000
00000000
00100000
00000000
00000000
01000000
00000000
00000000
00100000
00000000
00010000
00000000
00100000
00000000
00010000
00000000
00000000
00100000
00000000
00000000
00001000
00000000
00010000
00000000
00001000
00000000
00010000
00000000
00000000
00001000
00000000
00000000
02000000
00000000
00000000
00000000
00000000
00000000
00000000
00000000
00000000
00000000
00000000
00000000
,
03010000
10000000
00100000
10000000
00010000
10000000
00100000
10000000
01000000
00000000
00010000
00000000
00011000
00000000
00001000
00000010
,
00000100
00000000
00000120
00000000
00000000
00000000
00000031
00001000
00000010
00000000
00000000
00000000
00001002
00000000
00000000
00000000
,
00000103
00000010
00000100
00001000
00000100
00000010
00000100
00001000
00010000
00000000
00100000
00000000
01100000
00000000
00000000
01000000
,
00010000
00000000
20010000
00000000
00000000
00000000
30010000
00000000
10000000
01000000
00010000
00001000
00200000
00000000
00000000
00000000
,
00000000
00000000
00310000
01000000
00100000
10000000
00100000
01000000
00010000
00100000
00001000
00010000
00001000
01000000
00010000
01000000
,
00100000
00010000
00001000
00010000
00001000
00000100
00000010
00000100
00000002
00000000
00000000
00000000
00000013
00001000
00020000
00000000
,
00031000
00000010
00000002
00000000
00001003
00000100
00010000
00001000
00100000
00000000
00010000
00000000
10010000
00000000
10000000
00100000
,
01000000
00000000
01100000
00000000
10000000
00010000
10000000
00010000
10000000
00010000
10000000
00010000
10000000
01000000
00100000
01000000
,
00010000
01000000
00100000
01000000
10000000
01000000
00010000
00001000
00000010
00000000
00000000
00000000
00000001
00000100
00000010
00000100
,
00001000
00000100
00000010
00000100
00000001
00000100
00001000
00010000
00100000
00000000
00000000
00000000
10000000
00100000
01000000
00100000
,
00010000
00100000
01000000
00100000
10000000
00100000
00010000
00001000
00000100
00000000
00000000
00000000
00000001
00001000
00000001
00001000
,
00000001
00001000
00000001
00001000
00000010
00000100
00002000
00000000
00023000
00000000
00230000
00000000
10300000
01000000
00010000
01000000
,
10000000
01000000
00010000
01000000
00100000
00010000
00001000
00000100
00000010
00000000
00000000
00000000
00000001
00000100
00001000
00000100
,
00000001
00000100
00001000
00000100
00000010
00001000
00010000
01000000
00100000
00000000
00000000
00000000
10000000
00100000
00010000
00100000
,
10000000
00100000
00010000
00100000
10000000
01000000
00010000
00000000
00011000
00000000
00000000
00000000
00001000
00100000
00010000
00001000
,
00000100
00000000
00010000
00011000
00000000
00000000
00000020
00000000
00000230
00000000
00002300
00000000
00023000
00000000
00000000
00100000
,
00000000
00000000
00031000
00000000
00020000
00000000
00000000
01000000
00000000
00000000
00031000
00000000
00020000
00000000
00000000
00100000
,
00000000
00000000
00031000
00000000
00000000
00000000
00020000
00000000
02030000
00000000
03020000
00000000
00032000
00000000
00000000
00000010
,
00000000
00000000
00013000
00000000
00002000
00000000
00000000
00000100
00000000
00000000
00013000
00000000
00002000
00000000
00000000
00000010
,
00000000
00013000
00000000
00002000
00003020
00000032
00000203
00000000
,
00000000
00000000
00000000
00000000
00000310
00000100
00000010
00000000
00001000
00000000
00010000
00000000
02000000
00000000
00000000
00000000
,
00000000
00000000
03100000
10000000
00020000
00000000
00000000
00000000
00000000
00000000
00000000
00000000
00230000
00000000
00000000
00000000
,
00000000
00000000
00000000
00300000
00001000
00010000
00001000
00000000
00000010
00000000
00000100
00000000
00000110
00000000
00000001
00001000
,
00000001
00000000
00002002
00000000
00003000
00000000
00000103
00000010
00001000
00000010
00000100
00000001
00001000
00000000
00000001
00000100
,
00001000
00000000
00010000
00001000
00000000
00011000
00000000
00010000
00100000
01000000
00100000
00000000
01100000
00000000
00010000
10000000
,
00100000
00000000
10000000
00000000
00010000
00000000
00100000
01000000
10000000
01000000
00100000
00000000
00010000
00000000
10000000
01000000
,
00010000
00000000
00001000
00010000
00000000
00011000
00000000
00001000
00000010
00000100
00000010
00000000
00000110
00000000
00001000
00000001
,
00000010
00000000
00000001
00000000
00001000
00000000
00000010
00000100
00000001
00000100
00000010
00001000
00000001
00000000
00000001
00000100
,
00000010
00001000
00000010
00000100
00000001
00001000
00000010
00000100
00001000
00010000
00100000
01000000
00010000
00000000
10000000
01000000
,
00100000
00010000
00100000
01000000
10000000
00010000
00100000
01000000
00010000
00001000
00000010
00000100
00001000
00000000
00000001
00000100
,
00000010
00001000
00000010
00000100
00000001
00001000
00000010
00000100
00001000
00010000
00100000
01000000
00020000
00000000
10030000
00010000
,
01000000
00100000
20000000
00000000
00000000
00000000
30010000
00100000
00001000
00010000
00000100
00001000
00000020
00000000
00000000
00000000
,
00000000
00000000
00000000
00000000
00000000
00000000
00000130
00000000
00000000
00000001
00000000
00000000
00002000
00000000
00000000
00000000
00000000
00000000
00000000
00000000
00003200
00000000
00000000
00000000
00000000
00000000
00000000
00000000
00010300
00000000
00000000
00000000
00000000
00000000
00000000
00000000
00011000
00000000
00000000
00000000
00000000
00000000
00001000
00000000
00000000
00100000
00000000
00000000
,
00000000
00010000
01000000
10000000
01000000
00000000
00100000
10000000
00000000
00010000
00100000
00000000
00102000
00000000
00000000
00000000
,
00000000
00000000
00000000
00000000
00000000
00000000
00013000
00000000
00000000
00000100
00000000
00000000
00002000
00000000
00000000
00000000
00000000
00000000
00000000
00000000
00003020
00000000
00000000
00000000
00000000
00000000
00000000
00000000
00000230
00000000
00000000
00000000
00000000
00000000
00000000
00000000
00000301
00000000
00000000
00000000
00000000
00000000
00000010
00000000
00000000
00000100
00000000
00000000
,
00001000
00000100
00010000
00001000
00000010
00000000
00001000
00010000
00001000
00100000
00010000
00000000
01100000
00000000
01000000
10000000
,
01000000
00100000
00010000
00000000
00100000
00001000
00010000
00001000
01000000
00010000
01000000
00000000
01100000
00000000
00100000
00010000
,
00000000
00001000
00010000
00000000
00001000
00000000
00000100
00000001
00000000
00000100
00001000
00000000
00021000
00000000
00000000
00000000
,
00000000
00000000
00000000
00000000
00000000
00000000
00130000
00000000
00000000
10000000
00000000
00000000
00020000
00000000
00000000
00000000
00000000
00000000
00000000
00000000
02030000
00000000
00000000
00000000
00000000
00000000
00000000
00000000
03002000
00000000
00000000
00000000
00000000
00000000
00000000
00000000
00013000
00000000
00001000
00000000
00010000
00000000
00000100
00000000
00001000
00000000
00000100
00000000
,
00010000
00001000
00010000
00000010
00001000
00000001
00000100
00000000
00001000
00000000
00010000
00000000
00001000
00000000
00100000
00010000
00100000
01000000
20000000
00000000
00000000
00000000
00000000
00000000
,
30000000
00000000
01000000
00000000
00010000
00000000
00002000
00000000
00000000
00000000
00003020
00000000
00000000
00000000
00000032
00000000
00000000
00000000
00000013
00000100
00001000
00000010
00010000
00001000
,
01000000
00000000
00010000
00000000
00100000
00000000
01000000
00000000
10000000
00000000
00100000
00000000
01000000
00000000
00000000
00000000
00000000
00000000
00000000
00000000
01100000
00000000
00000000
00000000
00000000
00000000
00000000
00000000
10010000
00000000
00000000
00000000
00000000
00000000
00000000
00000000
10000000
00000000
00000000
01000000
00000000
00000000
00010000
00000000
00000000
00001000
00000000
00000000
,
00000000
00000010
00000000
00000110
00000000
00000001
00000100
00001000
00010000
00000000
00100000
00000000
01100000
00000000
10000000
01000000
,
00010000
00001000
00000000
00000010
00000000
00000110
00000000
00000001
00000100
00001010
00000000
00000000
00000000
00000000
00000000
00000000
;
