#VERSION:0.83;
#TITLE:Lost wing at.0;
#SUBTITLE:;
#ARTIST:猫叉Master+;
#TITLETRANSLIT:;
#SUBTITLETRANSLIT:;
#ARTISTTRANSLIT:Nekomata Master+;
#GENRE:DRUM'N'BASS;
#CREDIT:;
#MUSIC:Lost wing at.0.ogg;
#BANNER:Lost wing at.0.png;
#BACKGROUND:Lost wing at.0-bg.png;
#CDTITLE:./CDTitles/BeatStream AnimTribe.png;
#SAMPLESTART:81.476;
#SAMPLELENGTH:15.000;
#SELECTABLE:YES;
#OFFSET:0.247;
#BPMS:0.000=185.000;
#STOPS:;
#TIMESIGNATURES:0.000=4=4;
#BGCHANGES:0.000=Lost wing at.0.mp4=1.000=0=0=0=StretchNoLoop====,
99999.000=-nosongbg-=1.000=0=0=0=StretchNoLoop====
;
#FGCHANGES:;

//--------------- dance-single - forcednature ----------------
#NOTEDATA:;
#STEPSTYPE:dance-single;
#DESCRIPTION:forcednature;
#DIFFICULTY:Beginner;
#METER:1;
#RADARVALUES:0,0,0,0,0;
#CREDIT:forcednature;
#NOTES:
0000
0000
0000
0000
,
0000
0000
0000
0000
,
0000
0000
0000
0000
,
0000
0000
0000
0000
,
0000
0000
0000
0000
,
0000
0000
0000
0000
,
0000
0000
0000
0000
,
0000
0000
0000
0000
,
1000
0000
0000
0000
,
0000
0000
0000
0000
,
0000
0000
0000
0000
,
0001
0000
0000
0000
,
0000
0000
0000
0000
,
0000
0000
0000
0000
,
0100
0000
0000
0000
,
0000
0000
0000
0000
,
0000
0000
0000
0000
,
0010
0000
0000
0000
,
0000
0000
0000
0000
,
1000
0000
0000
0000
,
0000
0000
0000
0000
,
0001
0000
0000
0000
,
0000
0000
0000
0000
,
0010
0000
0000
0000
,
0000
0000
0000
0000
,
0100
0000
0000
0000
,
0000
0000
0000
0000
,
1000
0000
0000
0000
,
0000
0000
0000
0000
,
0001
0000
0000
0000
,
0000
0000
0000
0000
,
0100
0000
0000
0000
,
0000
0000
0000
0000
,
0001
0000
0000
0000
,
0000
0000
0000
0000
,
0010
0000
0000
0000
,
0000
0000
0000
0000
,
0001
0000
0000
0000
,
0000
0000
0000
0000
,
1000
0000
0000
0000
,
0000
0000
0000
0000
,
0010
0000
0000
0000
,
0000
0000
0000
0000
,
1000
0000
0000
0000
,
0000
0000
0000
0000
,
0100
0000
0000
0000
,
0000
0000
0000
0000
,
0010
0000
0000
0000
,
0000
0000
0000
0000
,
0001
0000
0000
0000
,
0000
0000
0000
0000
,
1000
0000
0000
0000
,
0000
0000
0000
0000
,
0010
0000
0000
0000
,
0000
0000
0000
0000
,
0100
0000
0000
0000
,
0000
0000
0000
0000
,
0001
0000
0000
0000
,
0000
0000
0000
0000
,
1000
0000
0000
0000
,
0000
0000
0000
0000
,
0100
0000
0000
0000
,
0000
0000
0000
0000
,
1001
0000
0000
0000
,
0000
0000
0000
0000
,
0001
0000
0000
0000
,
0000
0000
0000
0000
,
0100
0000
0000
0000
,
0000
0000
0000
0000
,
0010
0000
0000
0000
,
0000
0000
0000
0000
,
1001
0000
0000
0000
,
0000
0000
0000
0000
,
1000
0000
0000
0000
,
0000
0000
0000
0000
,
0100
0000
0000
0000
,
0000
0000
0000
0000
,
0010
0000
0000
0000
,
0000
0000
0000
0000
,
0001
0000
0000
0000
,
0000
0000
0000
0000
,
0000
0000
0000
0000
,
0100
0000
0000
0000
,
0000
0000
0000
0000
,
0000
0000
0000
0000
,
0010
0000
0000
0000
,
0000
0000
0000
0000
,
0000
0000
0000
0000
,
1000
0000
0000
0000
,
0000
0000
0000
0000
,
0000
0000
0000
0000
,
1001
0000
0000
0000
;

//--------------- dance-single - forcednature ----------------
#NOTEDATA:;
#STEPSTYPE:dance-single;
#DESCRIPTION:forcednature;
#DIFFICULTY:Easy;
#METER:7;
#RADARVALUES:0,0,0,0,0;
#CREDIT:forcednature;
#NOTES:
0000
0000
0000
0000
,
0000
0000
0000
0000
,
0000
0000
0000
0000
,
0000
0000
0000
0000
,
0000
0000
0000
0000
,
1000
0000
0000
0100
0000
0000
0010
0000
,
0000
0002
0000
0000
0000
0000
0000
0000
,
0003
0000
0000
0000
,
0001
0000
0000
0100
0000
0000
0010
0000
,
0000
2000
0000
0000
0000
0000
0000
0000
,
3000
0000
0000
0000
,
1000
0000
0000
0001
0000
0000
0010
0000
,
0000
0200
0000
0000
0000
0000
0300
0000
,
2000
0000
0000
3000
,
0002
0000
0000
0000
,
0000
0000
0000
0000
,
0003
0000
0000
0000
,
0100
0000
0000
0100
,
0010
0000
0000
0010
,
1000
0000
0000
1000
,
0000
1000
0000
1000
,
0001
0000
0000
0001
,
0010
0000
0000
0010
,
0100
0000
0000
1000
,
0000
0001
0000
0100
,
0000
0010
1000
0010
,
0000
1000
0100
1000
,
0000
0001
0100
0001
,
0000
0010
0000
0001
,
0000
1000
0010
1000
,
0000
0010
0100
0010
,
0000
0100
0000
0001
,
0000
1000
0000
1000
,
0001
0000
0000
0010
,
0001
0000
0000
1000
,
0010
0000
0000
0100
,
0000
0001
0000
1000
,
0100
0000
0000
0010
,
0001
0000
0000
1000
,
0010
0000
0000
0000
0000
0000
0000
0100
,
0000
0100
0000
0000
0001
0000
0000
2000
,
0000
0000
0000
0000
,
0000
0000
3000
0000
,
0100
0000
0000
0100
0000
0000
0010
0000
,
0000
0010
0000
0000
0001
0000
0000
0000
,
2000
0000
0000
3000
0000
0000
0002
0000
,
0000
0003
0000
0000
0000
0000
0000
0000
,
0200
0000
0000
0300
0000
0000
0020
0000
,
0000
0030
0000
0000
0000
0000
0000
0000
,
0002
0000
0000
0003
0000
0000
2000
0000
,
0000
3000
0000
0000
0000
0000
0000
0000
,
0200
0000
0000
0300
0000
0000
0020
0000
,
0000
0030
0000
0000
0100
0000
0000
0000
,
1000
0000
0000
0010
0000
0000
1000
0000
,
0000
0020
0000
0000
0030
0000
0000
0000
,
0100
0000
0000
0001
0000
0000
0100
0000
,
0000
0002
0000
0000
0003
0000
0000
0000
,
1000
0000
0000
0100
0000
0000
1000
0000
,
0000
0100
0000
0000
0010
0000
0000
0000
,
0001
0000
0000
0001
0000
0000
1000
0000
,
0000
1000
0000
0000
0010
0000
0000
0000
,
0110
0000
0000
0110
0000
0000
1001
0000
,
0000
1001
0000
0000
0000
0000
0000
0000
,
2000
0000
3100
2000
,
0000
3001
2000
0000
,
3010
2000
0000
3001
,
1000
0000
0010
0000
,
0200
0000
0000
0300
,
0001
0000
0020
0000
,
0000
0000
0000
0000
,
0030
0100
0000
1000
,
0002
0000
0103
0002
,
0000
1003
0002
0000
,
0013
0002
0000
1003
,
0001
0000
0100
0020
,
0000
0000
0000
0030
,
1000
0000
0002
0000
,
0000
0000
0000
0003
,
0010
0000
0100
0000
,
1000
0000
0000
1000
0000
0000
0001
0000
,
0000
2002
0000
0000
0000
0000
0000
0000
,
3003
0000
0000
0000
,
0100
0000
0000
0100
0000
0000
0010
0000
,
0000
0220
0000
0000
0000
0000
0000
0000
,
0330
0000
0000
0000
,
0001
0000
0000
0001
0000
0000
1000
0000
,
0000
2002
0000
0000
0000
0000
0000
0000
,
3003
0000
0000
0000
,
0100
0000
0000
0100
0000
0000
0010
0000
,
0000
2002
0000
0000
0000
3003
0000
0000
,
0220
0000
0000
0000
0000
0330
0000
0000
,
2002
0000
0000
0000
,
0000
0000
0000
0000
,
0000
0000
0000
0000
,
3003
0000
0000
0000
;

//--------------- dance-single - forcednature ----------------
#NOTEDATA:;
#STEPSTYPE:dance-single;
#DESCRIPTION:forcednature;
#DIFFICULTY:Medium;
#METER:13;
#RADARVALUES:0,0,0,0,0;
#CREDIT:forcednature;
#NOTES:
0000
0000
0000
0000
,
0000
0000
0000
0000
,
0000
0000
0000
0000
,
0000
0000
0000
0000
,
0000
0000
0000
0000
,
0001
0000
0000
0101
0000
0000
1100
0000
,
0000
2010
0000
0001
0001
0000
0000
0000
,
0000
0000
3000
0100
0010
0100
0010
0001
,
1000
0000
0000
0010
0000
0000
0101
0000
0000
0000
0001
0000
0010
0000
0000
0000
,
0000
2200
0000
0000
0000
0000
0000
0000
,
0000
0000
0000
0000
3300
0000
0000
0001
0100
0000
0001
0000
0100
0000
0001
0000
,
1000
0000
0000
0001
0000
0000
0011
0000
0000
0000
1000
0000
0100
0000
0000
0000
,
0010
2001
0000
0000
0000
0000
0000
3001
,
0201
0000
0000
0000
0000
0000
0000
0000
0000
0300
0010
1000
,
0002
0000
0000
0000
0000
0003
0000
0010
,
0000
0000
0100
0000
0000
1000
0000
0000
,
0001
0000
0001
0000
0100
0010
1000
0000
,
1100
0001
0000
0001
,
1010
0001
0000
0001
,
0101
0000
1000
0000
0000
1100
0000
0110
,
0000
0011
0000
0110
0000
1001
0000
0001
,
0100
0000
0020
0000
1030
0010
1000
0000
,
0001
0000
0020
0000
0031
0010
0001
0000
,
1000
0000
0200
0000
1300
0100
0000
0110
,
0000
0011
0000
0101
0000
0100
0010
1000
,
0001
0000
1000
0100
0001
0100
2000
0000
,
3000
0000
0001
0100
1000
0100
0002
0000
,
0003
0000
1000
0010
0001
0010
1000
0001
,
0000
0010
0100
1000
0000
0010
0000
0100
,
0000
0000
0001
0010
1000
0010
0002
0000
,
0003
0000
1000
0010
0001
0010
2000
0000
,
0000
0000
3001
0010
0100
1000
0010
0100
,
0000
1000
0100
0001
0000
0010
0000
0100
,
2000
0000
0010
0000
0001
0000
3100
1000
,
0002
0000
0010
0000
1000
0000
0103
0001
,
2000
0000
0100
0000
3001
1000
0000
1010
,
0000
0110
0000
0101
0000
1001
0000
0010
,
0002
0000
0100
0000
1000
0000
0013
0001
,
2000
0000
0100
0000
0001
0000
3010
1000
,
0002
0000
0100
0000
1003
0001
0000
1100
,
0000
0001
0010
0100
1000
0100
0010
0000
,
0001
0000
0001
0100
0000
0100
0010
0000
,
0010
1000
0000
1000
0001
0010
0001
0000
,
1000
0000
0000
0100
0000
0000
0011
0000
0000
0000
0000
0000
0001
0000
0000
0100
,
0000
1000
0000
0000
0100
0100
0100
0000
,
0010
0000
0000
1000
0000
0000
0002
0000
0000
0000
0000
0000
0013
0000
0000
0001
,
0000
2000
0000
0000
3000
0000
0000
0000
,
0100
0000
0000
1000
0000
0000
0002
0000
0000
0000
0000
0000
0103
0000
0000
0001
,
0000
2000
0000
0000
3000
0000
0000
0000
,
0100
0000
0000
0010
0000
0000
0002
0000
0000
0000
0000
0000
0103
0000
0000
0010
,
0000
2000
0000
0000
3000
0000
0000
0000
,
0001
0000
0000
0010
0000
0000
0200
0000
0000
0000
0000
0000
1300
0000
0000
0001
,
0000
0100
0000
0010
1000
0001
1000
0100
,
0020
0000
0000
0001
0000
0000
0100
0000
0000
0000
0030
0000
0020
0000
0000
0001
,
0000
0100
0000
0000
0031
0000
1000
0000
,
0020
0000
0000
1000
0000
0000
0100
0000
0000
0000
0030
0000
0020
0000
0000
1000
,
0000
0100
0000
0000
0030
0000
0001
1000
,
0200
0000
0000
0010
0000
0000
1300
0000
0100
0000
0000
0000
0020
0000
0000
0001
,
0000
0100
0030
0010
0001
0000
0100
0000
,
0010
0000
0000
0100
0000
0000
1001
0000
0000
0000
0000
0000
0100
0000
0000
0010
,
0000
1001
0000
1000
0100
0010
0001
0100
,
0010
0000
0000
1010
0000
0000
0101
0000
0000
0000
0000
0000
0010
0000
0000
0011
,
0000
1100
0000
0000
0000
0000
0000
0000
,
1000
0100
0001
0100
1000
0001
1000
0010
,
0001
0010
1000
0001
1000
0100
0001
0100
,
1000
0001
1000
0010
0001
0010
1000
0001
,
1000
0100
0010
0001
0100
0010
1000
0001
,
0020
0000
0000
0000
0000
0000
0030
0100
,
1000
0001
0100
0010
1000
0001
0020
0000
,
0100
0001
0000
0001
,
0030
0011
1100
1001
,
0001
0100
1000
0100
0001
1000
0001
0010
,
1000
0010
0001
1000
0001
0100
1000
0100
,
0001
0010
0100
1000
0001
0100
0010
1000
,
0100
0010
0001
1000
0010
0100
0002
0000
,
0000
0000
0010
0000
0000
0003
0010
0001
,
1000
0001
0100
0010
1000
0001
0020
0000
,
0100
0000
0001
0000
0000
0000
0031
0010
,
0200
0000
1300
0001
0100
0010
0100
0010
,
1000
0000
0100
0001
0000
0100
1000
0000
,
0010
0220
0000
0000
0000
0000
0000
0000
,
0000
0000
0000
0000
0000
0330
0000
0001
,
0010
0000
0100
1000
0000
0001
0100
0000
,
0010
2010
0000
0100
0100
0000
0000
0000
,
3000
0000
1000
0001
0100
0001
0010
0001
,
0100
0000
0010
0001
0000
0010
1000
0000
,
0100
0220
0000
0000
0000
0000
0000
0000
,
0330
0000
0000
0000
0000
0000
0000
0010
0001
0000
0010
0000
0001
0000
0010
0000
,
0100
0000
1000
0010
0000
0001
0010
0000
,
0100
0220
0000
0000
0000
0330
0000
0010
,
2001
0000
0000
0000
0000
0000
0001
0000
0000
3000
0100
0010
,
0002
0000
0000
0000
,
0000
0000
0000
0000
,
0000
0000
0000
0000
,
0003
0000
0000
0000
;

//--------------- dance-single - forcednature ----------------
#NOTEDATA:;
#STEPSTYPE:dance-single;
#DESCRIPTION:forcednature;
#DIFFICULTY:Hard;
#METER:16;
#RADARVALUES:0,0,0,0,0;
#CREDIT:forcednature;
#NOTES:
0000
0000
0000
0000
,
0000
0000
0000
0000
,
0000
0000
0000
0000
,
0000
0000
0000
0000
,
0000
0000
0000
0000
0000
0000
0000
0000
0000
0000
0000
0000
0000
0000
1000
0001
,
1000
0000
0000
1000
0010
0000
0200
0000
0000
0000
0000
0000
0301
0000
0010
0100
,
0010
0000
0110
0000
0000
0000
0010
0001
2000
0000
0000
0000
0000
0000
0000
0000
,
0000
0000
0000
0000
3000
0000
0010
0100
0010
0000
0100
0001
0100
0000
0001
1000
,
0001
0000
0000
0001
0010
0000
0200
0000
0000
0000
0000
0000
1300
0010
1000
0010
,
0100
0102
0000
0000
0000
0000
0000
0000
,
0000
0000
0000
0000
0003
0000
0000
1000
0100
1000
0100
1000
0100
1000
0100
1000
,
0001
0000
0000
0001
0100
0000
0020
0000
0000
0000
0030
0000
0100
0010
0100
0010
,
1000
0000
2001
0000
0000
0000
0000
0000
0000
0000
0000
0000
0000
0000
3010
0100
,
0002
0000
0000
0000
0000
0000
0000
0000
0000
0013
0100
1000
,
0002
0000
0000
0100
0000
0000
1000
0000
0000
0000
0003
0000
0000
0000
0021
0000
,
0000
0230
0000
0000
2300
0000
0000
0000
3001
0000
0100
0000
0001
0000
0100
0010
,
1000
0000
0000
1000
0100
0000
0000
0100
0010
0000
0001
0000
1001
0000
0000
0000
,
1010
0000
0001
0100
0000
1000
0100
0000
,
0011
0000
1000
0100
0000
0001
0100
0000
,
0110
0000
0010
0001
0000
0100
1000
0200
,
0000
0000
0301
0000
0010
0000
0002
0000
0000
0000
1003
0000
0010
0000
1000
0001
,
0010
0200
1000
0000
0301
0100
1100
1000
,
0010
0200
0001
0000
1300
0100
0001
0000
,
0021
0000
1000
0000
0130
0110
0000
1001
,
0000
0000
1100
0000
0000
0000
0101
0000
0000
0000
1000
0000
0001
0010
0100
1000
,
0001
0000
0000
0000
0100
0000
0010
0000
1000
0010
0100
0000
0002
0000
0000
0000
,
1003
0000
0000
0000
0100
0000
0010
0000
0001
0010
0100
0000
2000
0000
0000
0000
,
3010
0000
0000
0000
0100
0000
0001
0000
0010
0000
0100
0000
0010
0001
1000
0000
,
0000
0000
0010
0100
0001
0100
0010
0000
0000
0000
1000
0000
0100
0000
0010
0000
,
0110
0000
0000
0000
0100
0000
1000
0000
0001
0100
0010
0000
2000
0000
0000
0000
,
3010
0000
0000
0000
0100
0000
1000
0000
0100
0010
0100
0000
0002
0000
0000
0000
,
1000
0000
0000
0000
0013
0001
1000
0000
0010
0000
0100
0000
0001
0000
0021
0000
,
0000
0000
0130
1000
0100
1000
0001
0000
0000
0000
0100
0000
0110
0000
0010
0000
,
1002
0000
0000
0000
0103
0000
1000
0000
0100
0000
0001
0000
0100
0000
0010
1000
,
0002
0000
0000
0000
1003
0000
0100
0000
0001
0000
0100
0000
1000
0000
0001
0010
,
0200
0000
0001
0000
0310
0100
1000
1100
,
0000
0000
0010
0000
0001
0000
0011
0000
0000
0000
1000
0010
0100
0001
1000
0000
,
1200
0000
0000
0000
0310
0001
1000
0001
0100
0000
0010
0000
1000
0000
0001
0010
,
0200
0000
0000
0000
0001
0000
0000
0000
1000
0000
0000
0000
0310
0000
0100
1000
,
0002
0000
0100
0000
1003
0001
0010
1001
,
0000
0000
1000
0000
0010
0000
0100
0001
1000
0000
0100
1000
0001
0000
0100
0000
,
0010
0000
1000
0010
1000
0000
0001
0000
1000
0001
1000
0000
0100
0000
1000
0100
,
1000
0000
0100
0000
0010
0001
0010
0000
0001
0100
0001
0000
1000
0100
1000
0000
,
0010
0000
0000
1010
0000
0000
0101
0000
0000
0000
1000
0100
0010
0000
0000
0011
,
0000
0000
1100
0000
0000
0000
0000
0000
1000
0010
1000
0010
0100
0000
0100
0000
,
0102
0000
0000
1000
0000
0000
0010
0000
0000
0000
0000
0000
0100
0000
0000
1000
,
0000
0010
0000
0000
0003
0000
0000
0000
,
2100
0000
0000
0001
0000
0000
0010
0000
0000
0000
0000
0000
0100
0000
0000
0001
,
0000
0010
0000
0000
3000
0000
0000
0000
,
1020
0000
0000
0100
0000
0000
0001
0000
0000
0000
0000
0000
1000
0000
0000
0100
,
0000
0001
0000
0000
0030
0000
0000
0000
,
0201
0000
0000
0010
0000
0000
1000
0000
0000
0000
0000
0000
0001
0000
0000
0010
,
0000
0000
1000
0000
0300
0000
0100
0000
0001
0000
0010
0100
0010
0000
0100
0000
,
1200
0000
0000
0001
0000
0000
0010
0000
0000
0000
0000
0000
1000
0000
0000
0001
,
0000
0000
0010
0000
0300
0000
0100
1000
0001
0000
0000
0000
0100
0000
0000
0000
,
0201
0000
0000
1000
0000
0000
0010
0000
0000
0000
0000
0000
0001
0000
0000
1000
,
0000
0010
0000
0000
0300
0000
0100
0001
,
1000
0000
0000
1000
0100
0000
0010
0000
0011
0000
0000
0000
0001
0000
0000
0001
,
0100
0000
0020
0000
0000
0000
1030
0001
2000
0000
0000
0000
3010
0000
0000
0000
,
0101
0000
0000
0011
0000
0000
1010
0000
0000
0000
0001
1000
0100
0000
0000
1010
,
0000
0000
0011
0000
0000
0000
1000
0000
0001
0100
0001
0100
0010
1000
0010
1000
,
0001
0000
0000
0011
0000
0000
1100
0000
0000
0000
1000
0001
0100
0000
0000
0110
,
0000
0000
1001
0000
0000
0000
0000
0000
0000
0000
0000
0000
0000
0000
0001
0100
,
0010
0000
0001
0010
1000
0000
0001
0000
1000
0000
0100
0000
0010
0000
1000
0010
,
0001
0000
1000
0000
0001
0000
0100
0000
0010
0000
0001
0010
1000
0000
0001
0000
,
1000
0000
0100
0000
0010
0000
1000
0010
0001
0000
1000
0000
0001
0000
0100
0000
,
0010
1000
0010
0000
1000
0100
1000
0000
0100
0010
0100
0000
0010
0001
1000
0000
,
1020
0000
0000
0000
0001
0000
0001
0000
0000
0000
0100
0000
0130
0000
0010
1000
,
0100
0010
0001
0100
1000
0100
0020
0000
,
0001
0000
0100
0100
0000
1030
0010
1000
,
0001
0000
0010
0100
1000
0000
0001
0000
0100
0000
0010
1000
0001
0000
0000
0000
,
0100
0000
1000
0100
0001
0000
1000
0000
0001
0000
0010
0000
0100
0000
0001
0100
,
1000
0000
0001
0000
1000
0000
0010
0000
0100
0000
1000
0100
0001
0000
1000
0000
,
0001
0010
0001
0000
0010
0100
0010
0000
0100
1000
0001
1000
0010
0000
0100
0000
,
0001
1000
0001
0000
0010
0001
0010
0100
1000
0000
0010
0000
0210
0000
0000
0000
,
1000
0000
0000
0000
0010
0000
0010
0000
0000
0000
0301
0000
0100
0000
0010
1000
,
0001
0000
0010
0000
0100
0000
0010
0000
0001
0000
1000
0010
0200
0000
0000
0000
,
1000
0000
0000
0000
0010
0000
0010
0000
0000
0000
0301
0000
0100
0000
0010
1000
,
0001
0000
0010
0000
1000
0000
0010
0100
0010
0100
1000
0100
1000
0100
0010
0001
,
0100
0000
0010
1000
0001
0000
1000
0000
0100
0010
0001
0000
0100
0000
0010
1000
,
0001
0021
0000
0000
0000
0000
0000
0000
,
0130
0000
1000
0000
0100
0000
0010
0000
0001
0000
1000
0000
0010
0000
0100
0001
,
1000
0000
0100
0010
0100
0010
0001
0000
1000
0010
0100
0000
0001
0000
1000
0100
,
0010
0000
1002
0000
0000
0000
1003
0100
0002
0000
0000
0000
0000
0000
0000
0000
,
0103
0000
0010
0000
0100
0000
1000
0100
1000
0000
0100
0010
0001
0010
0100
0000
,
1000
0000
0010
0100
0001
0000
0010
0000
0001
1000
0010
0000
0100
0001
0100
0001
,
1000
1020
0000
0000
0000
0000
0130
1000
,
0100
0000
0000
0000
0010
0000
0000
0010
0001
0010
0100
1000
0100
0010
0001
0010
,
0100
0000
1000
0001
0100
0000
0001
0000
0010
0100
1000
0000
0010
0000
0001
0010
,
0100
0010
2000
0000
0000
0000
0000
0000
0000
0000
0000
0000
3000
0000
0100
0010
,
0002
0000
0000
0000
0000
0000
1000
0000
0000
0013
0100
0010
,
2002
0000
0000
0000
,
0000
0000
0000
0000
,
0000
0000
0000
0000
,
3003
0000
0000
0000
;

//--------------- dance-double - forcednature ----------------
#NOTEDATA:;
#STEPSTYPE:dance-double;
#DESCRIPTION:forcednature;
#DIFFICULTY:Easy;
#METER:9;
#RADARVALUES:0,0,0,0,0;
#CREDIT:forcednature;
#NOTES:
00000000
00000000
00000000
00000000
,
00000000
00000000
00000000
00000000
,
00000000
00000000
00000000
00000000
,
00000000
00000000
00000000
00000000
,
00000000
00000000
00000000
00000000
,
00000000
00000000
00000000
00000000
,
00000000
00000000
00000000
00000000
,
00000000
00000000
00000000
00000000
,
00010000
00000000
00000000
00000100
00000000
00000000
00001000
00000000
,
00000000
00002002
00000000
00000000
00000000
00000000
00000000
00000000
,
00003003
00000000
00000001
00000001
,
00000100
00000000
00000000
00001000
00000000
00000000
00010000
00000000
,
00000000
00022000
00000000
00000000
00000000
00000000
00033000
00000000
,
02002000
00000000
00000000
03003000
,
20020000
00000000
00000000
00000000
,
00000000
00000000
00000000
00000000
,
30030000
00000000
00000000
00000000
,
10000000
01000000
00010000
01000000
,
00100000
00001000
00010000
00000000
,
00000010
00000000
00001000
00000000
00000000
00000001
00000000
00000001
,
00000000
00000100
00000000
00000100
00000000
00000010
00000000
00000000
,
00000110
00000100
00000001
00000010
,
00000100
00010000
00001000
00000000
,
00100000
00000000
00010000
00000000
00000000
00100000
00000000
00100000
,
00000000
00001000
00000000
00001000
00000000
00011000
00000000
00000000
,
00010000
00000010
00001000
00000010
,
00000100
00000001
00001000
00000000
,
00000100
00010000
00001000
01000000
,
00010000
01000000
00001000
00000000
,
00100000
00010000
00100000
01000000
,
10000000
01000000
00100000
00000000
,
00001000
00010000
00000010
00001000
,
00000010
00010000
00001000
00000000
,
00011000
00000000
00010000
00000100
,
00001000
00000001
00000100
00000001
,
00000010
00000000
00000100
00001000
,
00000100
00010000
00001000
00100000
,
00110000
00000000
00010000
01000000
,
00010000
10000000
01000000
10000000
,
00100000
00000000
00000000
00000000
00000000
10000000
00000000
01000000
,
00000000
00010000
00000000
00001000
00000000
00000010
00000000
00000220
,
00000000
00000000
00000000
00000000
,
00000000
00000000
00000330
00000000
,
00000001
00000000
00000000
00000001
00000000
00000000
00000001
00000000
00000000
00000000
00000000
00000000
00000100
00000000
00000000
00000100
,
00000000
00000100
00000000
00000000
00001000
00000000
00010000
00000000
,
00001000
00100000
00000000
00100000
,
00000000
00010000
00000000
00000000
,
01000000
00100000
00000000
00100000
,
00000000
10000000
00000000
00000000
,
01000000
00100000
00000000
00100000
,
00000000
00001000
00000000
00000000
,
00010000
00000010
00000000
00000010
,
00000000
00001000
00000001
00000000
,
00000010
00000000
00000100
00000010
,
00000100
00010000
00001000
00000000
,
01000000
00000000
00010000
10000000
,
00100000
01000000
00010000
00000000
,
10010000
00000000
10000000
01000000
,
00010000
00001000
00011000
00000000
,
00000100
00000000
00000000
00000100
00000000
00000000
00000100
00000000
00000000
00000000
00000000
00000000
00010000
00000000
00000000
00010000
,
00000000
00010000
00000000
00000000
00001000
00000000
01000000
00000000
,
00100000
00000000
00000000
00100000
00000000
00000000
00100000
00000000
00000000
00000000
00000000
00000000
10000000
00000000
00000000
00010000
,
00000000
10000000
00000000
00000000
00000000
00000000
00000000
00000000
,
00100000
00000000
10000000
00100000
10000000
00000000
00010000
00000000
,
01000000
00010000
01000000
00000000
00001000
00000000
00010000
00001000
,
00010000
00000000
00000010
00000000
00001000
00000010
00001000
00000000
,
00000001
00000010
00000001
00000000
00000010
00000100
00000010
00000000
,
00000200
00000000
00000000
00000000
00000300
00000000
00001000
00000001
,
00001000
00000000
00000010
00000000
00010000
00001000
00020000
00000000
,
00000000
00000000
00000000
00000000
,
00030000
00001000
01001000
01010000
,
00010000
00000000
00100000
00010000
00100000
00000000
00001000
00000000
,
00010000
00001000
00010000
00000000
00000010
00000000
00001000
00000010
,
00001000
00000000
00000100
00001000
00000100
00000000
00000010
00000100
,
00000010
00000000
00000001
00000010
00000001
00000000
00000200
00000000
,
00000000
00000000
00000000
00000000
00000300
00000000
00000010
00001000
,
00000010
00000000
00010000
00001000
00010000
00000000
00002000
00000000
,
00000000
00000000
00000000
00000000
00003000
00000000
00100000
00010000
,
00100000
00000000
01000000
00000000
10000000
00010000
10000000
00000000
,
00100000
00000000
00000000
01000000
00000000
00000000
00001000
00000000
,
00000000
00022000
00000000
00000000
00000000
00000000
00000000
00000000
,
00000000
00000000
00033000
00000000
,
00010000
00000000
00000000
00000100
00000000
00000000
00001000
00000000
,
00000000
00002002
00000000
00000000
00000000
00000000
00000000
00000000
,
00000000
00000000
00003003
00000000
,
00000001
00000000
00000000
00000100
00000000
00000000
00001000
00000000
,
00000000
00022000
00000000
00000000
00000000
00000000
00000000
00000000
,
00000000
00000000
00033000
00000000
,
01000000
00000000
00000000
00010000
00000000
00000000
00100000
00000000
,
00000000
02200000
00000000
00000000
00000000
03300000
00000000
00000000
,
00022000
00000000
00000000
00000000
00000000
00033000
00000000
00000000
,
00000220
00000000
00000000
00000000
,
00000000
00000000
00000000
00000000
,
00000000
00000000
00000000
00000000
,
00000330
00000000
00000000
00000000
;

//--------------- dance-double - forcednature ----------------
#NOTEDATA:;
#STEPSTYPE:dance-double;
#DESCRIPTION:forcednature;
#DIFFICULTY:Medium;
#METER:14;
#RADARVALUES:0,0,0,0,0;
#CREDIT:forcednature;
#NOTES:
00000000
00000000
00000000
00000000
,
00000000
00000000
00000000
00000000
,
00000000
00000000
00000000
00000000
,
00000000
00000000
00000000
00000000
,
00000000
00000000
00000000
00000000
,
00000000
00000000
00000000
00000000
,
00000000
00000000
00000000
00000000
,
00000000
00000000
00000000
00000000
,
00011000
00000000
00001000
01000000
00000000
01000000
00010000
00000000
,
00010000
00200000
00000000
00000000
00000000
00000000
00000000
00000000
,
00300000
00000000
00000000
00000000
01000000
00010000
01000000
00010000
,
00001000
00000000
00001000
00000010
00000000
00000010
00000001
00000000
,
00000001
00000200
00000000
00000000
00000000
00000000
00000300
00001000
,
00020000
00000000
00000000
00000000
00000000
00000000
00000000
00000000
00000000
00031000
01000000
00010000
,
02000000
00000000
00000000
00100000
00000000
00000000
00100000
00000000
00000000
00000000
00000000
00000000
00000000
00000000
00010000
00000000
,
00000000
00010000
00000000
00000000
00010000
00000000
00000000
00000000
03000000
00000000
01000000
00000000
00000000
00000000
01000000
00000000
,
00001000
00000000
00011000
00000000
00010000
00000100
00001000
00000000
,
00001001
00000000
00000001
00000010
00001000
00010000
00001000
00000000
,
00011000
00000000
00010000
00100000
01000000
00100000
10000000
00000000
,
10010000
00000000
00010000
00100000
01000000
00010000
00000000
00011000
,
00000000
00001010
00000000
00000011
00000000
00000001
00000100
00001000
,
00000100
00000000
00000001
00000010
00000100
00010000
00000010
00000000
,
00000110
00000000
00000100
00001000
00010000
00001000
00100000
00000000
,
01100000
00000000
01000000
00010000
00001000
00100000
00000000
00110000
,
00000000
01010000
00000000
01001000
00000000
00001000
00010000
00000010
,
00001000
00000000
00000001
00000100
00001000
00000100
00000002
00000000
,
00000013
00000000
00000100
00010000
00001000
00000010
00000200
00000000
,
00001300
00000000
00000001
00000100
00001000
00010000
01000000
20000000
,
00000000
30100000
10000000
01000000
00000000
01100000
00000000
00100000
,
00001000
00000000
00000010
00000100
00010000
00000010
00002000
00000000
,
00003001
00000000
00000100
00001000
00010000
00100000
02000000
00000000
,
00010000
00000000
03100000
10000000
00010000
00100000
01000000
00020000
,
00000000
00031000
00010000
01000000
00000000
01100000
00000000
00100000
,
00001000
00010000
00100000
00000000
01100000
00000000
01000000
00001000
,
00010000
00000100
00000010
00000000
00000110
00000000
00000100
00001000
,
00000001
00000100
00002000
00000000
00013000
00000100
00001000
00000001
,
00000000
00000101
00000000
00000110
00000000
00000010
00001000
00000100
,
00000010
00001000
00020000
00000000
00030100
00001000
00000010
00010000
,
00002000
00000000
00103000
00000000
00001000
00010000
00100000
01000000
,
00020000
00000000
10030000
00000000
00010000
00100000
01000000
00010000
,
00000000
00011000
00000000
00001000
00000010
00000001
00000010
00000200
,
00000000
00000000
00000000
00000000
,
00000000
00000000
00000000
00000300
,
00000001
00000000
00000000
00000100
00000000
00000000
00002000
00000000
00000000
00000000
00003000
00000000
00010000
00000000
00000000
01000000
,
00000000
20000000
00000000
30000000
00100000
00100000
00100000
00000000
,
10000000
00000000
00000000
01000000
00000000
00000000
00020000
00000000
00000000
00000000
00000000
00000000
01030000
00000000
00000000
00010000
,
00000000
00002000
00000000
00000000
00000000
00000000
00003000
00000000
,
00010000
00000000
00000000
00001000
00000000
00000000
00000020
00000000
00000000
00000000
00000000
00000000
00001030
00000000
00000000
00000010
,
00000000
00000002
00000000
00000000
00000000
00000000
00000003
00000000
,
00000001
00000000
00000000
00000100
00000000
00000000
00002000
00000000
00000000
00000000
00000000
00000000
00003100
00000000
00000000
00001000
,
00000000
00020000
00000000
00000000
00000000
00000000
00030000
00000000
,
00001000
00000000
00000000
00010000
00000000
00000000
00200000
00000000
00000000
00000000
00000000
00000000
00310000
00000000
00000000
00100000
,
00000000
20000000
00000000
30010000
10000000
01000000
00010000
00001000
,
00200000
00000000
01000000
00000000
,
00010000
00000000
00000000
00000000
00301000
00010000
00000010
00001000
,
00000002
00000000
00000100
00000000
,
00001000
00000000
00000000
00000000
00000013
00000100
00010000
00001000
,
00200000
00010000
00302000
00010000
,
02003000
00010000
03001000
00011000
,
00010000
00000000
00000000
00000010
00000000
00000000
00001010
00000000
00000000
00000000
00000000
00000000
00001000
00000000
00000000
00000100
,
00000000
00000110
00000000
00000010
00000001
00000100
00001000
00010000
,
00011000
00000000
00000000
00011000
00000000
00000000
00011000
00000000
00000000
00000000
00001000
00000000
01000000
00000000
00000000
01100000
,
00000000
01100000
00000000
00000000
00000000
00000000
00000000
00000000
,
00100000
00000000
10000000
00100000
10000000
00000000
01000000
00000000
00100000
00000000
00001000
00000000
00010000
00000000
00001000
00010000
,
00001000
00000000
00010000
00000000
00000100
00000000
00001000
00000000
00000001
00000000
00000100
00000001
00000100
00000000
00000010
00000000
,
00001000
00000000
00000100
00000000
00000010
00000000
00000001
00000010
00000001
00000000
00000100
00000000
00000010
00000000
00001000
00000000
,
00000100
00000010
00001000
00010000
01000000
00100000
00001000
00010000
,
00200000
00000000
00000000
00000000
00000000
00000000
00000000
00000000
00000000
00000000
00000000
00000000
00300000
00000000
10000000
00010000
,
10000000
01000000
00010000
00001000
00100000
00010000
02000000
00000000
,
00010000
00100000
00010000
00001000
,
03010000
01000000
00001000
00010000
00000100
00000000
00000110
00000000
,
00000010
00000000
00000001
00000010
00000001
00000000
00001000
00000000
00000010
00000000
00010000
00000000
00001000
00000000
00100000
00001000
,
00100000
00000000
00010000
00000000
01000000
00000000
00100000
00000000
10000000
00000000
01000000
10000000
01000000
00000000
00010000
00000000
,
00001000
00000000
00100000
00000000
00010000
00000000
01000000
00000000
00001000
00000000
00010000
00001000
00010000
00000000
00000010
00000000
,
00001000
00000100
00000001
00000100
00001000
00000001
00000020
00000000
,
00000000
00000000
00000100
00000000
00000000
00000000
00000130
00000010
,
00000001
00000100
00001000
00010000
01000000
10000000
00200000
00000000
,
00000000
00000000
01000000
00000000
00000000
00000000
10300000
00100000
,
00020000
00000000
00031000
00010000
00001000
00000010
00000100
00000010
,
00000002
00000000
00000103
00001100
00000000
00001000
00011000
00000000
,
00010000
00210000
00000000
00000000
01000000
00000000
01000000
00000000
,
10000000
10000000
01000000
01300000
,
01100000
00000000
00100000
10100000
00000000
10000000
11000000
00000000
,
01000000
01010000
00000000
00010000
00002000
00000000
00100000
00000000
,
00100000
00000000
00013000
00001000
00010000
00000100
00001000
00000100
,
00000110
00000000
00000010
00000011
00000000
00000001
00000101
00000000
,
00000100
00002100
00000000
00000000
00010000
00000000
00010000
00000000
,
00100000
00000000
00000000
00000000
00100000
00000000
00000000
00000000
00013000
00000000
00001000
00010000
00001000
00000000
00010000
00000000
,
00011000
00000000
00001000
01001000
00000000
01000000
01010000
00000000
,
00010000
00210000
00000000
00000000
01000000
00000000
01300000
00010000
,
00012000
00000000
00000000
00100000
00000000
00000000
00010000
00000000
00000000
01003000
00001000
00010000
,
00000020
00000000
00000000
00000000
,
00000000
00000000
00000000
00000000
,
00000000
00000000
00000000
00000000
,
00000030
00000000
00000000
00000000
;

//--------------- dance-double - forcednature ----------------
#NOTEDATA:;
#STEPSTYPE:dance-double;
#DESCRIPTION:forcednature;
#DIFFICULTY:Hard;
#METER:17;
#RADARVALUES:0,0,0,0,0;
#CREDIT:forcednature;
#NOTES:
00000000
00000000
00000000
00000000
,
00000000
00000000
00000000
00000000
,
00000000
00000000
00000000
00000000
,
00000000
00000000
00000000
00000000
,
00000000
00000000
00000000
00000000
00000000
00000000
00000000
00000000
00000000
00000000
00000000
00000000
00000000
00000000
00001000
00010000
,
00001000
00000000
00000000
00001000
01000000
00000000
00020000
00000000
00000000
00000000
00000000
00000000
00130000
00000000
00010000
00100000
,
01000000
00000000
01100000
00000000
00000000
00000000
01000000
00010000
00002000
00000000
00000000
00000000
00000000
00000000
00000000
00000000
,
00000000
00000000
00000000
00000000
00003000
00000000
00010000
00001000
00010000
00000000
00000100
00001000
00000100
00000000
00001000
00000001
,
00000010
00000000
00000000
00000010
00000100
00000000
00020000
00000000
00000000
00000000
00000000
00000000
00031000
01000000
00010000
01000000
,
00100000
20010000
00000000
00000000
00000000
00000000
00000000
00000000
,
00000000
00000000
00000000
00000000
30000000
00000000
00000000
01000000
00100000
01000000
00100000
01000000
00100000
01000000
00100000
00010000
,
00100000
00000000
00000000
00100000
00001000
00000000
00021000
00000000
00000000
00000000
00030000
00000000
00000010
00001000
00000010
00000100
,
00000001
00000000
00002001
00000000
00000000
00000000
00000000
00000000
00000000
00000000
00000000
00000000
00000000
00000000
00003010
00010000
,
00002000
00000000
00000000
00000000
00000000
00000000
00000000
00000000
00000000
01003000
00010000
00100000
,
02000000
00000000
00000000
10000000
00000000
00000000
00100000
00000000
00000000
00000000
03000000
00000000
00000000
00000000
01020000
00000000
,
00000000
00032000
00000000
00000000
00003020
00000000
00000000
00000000
00000130
00000000
00001000
00000000
00000100
00000000
00010000
00001000
,
00100000
00000000
00000000
00100000
00010000
00000000
00000000
00010000
01000000
00000000
00100000
00000000
01100000
00000000
00000000
00000000
,
00011000
00000000
00001000
00000100
00000001
00000010
00001000
00000000
,
00011000
00000000
00010000
01000000
10000000
00100000
00010000
00000000
,
00011000
00000000
00001000
00000100
00000001
00000010
00000100
00020100
,
00000000
00000000
00031000
00000000
00100000
00000000
00120000
00000000
00000000
00000000
01030000
00000000
10000000
00000000
01000000
00010000
,
10000000
00200000
00010000
00000000
01300000
00001000
00011000
00010000
,
00000100
00002000
00000010
00000000
00003001
00000010
00000110
00000000
,
00020100
00000000
00001000
00000000
00130000
00110000
00000000
10100000
,
00000000
00000000
11000000
00000000
00000000
00000000
01010000
00000000
00000000
00000000
00011000
00000000
00010000
00000100
00001000
00000100
,
00000010
00000000
00000000
00000000
00000001
00000000
00000100
00000000
00000001
00000100
00001000
00000000
00020000
00000000
00000000
00000000
,
00130000
00000000
00000000
00000000
10000000
00000000
01000000
00000000
10000000
01000000
00010000
00000000
00002000
00000000
00000000
00000000
,
00003010
00000000
00000000
00000000
00000001
00000000
00000100
00000000
00000001
00000000
00000010
00000000
00001000
00010000
00000200
00000000
,
00000000
00000000
00001300
00000010
00010000
00001000
00010000
00000000
00000000
00000000
00100000
00000000
10000000
00000000
01000000
00000000
,
01100000
00000000
00000000
00000000
10000000
00000000
00100000
00000000
10000000
01000000
00010000
00000000
00002000
00000000
00000000
00000000
,
00003010
00000000
00000000
00000000
00000001
00000000
00000010
00000000
00000001
00000100
00001000
00000000
00020000
00000000
00000000
00000000
,
00100000
00000000
00000000
00000000
00031000
00010000
00000100
00000000
00001000
00000000
00000010
00000000
00000001
00000000
00000021
00000000
,
00000000
00000000
00000130
00000001
00001000
00000001
00000100
00000000
00000000
00000000
00001000
00000000
00011000
00000000
00010000
00100000
,
02000000
00000000
00000000
00000000
03010000
00000000
10000000
00000000
01000000
00000000
00010000
00000000
00001000
00000000
00100000
00010000
,
02000000
00000000
00000000
00000000
03001000
00000000
00010000
00000000
00000010
00000000
00010000
00000000
00001000
00000000
00000010
00000100
,
00002000
00000000
00003010
00000100
00001000
00010000
01000000
01100000
,
00000000
00000000
00100000
00000000
00001000
00000000
00011000
00000000
00000000
00000000
00010000
00001000
00010000
00000100
00001000
00000100
,
00000020
00000000
00000000
00000000
00000031
00001000
00000010
00000100
00000001
00000000
00000010
00000000
00000100
00000000
00010000
00001000
,
00200000
00000000
00000000
00000000
00010000
00000000
00000000
00000000
10000000
00000000
00000000
00000000
00310000
00000000
00100000
00001000
,
00020000
00000000
00100000
00000000
00031000
00010000
00000100
00000110
,
00000000
00000000
00000010
00000001
00000010
00000000
00000001
00000100
00000001
00000000
00000100
00001000
00010000
00000000
00001000
00000000
,
00011000
00000000
00000000
00010000
00100000
00000000
10000000
00000000
00100000
10000000
01000000
00000000
10000000
00000000
01000000
00010000
,
00001000
00000000
00010000
00000000
00001000
00100000
00010000
00000000
00100000
00001000
00010000
00000000
00000010
00001000
00000010
00000000
,
00000110
00000000
00000000
00000101
00000000
00000000
00000011
00000000
00000000
00000000
00000001
00000010
00000100
00000000
00000000
00010100
,
00000000
00000000
00202000
00000000
00000000
00000000
00303000
00000000
00100000
00010000
10000000
00010000
01000000
00000000
00100000
00000000
,
20000000
00000000
00000000
32000000
00000000
00000000
03020000
00000000
00000000
00000000
00000000
00000000
00032000
00000000
00000000
00003200
,
00000000
00000302
00000000
00000000
00000000
00000000
00000003
00000000
,
00000002
00000000
00000000
00000203
00000000
00000000
00002300
00000000
00000000
00000000
00000000
00000000
00023000
00000000
00000000
02030000
,
00000000
23000000
00000000
00000000
00000000
00000000
30000000
00000000
,
20000000
00000000
00000000
30200000
00000000
00000000
00320000
00000000
00000000
00000000
00000000
00000000
00032000
00000000
00000000
00003020
,
00000000
00000032
00000000
00000000
00000000
00000000
00000003
00000000
,
00000002
00000000
00000000
00000023
00000000
00000000
00002030
00000000
00000000
00000000
00000000
00000000
00023000
00000000
00000000
00230000
,
00000000
00000000
20300000
00000000
00000000
00000000
32000000
00000000
03020000
00000000
00031000
00010000
00001000
00000000
00010000
00000100
,
00001000
00000000
00001000
00000010
00000000
00000010
00000200
00000000
00000000
00000000
00000000
00000000
00000301
00000000
00000001
00000010
,
00000000
00000010
00000200
00000000
00000000
00000000
00010300
00001000
01000000
00000000
00000000
00000000
10010000
00000000
00000000
00000000
,
00010000
00000000
00010000
00100000
00000000
00100000
02000000
00000000
00000000
00000000
00000000
00000000
13000000
00000000
10000000
00100000
,
00000000
00100000
02000000
00000000
00000000
00000000
03001000
00010000
00000100
00000000
00000000
00000000
00000010
00000000
00001000
00000000
,
00010000
00000000
00010000
01000000
00000000
01000000
10000000
00000000
00100000
00000000
00010000
00000000
00001000
00000000
00001000
00000100
,
00000000
00000100
00000001
00000000
00000010
00000000
00001000
00010000
00002000
00000000
00000000
00000000
00103000
00000000
00000000
00000000
,
01001000
00000000
00000000
00011000
00000000
00000000
00101000
00000000
00000000
00000000
00100000
00001000
00010000
00000000
00000000
00011000
,
00000000
00000000
00010010
00000000
00000000
00000000
00000010
00000000
00001000
00000100
00001000
00000001
00000100
00000001
00001000
00000010
,
00010000
00000000
00000000
00011000
00000000
00000000
00101000
00000000
00000000
00000000
10000000
01000000
00010000
00000000
00000000
00011000
,
00000000
00000000
00010010
00000000
00000000
00000000
00000000
00000000
00000000
00000000
00000000
00000000
00000000
00000000
00010000
00001000
,
00000010
00000000
00000001
00000100
00001000
00000000
00010000
00000000
00000020
00000000
00010030
00000000
00100000
00000000
10000000
01000000
,
00010000
00000000
00001000
00000000
00200000
00000000
00301000
00000000
00000010
00000000
00000001
00000100
00001000
00000000
00010000
00000000
,
00000020
00000000
00010030
00000000
00100000
00000000
10000000
01000000
00010000
00000000
00001000
00000000
00200000
00000000
00310000
00000000
,
20000000
32000000
03200000
00320000
00032000
00003200
00000320
00000032
,
00000103
00000000
00000001
00000100
00000010
00000000
00000100
00000010
00010000
00000000
00001000
00010000
00000100
00000000
00001000
00000001
,
00000010
00000000
00000001
00000000
00000100
00000010
00000100
00000000
00001000
00000000
01000000
00010000
00200000
00000000
00000000
00000000
,
01000000
00000000
00000000
00000000
00010000
00000000
00010000
00000000
00300000
00000000
00001000
00010000
00001000
00000000
00010000
00000010
,
00001000
00000000
00000100
00010000
00001000
00000000
01000000
00000000
00010000
00000000
00100000
00001000
00020000
00000000
00000000
00000000
,
00130000
00000000
10000000
01000000
00010000
00000000
00001000
00000000
00200000
00000000
00301000
00000000
00000010
00000000
00000001
00000100
,
00001000
00000000
00010000
00000000
00000020
00000000
00010030
00000000
00100000
00000000
10000000
01000000
00010000
00000000
00001000
00000000
,
00000020
00000000
00000230
00000000
00020300
00000000
00030020
00000000
00000230
00000000
00001300
00010000
00100000
00000000
00010000
00100000
,
10000000
00000000
00100000
10000000
00010000
10000000
01000000
00000000
00100000
00001000
00010000
00000000
00012000
00000000
00000000
00000000
,
00003010
00000000
00000100
00000010
00000001
00000000
00001000
00000000
00000010
00000000
00010000
00001000
00100000
00000000
00010000
10000000
,
00100000
00000000
10000000
00000000
01000000
00010000
00001000
00000000
00010000
00000000
00000100
00001000
00000020
00000000
00000000
00000000
,
00000100
00000000
00000000
00000000
00000001
00000000
00000001
00000000
00000030
00000000
00000010
00000000
00001000
00000000
00000001
00000010
,
00000100
00000000
00001000
00000000
00000010
00000000
00010000
00001000
01000000
00010000
01000000
00001000
00010000
00001000
00100000
00010000
,
00100000
00000000
01000000
10000000
01000000
00100000
00010000
00000000
01000000
00010000
01000000
00001000
00010000
00000000
00000100
00001000
,
00000100
00000010
00000002
00000000
00000100
00000000
00000000
00000000
00000100
00000000
00000000
00000000
00001000
00000000
00000000
00000000
,
00000013
00000000
00000001
00000000
00000100
00000000
00001000
00000000
00010000
00000000
01000000
00000000
10000000
00000000
00100000
10000000
,
00010000
00000000
00100000
01000000
10000000
01000000
00100000
00000000
00010000
01000000
00001000
00010000
00001000
00000000
00010000
00000100
,
00001000
00000100
00000020
00000000
00000000
00000000
00001030
00010000
02000000
00000000
00000000
00000000
00100000
00000000
00000000
00000000
,
13000000
00000000
00100000
00000000
00010000
00000000
00100000
10000000
00010000
00000000
01000000
00010000
01000000
00001000
00010000
00001000
,
00100000
00000000
00010000
01000000
00001000
00010000
00001000
00000000
00010000
00000100
00001000
00000100
00000010
00000100
00000010
00000001
,
00001000
00001020
00001000
00000000
00000100
00000000
00000031
00000010
,
00010000
00000000
00001000
00000000
01000000
00000000
00010000
00100000
01000000
00100000
01000000
10000000
00010000
00100000
00001000
00010000
,
00001000
00000000
00010000
00001000
00010000
00000010
00001000
00000000
00000001
00000010
00000100
00000010
00000001
00000000
00001000
00000010
,
00010000
00001000
00020000
00000000
00000010
00000000
00000000
00000000
00001000
00000000
00000000
00000000
00030100
00000000
00010000
00001000
,
02000000
00000000
00000000
00010000
00000000
00000000
00100000
00000000
00000000
13000000
01000000
00010000
,
00200000
02300000
03020000
00032000
02003000
03002000
00023000
02030000
,
03200000
00302000
00003020
00000230
00002300
00003020
00000032
00000023
,
00000000
00000000
00000000
00000000
,
00000030
00000000
00000000
00000000
;
