#VERSION:0.83;
#TITLE:Lost Memories (nmk Eurobeat mix);
#SUBTITLE:;
#ARTIST:pocotan feat. nayuta;
#TITLETRANSLIT:;
#SUBTITLETRANSLIT:;
#ARTISTTRANSLIT:;
#GENRE:;
#CREDIT:;
#MUSIC:Lost Memories (nmk Eurobeat mix).ogg;
#BANNER:Lost Memories (nmk Eurobeat mix).png;
#BACKGROUND:Lost Memories (nmk Eurobeat mix)-bg.png;
#CDTITLE:;
#SAMPLESTART:95.478;
#SAMPLELENGTH:15.000;
#SELECTABLE:YES;
#OFFSET:1.334;
#BPMS:0.000=180.000
,355.000=180.150
,356.000=180.000
;
#STOPS:;
#TIMESIGNATURES:0.000=4=4;
#DISPLAYBPM:180.000;
#LASTBEATHINT:0.956697;
#BGCHANGES:0.000=../BGAs/05eu.mp4=1.000=0=0=0=StretchNoLoop====,
99999.000=-nosongbg-=1.000=0=0=0=StretchNoLoop====
;
#FGCHANGES:;

//--------------- dance-single - forcednature ----------------
#NOTEDATA:;
#STEPSTYPE:dance-single;
#DESCRIPTION:forcednature;
#DIFFICULTY:Beginner;
#METER:2;
#RADARVALUES:0.1955,0.291057,0.100134,0.013351,0,205,190,15,2,0,0,0.1955,0.291057,0.100134,0.013351,0,205,190,15,2,0,0;
#CREDIT:forcednature;
#NOTES:
0000
0000
0000
0000
,
0000
0000
0000
0000
,
0000
0000
0000
0000
,
0000
0000
0000
0000
,
0000
0000
0000
0000
,
1000
0000
0000
0000
,
0000
0000
0000
0000
,
0001
0000
0000
0000
,
0000
0000
0000
0000
,
0100
0000
0000
0000
,
0000
0000
0000
0000
,
0010
0000
0000
0000
,
0000
0000
0000
0000
,
1000
0000
0000
0000
,
0001
0000
0000
0000
,
0010
0000
0000
0000
,
0100
0000
0000
0000
,
1000
0000
0000
0000
,
0000
0000
0000
0000
,
0001
0000
0000
0000
,
0000
0000
0000
0000
,
0100
0000
0000
0000
,
0000
0000
0000
0000
,
0010
0000
0000
0000
,
0000
0000
0000
0000
,
1000
0000
0000
0000
,
0000
0000
0000
0000
,
0100
0000
0000
0000
,
0000
0000
0000
0000
,
0010
0000
0000
0000
,
0000
0000
0000
0000
,
0001
0000
0000
0000
,
0000
0000
0000
0000
,
1001
0000
0000
0000
,
0000
0000
0000
0000
,
0000
0000
0000
0000
,
0000
0000
0000
0000
,
1000
0000
0000
0000
,
0000
0000
0000
0000
,
0001
0000
0000
0000
,
0000
0000
0000
0000
,
1001
0000
0000
0000
,
1000
0000
0000
0000
,
0001
0000
0000
0000
,
0100
0000
0000
0000
,
0010
0000
0000
0000
,
1000
0000
0000
0000
,
0001
0000
0000
0000
,
1000
0000
0000
0000
,
1001
0000
0000
0000
,
0000
0000
0000
0000
,
0001
0000
0000
0000
,
0000
0000
0000
0000
,
0100
0000
0000
0000
,
0000
0000
0000
0000
,
0010
0000
0000
0000
,
1000
0000
0000
0000
,
0001
0000
0000
0000
,
0000
0000
0000
0000
,
0010
0000
0000
0000
,
0000
0000
0000
0000
,
0100
0000
0000
0000
,
0000
0000
0000
0000
,
1000
0000
0000
0000
,
0001
0000
0000
0000
,
0100
0000
0000
0000
,
0000
0000
0000
0000
,
0010
0000
0000
0000
,
1000
0000
0000
0000
,
0010
0000
0000
0000
,
0000
0000
0000
0000
,
0100
0000
0000
0000
,
0001
0000
0000
0000
,
0100
0000
0000
0000
,
0001
0000
0000
0000
,
1000
0000
0000
0000
,
0000
0000
0000
0000
,
0100
0000
0000
0000
,
0010
0000
0000
0000
,
0001
0000
0000
0000
,
0000
0000
0000
0000
,
1000
0000
0000
0000
,
0010
0000
0000
0000
,
0100
0000
0000
0000
,
0000
0000
0000
0000
,
0001
0000
0000
0000
,
0010
0000
0000
0000
,
0100
0000
0000
0000
,
1000
0000
0000
0000
,
1001
0000
0000
0000
,
0001
0000
0000
0000
,
0100
0000
0000
0000
,
0010
0000
0000
0000
,
1000
0000
0000
0000
,
0001
0000
0000
0000
,
0010
0000
0000
0000
,
0100
0000
0000
0000
,
1000
0000
0000
0000
,
0001
0000
0000
0000
,
0100
0000
0000
0000
,
0001
0000
0000
0000
,
0010
0000
0000
0000
,
0100
0000
0000
0000
,
1000
0000
0000
0000
,
0100
0000
0000
0000
,
2000
0000
0000
0000
,
3000
0000
0000
0000
,
0002
0000
0000
0000
,
0013
0000
0000
0000
;

//--------------- dance-single - forcednature ----------------
#NOTEDATA:;
#STEPSTYPE:dance-single;
#DESCRIPTION:forcednature;
#DIFFICULTY:Easy;
#METER:6;
#RADARVALUES:0.374788,0.472967,0.173566,0.060081,0,393,367,26,9,0,0,0.374788,0.472967,0.173566,0.060081,0,393,367,26,9,0,0;
#CREDIT:forcednature;
#NOTES:
0000
0000
0000
0000
,
0000
0000
0000
0000
,
0000
0000
0000
0000
,
0000
0000
0000
0000
,
0000
0000
0000
0000
,
1000
0000
1000
0000
,
0001
0000
0001
0000
,
0100
0000
0100
0000
,
0010
0000
0000
0000
0020
0000
0000
0030
,
1000
0000
0000
1000
0000
0000
1000
0000
,
0001
0000
0000
0001
0000
0000
0001
0000
,
0100
0000
0000
0100
0000
0000
0100
0000
,
0010
0000
0000
0010
0000
0000
0010
0000
,
1000
0100
1000
0010
,
0100
0001
0010
0001
,
0100
0100
0010
0010
,
2000
0000
3002
0003
,
0010
0000
0100
0000
,
1000
0000
0100
0000
,
0010
0001
0010
0002
,
0000
0000
0003
0000
,
0001
0000
0100
0000
,
0010
0000
1000
0000
,
0001
0010
0100
2000
,
0000
0000
3000
0000
,
1000
0000
0010
0000
,
0100
0000
0001
0000
,
0010
0100
0010
0100
,
2000
0000
3000
0000
,
0001
0000
0100
0000
,
0010
0000
1000
0000
,
0001
0000
0000
0010
0000
0000
0100
0000
,
2000
0000
0000
3000
,
2002
0000
0000
0000
,
0000
0000
0000
0000
,
0000
0000
0000
0000
,
0000
0000
3003
0000
,
0001
0001
0100
0001
,
1000
1000
0100
1000
,
0010
0010
1000
0001
,
0020
0000
0000
0130
,
0110
0000
0010
0001
,
1000
0010
0100
0001
,
1000
0000
0100
1000
,
0001
0100
0010
1000
,
0001
0000
0010
0100
,
1000
0001
0100
0010
,
1000
0000
0000
0000
0001
0000
0000
0010
,
0000
0010
0000
0100
0000
0100
0000
0000
,
0110
0000
1000
0000
,
0001
0100
0001
0000
,
0010
0000
0100
0000
,
1000
0001
1000
0000
,
1000
0000
0010
0000
,
0100
0001
0100
0000
,
0110
0000
1001
0000
,
0001
0000
0000
1000
0000
0000
0001
0000
,
1000
0000
0100
0000
,
0010
0001
0010
0000
,
0001
0000
0100
0000
,
0010
1000
0010
0000
,
0100
0000
0001
0000
,
1000
0100
1000
0000
,
0110
0000
0000
1001
0000
0000
0000
0000
,
0010
0000
0000
0010
0000
0000
0100
0000
,
0110
0000
1000
0001
,
0010
0000
0100
0000
,
0010
0000
0001
1000
,
0010
0000
0100
0000
,
0010
0000
1000
0001
,
0100
0010
1000
0001
,
0010
0000
0000
0100
0000
0000
1000
0000
,
0000
0001
0000
1001
,
1000
0001
0100
0000
,
0001
1000
0010
0000
,
1000
0100
0010
0001
,
0010
0100
1000
0000
,
0010
0100
0001
0000
,
0100
0010
1000
0000
,
0001
0010
0001
1000
,
0100
1000
0001
0000
,
1000
0010
0100
0000
,
0001
0100
0010
0000
,
1000
0100
0010
0001
,
0010
0100
1000
0000
,
0001
0010
1000
0000
,
1000
0010
0001
0000
,
0100
0000
0000
0010
0000
0000
0100
0000
,
0220
0000
0000
0330
,
1001
0000
1000
0001
,
0100
0010
1000
0001
,
0010
0000
0100
1000
,
0100
0010
0001
1000
,
0010
0000
0100
0001
,
1000
0100
1000
0001
,
0100
0000
0000
0000
0010
0000
0000
1000
,
0000
1000
0000
0001
0000
0001
0000
0000
,
1001
0000
1000
0100
,
1000
0001
0100
0010
,
1000
0000
0001
0010
,
0100
1000
0100
0010
,
0001
0000
0100
0010
,
1000
0001
0010
0100
,
0010
0000
0000
0000
0001
0000
0000
0100
,
0000
0100
0000
0010
0000
0010
0000
0000
,
2000
0000
0000
0000
0000
3000
0000
0000
,
0002
0000
0000
0000
0000
0003
0000
0000
,
0200
0000
0000
0000
0000
0300
0000
0000
,
2002
0000
0000
0000
,
3003
0000
0000
0000
;

//--------------- dance-single - forcednature ----------------
#NOTEDATA:;
#STEPSTYPE:dance-single;
#DESCRIPTION:forcednature;
#DIFFICULTY:Medium;
#METER:11;
#RADARVALUES:0.515929,0.618495,0.307078,0.21362,0.070094,541,495,46,32,0,0,0.515929,0.618495,0.307078,0.21362,0.070094,541,495,46,32,0,0;
#CREDIT:forcednature;
#NOTES:
0000
0000
0000
0000
,
0000
0000
0000
0000
,
0000
0000
0000
0000
,
0000
0000
0000
0000
,
0000
0000
0000
0000
,
1000
0100
1000
0100
,
0010
0001
0010
0001
,
0100
0010
0100
0010
,
1000
0001
0020
0030
,
0100
0000
0000
1000
0000
0000
0100
0000
0000
1000
0000
0000
0100
0000
0000
0000
,
0010
0000
0000
0001
0000
0000
0010
0000
0000
0001
0000
0000
0010
0000
0000
0000
,
0001
0000
0000
0100
0000
0000
0001
0000
0000
0100
0000
0000
0001
0000
0000
0000
,
1000
0000
0000
0010
0000
0000
1000
0000
0000
0010
0000
0000
1000
0000
0000
0000
,
0100
0010
0100
0000
0100
1000
0100
0000
,
0010
0001
0010
0000
0010
0100
0010
0000
,
0001
0100
0001
0000
1000
0010
1000
0000
,
0200
0001
0010
1300
,
0100
0000
0010
0000
0001
0000
0000
2000
,
0000
0000
3010
0000
0100
0000
0000
0100
,
0001
0000
0010
0000
0100
0000
0000
1000
,
0000
1000
0000
0001
0000
1000
0100
0000
,
0010
0000
0001
0000
0100
0000
0000
0002
,
0000
0000
0013
0000
0010
0100
0000
2000
,
0000
0000
3002
0000
0203
0000
0000
0320
,
0000
0000
0030
1000
,
0001
0000
0100
0000
0010
1000
0000
0002
,
0000
0000
1003
0000
0100
0010
0000
0000
,
0002
0203
0320
2030
,
3002
0000
0003
0010
,
0100
0000
1000
0000
0001
0100
0000
0020
,
0000
0000
1030
0000
0100
0010
0000
0010
,
0001
0000
0001
0100
0000
0010
1000
0000
,
2002
0000
3003
0000
,
1200
0000
0010
0000
,
1000
0000
0010
0000
,
0001
0000
0010
0000
,
0001
0000
0000
0000
0010
0000
0300
0010
,
0100
1000
0001
0100
,
0010
1000
0001
0010
,
0100
1000
0100
0000
0010
0001
0010
0001
,
2000
0010
3100
0011
,
1001
0000
0000
0000
1000
0000
0010
0000
1000
0000
0000
0001
0000
0000
0100
0000
,
0000
0010
0000
1000
0001
0000
0010
0000
,
0100
0000
0000
0000
1000
0000
0001
0000
1000
0000
0000
0010
0000
0000
0100
0000
,
0000
0001
0000
0010
0100
0000
1000
0000
,
0001
0000
0000
0000
0100
0000
0010
0000
0100
0000
0000
0001
0000
0000
1000
0000
,
0000
0010
0000
1000
0100
0000
0010
0000
,
0001
0000
0000
0000
1000
0000
0010
0000
1000
0000
0000
0001
0000
0000
0010
0000
,
0000
0110
0000
0100
0000
1001
0000
0000
,
1000
0000
0100
0000
0010
0001
0010
0000
,
0200
2300
3002
0003
,
0001
0000
0100
0000
0010
1000
0010
0000
,
0200
0302
2003
3000
,
0010
0000
0100
0000
0001
1000
0001
0000
,
0020
0230
2300
3010
,
0202
0303
2020
3030
,
1000
0000
0100
0001
0000
0100
0010
0000
,
1001
0000
0001
0000
0100
0000
0010
1000
,
0020
0230
0302
0003
,
0010
0000
0100
0000
0010
0000
0001
1000
,
0002
0203
0320
0030
,
1000
0000
0100
0000
1000
0000
0001
0100
,
0002
0023
0230
1300
,
2020
0000
0000
3030
0000
0000
0202
0000
0000
0303
0000
0000
1000
0000
0001
0000
,
2000
0000
0000
3020
0000
0000
0031
0000
,
0110
0000
0100
0000
0001
1000
0100
0000
,
0020
0001
0130
0010
,
0001
0000
0000
0000
1000
0000
0000
0000
0010
0000
0000
0100
0000
0000
0001
0000
,
2000
0000
0100
0000
3002
0000
0013
0001
,
1000
0010
0200
0302
,
0023
2030
3020
0032
,
0103
0000
0010
0010
0000
1000
0001
0000
,
0010
0000
0100
0000
1000
0001
1001
0000
,
0110
0000
0001
0000
0100
0010
0000
1000
,
0000
0001
0010
0000
0100
1000
0000
1000
,
0001
0100
0001
0000
1000
0100
1000
0000
,
0001
0010
0001
0000
1000
0010
1000
0000
,
0100
0000
0010
0000
0001
1000
0000
0010
,
0000
0100
0001
0000
1000
0100
0000
0010
,
0100
1000
0100
0000
0010
0001
0010
0000
,
0001
0100
0001
0001
1000
0000
0010
0000
,
1001
0000
1000
0000
0100
0010
0000
0001
,
0000
1000
0010
0000
0100
0001
0000
1000
,
0100
0010
0100
0000
1000
0001
1000
0000
,
0010
0100
0010
0000
1000
0001
1000
0000
,
0100
0000
0010
0000
0001
1000
0000
0010
,
0000
0100
0001
0000
0010
0100
0000
1000
,
0001
0000
0100
0010
0000
1000
0001
0000
,
2002
0000
0000
3003
,
0110
0000
0000
0000
0001
0000
0100
0000
0001
0000
0000
1000
0000
0000
0010
0000
,
0000
0100
0000
0001
1000
0000
0100
0000
,
0010
0000
0000
0000
0001
0000
1000
0000
0001
0000
0000
0010
0000
0000
0100
0000
,
0000
1000
0000
0001
0100
0000
0010
0000
,
1000
0000
0000
0000
0100
0000
0010
0000
0100
0000
0000
1000
0000
0000
0001
0000
,
0000
0100
0000
0010
1000
0000
0001
0000
,
0010
0000
0000
0000
0001
0000
0100
0000
0001
0000
0000
1000
0000
0000
0100
0000
,
0000
0010
0000
0110
0000
1001
0000
0000
,
0110
0000
0000
0000
1000
0000
1000
0000
1000
0000
0000
0001
0000
0000
0100
0000
,
0000
0010
0000
1000
0100
0000
0010
0000
,
0001
0000
0000
0000
0100
0000
0100
0000
0100
0000
0000
0010
0000
0000
1000
0000
,
0000
0001
0000
0010
0100
0000
1000
0000
,
0001
0000
0000
0000
0010
0000
0010
0000
0010
0000
0000
0001
0000
0000
1000
0000
,
0000
0010
0000
0100
0001
0000
1000
0000
,
0100
0000
0000
0000
0010
0000
0010
0000
0010
0000
0000
0001
0000
0000
1000
0000
,
0000
1001
0000
0001
0000
1001
0000
0000
,
2000
0000
0000
0100
0000
0000
3010
0000
,
0002
0000
0000
0100
0000
0000
0013
0000
,
1000
0000
0001
0100
0000
0010
1000
0000
,
2002
0000
0000
0000
,
3003
0000
0000
0000
;

//--------------- dance-single - forcednature ----------------
#NOTEDATA:;
#STEPSTYPE:dance-single;
#DESCRIPTION:forcednature;
#DIFFICULTY:Hard;
#METER:15;
#RADARVALUES:0.652303,0.764024,0.300403,0.186917,0.236984,684,639,45,28,0,0,0.652303,0.764024,0.300403,0.186917,0.236984,684,639,45,28,0,0;
#CREDIT:forcednature;
#NOTES:
0000
0000
0000
0000
,
0000
0000
0000
0000
,
0000
0000
0000
0000
,
0000
0000
0000
0000
,
0000
0000
0000
0000
,
0001
0100
0001
0100
,
0010
1000
0001
1000
,
0100
0100
0010
0010
,
0001
0000
0100
0020
1000
0000
1030
0000
,
0001
0010
0000
0001
0010
0000
0100
1000
0000
0100
1000
0000
0010
0000
0000
0000
,
1000
0010
0000
1000
0010
0000
0100
0001
0000
0100
0001
0000
0010
0000
0000
0000
,
0100
1000
0000
0001
0010
0000
0100
1000
0000
0001
0010
0000
0100
0000
0000
0000
,
1000
0010
0000
0100
0001
0000
1000
0010
0000
0100
0001
0000
1000
0000
0000
0000
,
0001
0010
0001
0100
0010
1000
0100
1000
,
0010
0100
0001
1000
0100
0010
0001
1000
,
0010
0010
0100
0100
0001
0001
1000
1000
,
0001
0010
0100
0000
1000
0100
1000
0000
0010
0000
0000
0010
0100
0000
0000
0000
,
0110
0000
0100
0001
1000
0001
0000
2000
,
0000
0000
3010
0100
0001
0100
0000
0100
,
0001
0010
0001
0010
0100
2000
0000
0010
,
0000
0010
0000
0010
0000
3010
1000
0100
,
0010
0001
1000
0001
0100
0001
0000
0020
,
0000
0100
0130
0010
0001
1000
0000
1000
,
0010
0100
0001
0100
0010
0000
1000
0002
,
0000
0010
0000
0010
0003
0001
1000
0001
,
0100
0010
1000
0001
0010
0100
0000
0110
,
0000
0010
0001
1000
0010
0100
0000
0001
,
0010
0100
0001
0100
1000
0001
0010
0001
,
0200
1000
0000
1000
0000
1300
0100
0010
,
0100
0001
1000
0001
0010
0100
0000
1200
,
0000
0010
0310
0100
1000
0001
0000
0100
,
0010
1000
0001
0020
0000
0130
1000
0001
,
0200
0000
0000
0300
,
2001
0100
0001
0010
,
0001
0100
3001
1000
,
0002
0100
1000
0010
,
1000
0000
0100
0000
1003
0000
0001
0010
,
0010
0100
1000
0100
0010
0001
1000
0000
,
1000
0010
0100
0001
0100
0010
1000
0000
,
0001
0000
0100
0000
0010
0000
1000
0000
0100
0000
0010
0000
0001
1000
0001
1000
,
0020
0000
0100
0000
1030
1000
1001
0000
,
1001
0000
0000
0000
0001
0100
0001
0100
0001
0000
0000
0010
0000
0000
2100
0000
,
0000
0000
3010
0000
0000
0000
1000
0001
1000
0000
0010
0000
0100
0000
0010
0000
,
0001
0000
0000
0000
0010
1000
0010
1000
0010
0000
0000
0100
0000
0000
0102
0000
,
0000
0000
0013
0000
0000
0000
0001
1000
0100
0000
0010
0000
0100
0000
0010
0000
,
0110
0000
0000
0000
0001
0100
0001
0100
0001
0000
0000
0010
0000
0000
0210
0000
,
0000
0000
1300
0000
0000
0000
0001
0100
0001
0000
1000
0000
0100
0000
0010
0000
,
0001
0000
0000
0000
1000
0010
1000
0010
1000
0000
0100
1000
0000
0000
0011
0000
,
0000
1010
0000
0110
0000
2002
0000
3003
,
0110
0000
1000
0100
0001
0100
0010
0001
,
1000
0010
0100
0001
0010
0100
0010
0001
,
0100
0000
0010
1000
0001
0010
0001
1000
,
0010
0100
1000
0100
0001
1000
0010
0100
,
0001
0000
0010
0100
0001
0100
0010
0001
,
1000
0001
0100
1000
0100
0010
1000
0000
,
0201
1300
1020
0031
,
0010
0000
0100
0000
0000
0000
1001
0000
0000
0000
0100
0010
0100
0000
0000
0000
,
1001
0000
0001
0010
0100
1000
0010
0001
,
0010
1000
0001
0010
0100
1000
0010
0100
,
0001
0000
0010
0100
1000
0010
0001
0010
,
0100
0001
0010
0001
0100
1000
0100
0010
,
1000
0000
0001
0010
0100
0001
0100
0010
,
0001
1000
0010
0001
0010
1000
0100
0000
,
0110
0000
0010
0001
0100
1000
0100
0100
,
0110
0000
0000
0000
0010
0000
1001
0000
0000
0000
1000
0100
1000
0100
0010
0000
,
0021
0000
0031
0100
0010
1000
0001
0000
,
0201
0000
1300
0100
0001
1000
0010
0000
,
0210
0000
0000
0000
0310
0000
1000
0000
0002
0000
0000
0010
0000
0000
0103
0000
,
1020
0000
0031
0000
1200
0000
0301
0001
,
1002
0000
0013
0100
0002
0000
2003
0000
,
3010
0001
1000
0010
0001
0010
0100
0001
,
1000
0001
1000
0001
0010
0000
0110
0000
0000
0000
0100
0000
0010
0000
1001
0000
,
0000
0000
1000
0000
0010
1000
0100
0010
0001
0000
0100
0000
1001
0000
0000
0000
,
0001
0100
1000
0100
0010
1000
0000
1200
,
0000
0301
0100
0010
0001
0100
0000
0010
,
1000
0100
0001
0100
1000
0010
1000
0100
,
0001
0100
1000
0010
1000
0100
0001
0001
,
0100
0010
0001
0100
0010
1000
0000
0201
,
0000
1300
0100
0001
0010
0100
0000
1000
,
0010
0100
1000
0100
0001
0010
0001
0100
,
1000
0000
0100
0000
0001
0000
0001
0000
0001
0000
0010
0100
0010
0100
1000
0000
,
0001
0010
1000
0010
0001
1000
0000
0012
,
0000
0103
1000
0100
0001
1000
0000
0100
,
0001
0100
0010
1000
0010
0100
0001
0100
,
0010
1000
0010
0001
1000
0001
0100
0100
,
0010
0001
0010
1000
0001
0010
0000
1200
,
0000
0301
0100
1000
0001
0010
0000
0001
,
0100
1000
0100
0110
0000
0010
0110
0100
,
2002
0000
0000
3003
,
1000
0000
0100
0000
0010
0001
0010
0001
2000
0000
0000
0010
0000
0000
3100
0000
,
1000
0000
0010
0000
0100
0000
0001
0010
0001
0000
0100
0000
0010
0000
1000
0000
,
0001
0000
0010
0000
0100
1000
0100
1000
0002
0000
0000
0100
0000
0000
0013
0000
,
0001
0000
0100
0000
0010
0000
1000
0001
1000
0000
0100
0000
0010
0000
0100
0000
,
0110
0000
0010
0000
0001
1000
0001
1000
0020
0000
0000
0100
0000
0000
0031
0000
,
0010
0000
0100
0000
0001
0000
1000
0010
1000
0000
0100
0000
0001
0000
0100
0000
,
0010
0000
0001
0000
1000
0010
1000
0010
0100
0000
0001
0010
0000
0000
1100
0000
,
0000
0000
0101
0000
0000
0000
0110
0000
0000
0000
1000
0100
0010
0001
1000
0000
,
1001
0000
0001
0000
0100
0001
1000
0010
1000
0000
0000
1000
0010
0000
0100
0000
,
0001
0000
0010
0000
0100
0000
1000
0001
0100
0000
0010
0000
1000
0000
0001
0000
,
0010
0000
0100
0000
1000
0100
0010
0100
1000
0000
0000
1000
0001
0000
0100
0000
,
0010
0000
0001
0000
0010
0000
0010
1000
0001
0000
0100
0000
1000
0000
0100
0000
,
0110
0000
0010
0000
1000
0001
0010
0100
1000
0000
0000
1000
0010
0000
0100
0000
,
1000
0000
0100
0000
0001
0000
0010
0100
0010
0000
1000
0000
0010
0000
0001
0000
,
1000
0000
0010
0000
0100
0001
1000
0001
0010
0000
0100
1000
0000
0000
1010
0000
,
0000
0011
0000
0110
0000
2002
0000
3003
,
1000
0000
0100
0000
1000
0000
0010
0000
0000
0000
0010
0000
0100
0000
0001
1000
,
0001
0000
0100
0000
0001
0000
0010
0000
0000
0000
0010
0000
0100
0000
1000
0001
,
2000
3020
0230
0302
0000
0023
0230
0300
,
2002
0000
0000
0000
,
3003
0000
0000
0000
;

//--------------- dance-double - forcednature ----------------
#NOTEDATA:;
#STEPSTYPE:dance-double;
#DESCRIPTION:forcednature;
#DIFFICULTY:Easy;
#METER:6;
#RADARVALUES:0,0,0,0,0;
#CREDIT:forcednature;
#NOTES:
00000000
00000000
00000000
00000000
,
00000000
00000000
00000000
00000000
,
00000000
00000000
00000000
00000000
,
00000000
00000000
00000000
00000000
,
00000000
00000000
00000000
00000000
,
00001000
00000000
00001000
00000000
,
00010000
00000000
00010000
00000000
,
00000100
00000000
00000100
00000000
,
00001000
00000000
00000000
00000000
00002000
00000000
00000000
00003000
,
00000001
00000000
00000000
00000001
00000000
00000000
00000001
00000000
,
00000100
00000000
00000000
00000100
00000000
00000000
00000100
00000000
,
00000010
00000000
00000000
00000010
00000000
00000000
00000010
00000000
,
00010000
00000000
00000000
00010000
00000000
00000000
00010000
00000000
,
00001000
00100000
00001000
01000000
,
00010000
10000000
01000000
10000000
,
00100000
00100000
01000000
01000000
,
00002000
00000000
00023000
00030000
,
00000100
00000000
00001000
00000000
,
00000100
00000000
00000010
00000000
,
00000001
00000100
00000001
00000200
,
00000000
00000000
00000300
00000000
,
00000010
00000000
00010000
00000000
,
00001000
00000000
01000000
00000000
,
00010000
00100000
01000000
20000000
,
00000000
00000000
30000000
00000000
,
10000000
00000000
00100000
00000000
,
01000000
00000000
00010000
00000000
,
00100000
00001000
00100000
00001000
,
00020000
00000000
00030000
00000000
,
00000010
00000000
00001000
00000000
,
00000100
00000000
00001000
00000000
,
00000001
00000000
00000000
00000100
00000000
00000000
00000010
00000000
,
00020000
00000000
00000000
00030000
,
00022000
00000000
00000000
00000000
,
00000000
00000000
00000000
00000000
,
00000000
00000000
00000000
00000000
,
00000000
00000000
00033000
00000000
,
00010000
00010000
00001000
01000000
,
00010000
00010000
10000000
01000000
,
00100000
00100000
00001000
00010000
,
00000020
00000000
00000000
00000130
,
00000110
00000000
00000001
00001000
,
00000100
00000010
00000100
00010000
,
00001000
00000000
01000000
00010000
,
10000000
00010000
00100000
00001000
,
00010000
00000000
00000010
00001000
,
00000001
00000010
00000100
00001000
,
00000010
00000000
00000000
00000000
00010000
00000000
00000000
00001000
,
00000000
00001000
00000000
00100000
00000000
00100000
00000000
00000000
,
01100000
00000000
01000000
00000000
,
10000000
00010000
10000000
00000000
,
00100000
00000000
01000000
00000000
,
00001000
00010000
00001000
00000000
,
00100000
00000000
00001000
00000000
,
00010000
00000100
00010000
00000000
,
00011000
00000000
00000110
00000000
,
00000001
00000000
00000000
00001000
00000000
00000000
00000001
00000000
,
00001000
00000000
00000010
00000000
,
00010000
00001000
00010000
00000000
,
00100000
00000000
01000000
00000000
,
00010000
10000000
00010000
00000000
,
00100000
00000000
00001000
00000000
,
00010000
00000010
00010000
00000000
,
00000100
00000000
00000000
00000110
00000000
00000000
00000000
00000000
,
00000010
00000000
00000000
00000010
00000000
00000000
00000001
00000000
,
00001000
00000000
00000010
00010000
,
00001000
00000000
00100000
00000000
,
00010000
00000000
10000000
00100000
,
01000000
00000000
00001000
00000000
,
00010000
00000000
00000100
00001000
,
00000010
00001000
00000001
00000010
,
00000001
00000000
00000000
00000001
00000000
00000000
00000100
00000000
,
00000000
00001000
00000000
00010000
,
00011000
00000000
00001000
01000000
,
00010000
00100000
01000000
10000000
,
01000000
00100000
00010000
01000000
,
00001000
00010000
00000010
00010000
,
00001000
00000000
01000000
00010000
,
00100000
00001000
00010000
00000010
,
00001000
00000100
00000010
00000001
,
00000100
00000010
00010000
00000000
,
00011000
00000000
00001000
00100000
,
00010000
01000000
00100000
10000000
,
00010000
00100000
00001000
00010000
,
00000010
00001000
00000100
00000010
,
00000001
00000000
00000100
00000010
,
00000100
00000001
00001000
00000100
,
00010000
00000000
00000000
00001000
00000000
00000000
00010000
00000000
,
00002000
00000000
00000000
00003000
,
00011000
00000000
01000000
00010000
,
01000000
00100000
10000000
01000000
,
00100000
00000000
00010000
01000000
,
00001000
00010000
00000100
00001000
,
00000010
00000000
00000100
00000001
,
00000010
00000001
00000100
00000010
,
00001000
00000000
00000000
00000000
00000100
00000000
00000000
00010000
,
00000000
00010000
00000000
00001000
00000000
00001000
00000000
00000000
,
00011000
00000000
01000000
00010000
,
10000000
00010000
00100000
00001000
,
00010000
00000000
00000010
00001000
,
00000100
00000010
00000001
00000100
,
00000010
00000000
00001000
00000100
,
00010000
00001000
01000000
00010000
,
00100000
00000000
00000000
00000000
01000000
00000000
00000000
10000000
,
00000000
10000000
00000000
00010000
00000000
00010000
00000000
00000000
,
02000000
00000000
00000000
00000000
00000000
03000000
00000000
00000000
,
00002000
00000000
00000000
00000000
00000000
00003000
00000000
00000000
,
00020000
00000000
00000000
00000000
00000000
00030000
00000000
00000000
,
00022000
00000000
00000000
00000000
,
00033000
00000000
00000000
00000000
;

//--------------- dance-double - forcednature ----------------
#NOTEDATA:;
#STEPSTYPE:dance-double;
#DESCRIPTION:forcednature;
#DIFFICULTY:Medium;
#METER:11;
#RADARVALUES:0,0,0,0,0;
#CREDIT:forcednature;
#NOTES:
00000000
00000000
00000000
00000000
,
00000000
00000000
00000000
00000000
,
00000000
00000000
00000000
00000000
,
00000000
00000000
00000000
00000000
,
00000000
00000000
00000000
00000000
,
00001000
00000000
00001000
00000000
,
01000000
00000000
01000000
00000000
,
00010000
00000000
00010000
00000000
,
00100000
00000000
02000000
03000000
,
10000000
00000000
00000000
01000000
00000000
00000000
10000000
00000000
00000000
01000000
00000000
00000000
10000000
00000000
00000000
00000000
,
00010000
00000000
00000000
00100000
00000000
00000000
00010000
00000000
00000000
00100000
00000000
00000000
00010000
00000000
00000000
00000000
,
01000000
00000000
00000000
00001000
00000000
00000000
01000000
00000000
00000000
00001000
00000000
00000000
01000000
00000000
00000000
00000000
,
00000100
00000000
00000000
00010000
00000000
00000000
00000100
00000000
00000000
00010000
00000000
00000000
00000100
00000000
00000000
00000000
,
00001000
00000010
00001000
00000000
00001000
00000100
00001000
00000000
,
00000001
00000010
00000001
00000000
00000001
00000100
00000001
00000000
,
00001000
00000100
00010000
00000000
00001000
01000000
00010000
00000000
,
00200000
01000000
00010000
00301000
,
00100000
00000000
00010000
00000000
10000000
00000000
00000000
00200000
,
00000000
00000000
01300000
00000000
00001000
00000000
00000000
00001000
,
00010000
00000000
00000100
00000000
00001000
00000000
00000000
00000010
,
00000000
00000010
00000000
00000100
00000000
00000010
00001000
00000000
,
00000001
00000000
00000010
00000000
00000001
00000000
00000000
00000200
,
00000000
00000000
00000310
00000000
00000010
00001000
00000000
00000200
,
00000000
00000000
00020300
00000000
00032000
00000000
00000000
00203000
,
00000000
00000000
00300000
00010000
,
01000000
00000000
00010000
00000000
10000000
01000000
00000000
00200000
,
00000000
00000000
00301000
00000000
00010000
00000010
00000000
00000000
,
00002000
00003200
00020300
00032000
,
02003000
00000000
03000000
00010000
,
00100000
00000000
00010000
00000000
10000000
00100000
00000000
02000000
,
00000000
00000000
03001000
00000000
00010000
00000100
00000000
00000100
,
00001000
00000000
00001000
00000010
00000000
00000100
00000001
00000000
,
00002002
00000000
00003003
00000000
,
00020100
00000000
00001000
00000000
,
00000010
00000000
00001000
00000000
,
00000100
00000000
00001000
00000000
,
00000010
00000000
00000000
00000000
00001000
00000000
00030000
00001000
,
00010000
00001000
01000000
00010000
,
01000000
00100000
10000000
00100000
,
01000000
00010000
01000000
00000000
00001000
00010000
00001000
00010000
,
00000200
00001000
00000310
00000110
,
00001001
00000000
00000000
00000000
00001000
00000000
00000100
00000000
00001000
00000000
00000000
00000010
00000000
00000000
00010000
00000000
,
00000000
00001000
00000000
00100000
00010000
00000000
01000000
00000000
,
00100000
00000000
00000000
00000000
10000000
00000000
00010000
00000000
10000000
00000000
00000000
01000000
00000000
00000000
00100000
00000000
,
00000000
00001000
00000000
00010000
00000010
00000000
00001000
00000000
,
00000001
00000000
00000000
00000000
00000010
00000000
00000100
00000000
00000010
00000000
00000000
00000001
00000000
00000000
00001000
00000000
,
00000000
00000010
00000000
00010000
00001000
00000000
00100000
00000000
,
00010000
00000000
00000000
00000000
10000000
00000000
00100000
00000000
10000000
00000000
00000000
00010000
00000000
00000000
00100000
00000000
,
00000000
01000000
00000000
00010000
00000000
00011000
00000000
00000000
,
00000100
00000000
00001000
00000000
00000010
00000100
00000010
00000000
,
00002000
00003002
00000023
00000030
,
00000100
00000000
00010000
00000000
00001000
01000000
00001000
00000000
,
00200000
00320000
20030000
30000000
,
00100000
00000000
01000000
00000000
00001000
00010000
00001000
00000000
,
00200000
00320000
02030000
03001000
,
00020200
00030300
02002000
03003000
,
00001000
00000000
00010000
00000100
00000000
00001000
00000100
00000000
,
00000110
00000000
00000010
00000000
00000001
00000000
00001000
00000010
,
00002000
00003200
00020300
00030000
,
00001000
00000000
01000000
00000000
00010000
00000000
10000000
01000000
,
20000000
30020000
02030000
03000000
,
00001000
00000000
00010000
00000000
00000100
00000000
00001000
00000010
,
00002000
00003002
00000023
00000130
,
00020200
00000000
00000000
00030300
00000000
00000000
00202000
00000000
00000000
00303000
00000000
00000000
10000000
00000000
00010000
00000000
,
20000000
00000000
00000000
30200000
00000000
00000000
00310000
00000000
,
00011000
00000000
00001000
00000000
00000010
00000100
00000010
00000000
,
00000002
00000100
00001003
00000001
,
00000010
00000000
00000000
00000000
00000100
00000000
00000000
00000000
00010000
00000000
00000000
00001000
00000000
00000000
01000000
00000000
,
00020000
00000000
00100000
00000000
20030000
00000000
31000000
10000000
,
00010000
01000000
00002000
00023000
,
00030200
00000320
00000032
00000203
,
00001300
00000000
00010000
00010000
00000000
01000000
00100000
00000000
,
00010000
00000000
10000000
00000000
00100000
01000000
01100000
00000000
,
10010000
00000000
00010000
00000000
01000000
00001000
00000000
00010000
,
00000000
00000100
00001000
00000000
00000010
00000100
00000000
00000100
,
00000001
00000010
00000001
00000000
00001000
00000010
00001000
00000000
,
00000100
00010000
00000100
00000000
00010000
00001000
00010000
00000000
,
00100000
00000000
01000000
00000000
00010000
00100000
00000000
01000000
,
00000000
10000000
01000000
00000000
00010000
00001000
00000000
00100000
,
00010000
00100000
00001000
00000000
00010000
00000010
00010000
00000000
,
00000100
00001000
00000100
00000100
00000010
00000000
00000001
00000000
,
00001001
00000000
00001000
00000000
00000010
00010000
00000000
00001000
,
00000000
00100000
00010000
00000000
01000000
00010000
00000000
10000000
,
01000000
00100000
01000000
00000000
00010000
00001000
00010000
00000000
,
00000010
00001000
00000010
00000000
00000100
00000001
00000100
00000000
,
00001000
00000000
00010000
00000000
01000000
00100000
00000000
00010000
,
00000000
10000000
00100000
00000000
10000000
01000000
00000000
00010000
,
00001000
00000000
00000100
00000001
00000000
00000010
00000100
00000000
,
00002002
00000000
00000000
00003003
,
00000110
00000000
00000000
00000000
00001000
00000000
00000100
00000000
00010000
00000000
00000000
00001000
00000000
00000000
01000000
00000000
,
00000000
00010000
00000000
00100000
01000000
00000000
00100000
00000000
,
00001000
00000000
00000000
00000000
00010000
00000000
00000100
00000000
00010000
00000000
00000000
00001000
00000000
00000000
00000010
00000000
,
00000000
00000100
00000000
00001000
00000001
00000000
00000100
00000000
,
00001000
00000000
00000000
00000000
01000000
00000000
00010000
00000000
01000000
00000000
00000000
00100000
00000000
00000000
10000000
00000000
,
00000000
00010000
00000000
00100000
00001000
00000000
00010000
00000000
,
00000010
00000000
00000000
00000000
00001000
00000000
00000100
00000000
00001000
00000000
00000000
00000010
00000000
00000000
00000100
00000000
,
00000000
00000001
00000000
00001001
00000000
00000110
00000000
00000000
,
00001001
00000000
00000000
00000000
00001000
00000000
00001000
00000000
00001000
00000000
00000000
00000100
00000000
00000000
00010000
00000000
,
00000000
00001000
00000000
01000000
00010000
00000000
00100000
00000000
,
01000000
00000000
00000000
00000000
10000000
00000000
10000000
00000000
10000000
00000000
00000000
00100000
00000000
00000000
01000000
00000000
,
00000000
00001000
00000000
00010000
00000100
00000000
00000010
00000000
,
00000001
00000000
00000000
00000000
00000100
00000000
00000100
00000000
00000100
00000000
00000000
00000010
00000000
00000000
00010000
00000000
,
00000000
00001000
00000000
00100000
01000000
00000000
10000000
00000000
,
00010000
00000000
00000000
00000000
01000000
00000000
01000000
00000000
01000000
00000000
00000000
00001000
00000000
00000000
00010000
00000000
,
00000000
00010100
00000000
00001000
00000000
01001000
00000000
00000000
,
00002000
00000000
00000000
01000000
00000000
00000000
00103000
00000000
,
00020000
00000000
00000000
00000100
00000000
00000000
00030010
00000000
,
00010000
00000000
00001000
01000000
00000000
00010000
00100000
00000000
,
02200000
00000000
00000000
00000000
,
03300000
00000000
00000000
00000000
;

//--------------- dance-double - forcednature ----------------
#NOTEDATA:;
#STEPSTYPE:dance-double;
#DESCRIPTION:forcednature;
#DIFFICULTY:Hard;
#METER:15;
#RADARVALUES:0,0,0,0,0;
#CREDIT:forcednature;
#NOTES:
00000000
00000000
00000000
00000000
,
00000000
00000000
00000000
00000000
,
00000000
00000000
00000000
00000000
,
00000000
00000000
00000000
00000000
,
00000000
00000000
00000000
00000000
,
00001000
01000000
00001000
01000000
,
00010000
00100000
00010000
00100000
,
01000000
01000000
10000000
10000000
,
00010000
00000000
01000000
00002000
00010000
00000000
00013000
00000000
,
00000100
00001000
00000000
00000100
00000010
00000000
00000001
00000010
00000000
00000001
00001000
00000000
00000010
00000000
00000000
00000000
,
00010000
00001000
00000000
00100000
00001000
00000000
00100000
00010000
00000000
01000000
00010000
00000000
00100000
00000000
00000000
00000000
,
01000000
10000000
00000000
01000000
00100000
00000000
00010000
00100000
00000000
00001000
00010000
00000000
00000010
00000000
00000000
00000000
,
00001000
00000100
00000000
00010000
00001000
00000000
01000000
00010000
00000000
00100000
01000000
00000000
10000000
00000000
00000000
00000000
,
00010000
01000000
00100000
10000000
01000000
00100000
00001000
00010000
,
00000010
00001000
00000100
00000010
00000001
00001000
00000010
00010000
,
00001000
00001000
00100000
00100000
00010000
00010000
10000000
10000000
,
00100000
01000000
00010000
00000000
00100000
00010000
00100000
00000000
00001000
00000000
00000000
00001000
00010000
00000000
00000000
00000000
,
00010100
00000000
00000100
00001000
00000010
00001000
00000000
00000002
,
00000000
00000000
00000013
00000100
00001000
00000100
00000000
00000100
,
00010000
00001000
00010000
00001000
00100000
00020000
00000000
01000000
,
00000000
01000000
00000000
01000000
00000000
01030000
00010000
01000000
,
00100000
10000000
00010000
00100000
00001000
00010000
00000000
00000020
,
00000000
00001000
00001030
00000010
00000100
00000001
00000000
00000001
,
00000010
00000100
00010000
00001000
00100000
00000000
00010000
02000000
,
00000000
00100000
00000000
03100000
00000000
01000000
00010000
10000000
,
00010000
00100000
00010000
01000000
00001000
00010000
00000000
00010100
,
00000000
00000100
00001000
00000010
00000100
00000001
00000000
00000001
,
00000010
00000100
00000001
00000100
00001000
00000010
00010000
00001000
,
00200000
00010000
00000000
00010000
00000000
00310000
00100000
01000000
,
00100000
00001000
00010000
00100000
01000000
00100000
00000000
20100000
,
00000000
01000000
31000000
10000000
00010000
01000000
00000000
00001000
,
00010000
00000100
00000010
00000002
00000000
00000103
00001000
00010000
,
00200000
00000000
00000000
00300000
,
10020000
00000000
01000000
00000000
,
10000000
00000000
01030000
00000000
,
00002000
00000000
00010000
00000000
,
00100000
00000000
00000000
00000000
00013000
00000000
00000000
00001000
,
00001000
00010000
00000100
00000000
00001000
00000010
00010000
00000000
,
00001000
00100000
00010000
00000000
01000000
00010000
10000000
00000000
,
01000000
00000000
00100000
00000000
00001000
00000000
00010000
00000000
00000010
00000000
00000100
00000000
00000001
00001000
00000001
00001000
,
00000200
00000000
00000010
00000000
00001300
00000001
00001001
00000000
,
00010100
00000000
00000000
00000000
00010000
00001000
00010000
00001000
00100000
00000000
00000000
00010000
00000000
00000000
02010000
00000000
,
00000000
00000000
03100000
00000000
00000000
00000000
10000000
00010000
10000000
00000000
00100000
00000000
01000000
00000000
00010000
00000000
,
00100000
00000000
00000000
00000000
00001000
00010000
00001000
00010000
00000010
00000000
00000000
00001000
00000000
00000000
00000102
00000000
,
00000000
00000000
00000013
00000000
00000000
00000000
00000001
00001000
00000100
00000000
00010000
00000000
00001000
00000000
00010000
00000000
,
00101000
00000000
00000000
00000000
00010000
01000000
00010000
01000000
00100000
00000000
00000000
10000000
00000000
00000000
12000000
00000000
,
00000000
00000000
03100000
00000000
00000000
00000000
00010000
01000000
00010000
00000000
00100000
00000000
00001000
00000000
00010000
00000000
,
00000010
00000000
00000000
00000000
00001000
00000100
00001000
00000100
00000010
00000000
00000001
00000010
00000000
00000000
00000110
00000000
,
00000000
00010100
00000000
01001000
00000000
02200000
00000000
03300000
,
10010000
00000000
10000000
01000000
00010000
01000000
00100000
00001000
,
00010000
00000010
00000100
00001000
00000100
00000001
00000010
00000100
,
00000010
00000000
00000001
00000100
00000001
00000010
00001000
00010000
,
00001000
00100000
00010000
01000000
00001000
00010000
00100000
01000000
,
00100000
00000000
10000000
01000000
00010000
00001000
00100000
00010000
,
01000000
00001000
00010000
00000100
00001000
00000010
00000100
00000000
,
00000201
00001300
00021000
01030000
,
00100000
00000000
00100000
00000000
00000000
00000000
10010000
00000000
00000000
00000000
01000000
00100000
01000000
00000000
00000000
00000000
,
00011000
00000000
00000100
00001000
00000010
00000100
00001000
00000100
,
00000001
00001000
00000010
00010000
00001000
00100000
01000000
00100000
,
00010000
00000000
01000000
10000000
01000000
00010000
00100000
01000000
,
00010000
00001000
00000100
00000010
00001000
00000100
00000001
00000100
,
00000010
00000000
00000001
00000100
00001000
00010000
01000000
00100000
,
01000000
00010000
00001000
00100000
00010000
01000000
00100000
00000000
,
01100000
00000000
01000000
10000000
01000000
00010000
00100000
00100000
,
00101000
00000000
00000000
00000000
00001000
00000000
00010010
00000000
00000000
00000000
00000010
00001000
00000010
00001000
00000001
00000000
,
00000021
00000000
00000130
00010000
00001000
01000000
00100000
00000000
,
20100000
00000000
31000000
00010000
00001000
00100000
00010000
00000000
,
01002000
00000000
00000000
00000000
00103000
00000000
00001000
00000000
00020000
00000000
00000000
00000010
00000000
00000000
00031000
00000000
,
00010200
00000000
00001300
00000000
00020010
00000000
00031000
00001000
,
00201000
00000000
01300000
00100000
00002000
00000000
00023000
00000000
,
00130000
01000000
00010000
00100000
01000000
00010000
00001000
00000010
,
00000100
00001000
00000100
00001000
00000001
00000000
00001001
00000000
00000000
00000000
00000100
00000000
00000010
00000000
00001001
00000000
,
00000000
00000000
00000001
00000000
00000100
00000001
00000100
00000010
00001000
00000000
00000100
00000000
00010100
00000000
00000000
00000000
,
00010000
00001000
00010000
00100000
01000000
00010000
00000000
00210000
,
00000000
01300000
00010000
00001000
00000100
00000010
00000000
00000100
,
00001000
00000100
00000001
00000010
00000100
00010000
00001000
00000100
,
00001000
00010000
01000000
00100000
01000000
00010000
00001000
00001000
,
00010000
00100000
01000000
00010000
10000000
01000000
00000000
01200000
,
00000000
00301000
00010000
00000010
00000100
00001000
00000000
00000100
,
00000001
00000010
00001000
00010000
01000000
00010000
00001000
00000100
,
00001000
00000000
00010000
00000000
00100000
00000000
00100000
00000000
00100000
00000000
10000000
00010000
10000000
00010000
00100000
00000000
,
01000000
00010000
00001000
00010000
00000010
00001000
00000000
00001200
,
00000000
00000310
00000001
00000100
00000001
00000010
00000000
00001000
,
00010000
00100000
01000000
00100000
00010000
00001000
00000010
00000100
,
00000010
00001000
00010000
00100000
01000000
00100000
10000000
10000000
,
01000000
00010000
00001000
00000100
00000010
00001000
00000000
00001200
,
00000000
00000301
00000100
00000010
00000001
00001000
00000000
00000010
,
00000100
00001000
00010000
01000000
00000000
00100000
01100000
00000000
,
20020000
00000000
00000000
30030000
,
10000000
00000000
01000000
00000000
00100000
00010000
00100000
00010000
02000000
00000000
00000000
00010000
00000000
00000000
03001000
00000000
,
01000000
00000000
00010000
00000000
00100000
00000000
00001000
00010000
00001000
00000000
00000010
00000000
00001000
00000000
00010000
00000000
,
00000100
00000000
00001000
00000000
00000010
00000100
00000010
00000100
00000002
00000000
00000000
00000010
00000000
00000000
00001003
00000000
,
00000001
00000000
00000100
00000000
00000010
00000000
00010000
00001000
00010000
00000000
00000100
00000000
00010000
00000000
00001000
00000000
,
01001000
00000000
01000000
00000000
00010000
10000000
00010000
10000000
02000000
00000000
00000000
00100000
00000000
00000000
13000000
00000000
,
01000000
00000000
00010000
00000000
00001000
00000000
00100000
00010000
00100000
00000000
00001000
00000000
00010000
00000000
00000010
00000000
,
00000100
00000000
00001000
00000000
00000100
00000001
00000100
00000001
00000010
00000000
00000100
00001000
00000000
00000000
00001100
00000000
,
00000000
00000000
00010010
00000000
00000000
00000000
00101000
00000000
00000000
00000000
01000000
00010000
10000000
00010000
00100000
00000000
,
01100000
00000000
01000000
00000000
10000000
00010000
10000000
00100000
01000000
00000000
00000000
01000000
00001000
00000000
00010000
00000000
,
00000100
00000000
00001000
00000000
00000010
00000000
00000100
00000001
00001000
00000000
00000100
00000000
00000010
00000000
00000100
00000000
,
00010000
00000000
00001000
00000000
01000000
00010000
01000000
00100000
10000000
00000000
00000000
10000000
01000000
00000000
00010000
00000000
,
00001000
00000000
00000010
00000000
00000100
00000000
00000100
00001000
00000010
00000000
00000001
00000000
00000010
00000000
00001000
00000000
,
00001001
00000000
00000001
00000000
00000010
00000100
00001000
00000100
00010000
00000000
00000000
00010000
00001000
00000000
01000000
00000000
,
00100000
00000000
00010000
00000000
00100000
00000000
10000000
00010000
10000000
00000000
01000000
00000000
00010000
00000000
00001000
00000000
,
00100000
00000000
00010000
00000000
01000000
00001000
00010000
00001000
00100000
00000000
00010000
01000000
00000000
00000000
01010000
00000000
,
00000000
00101000
00000000
00010010
00000000
00002200
00000000
00003300
,
00000001
00000000
00000100
00000000
00000001
00000000
00000010
00000000
00000000
00000000
00000010
00000000
00001000
00000000
00010000
00001000
,
00010000
00000000
00100000
00000000
01000000
00000000
00100000
00000000
00000000
00000000
00100000
00000000
10000000
00000000
01000000
00100000
,
02000000
03020000
00032000
00003200
00000000
00000302
00000023
00000030
,
00002002
00000000
00000000
00000000
,
00003003
00000000
00000000
00000000
;
