#VERSION:0.83;
#TITLE:Little princess has no identity.;
#SUBTITLE:;
#ARTIST:0kash;
#TITLETRANSLIT:;
#SUBTITLETRANSLIT:;
#ARTISTTRANSLIT:;
#GENRE:;
#CREDIT:;
#MUSIC:Little princess has no identity.ogg;
#BANNER:Little princess has no identity.png;
#BACKGROUND:Little princess has no identity-bg.png;
#CDTITLE:./CDTitles/SDVX II -infinite infection-.png;
#SAMPLESTART:75.107;
#SAMPLELENGTH:15.000;
#SELECTABLE:YES;
#OFFSET:1.096;
#BPMS:0.000=185.000;
#STOPS:;
#TIMESIGNATURES:0.000=4=4;
#BGCHANGES:0.000=../BGAs/17te.mp4=1.000=0=0=0=StretchNoLoop====,
99999.000=-nosongbg-=1.000=0=0=0=StretchNoLoop====
;
#FGCHANGES:;

//--------------- dance-single - forcednature ----------------
#NOTEDATA:;
#STEPSTYPE:dance-single;
#DESCRIPTION:forcednature;
#DIFFICULTY:Beginner;
#METER:4;
#RADARVALUES:0,0,0,0,0;
#CREDIT:forcednature;
#NOTES:
0000
0000
0000
0000
,
0000
0000
0000
0000
,
0000
0000
0000
0000
,
0000
0000
0000
0000
,
0000
0000
0000
0000
,
0000
0000
0000
0000
,
0000
0000
0000
0000
,
1001
0000
0000
0000
,
0001
0000
0000
0000
,
0100
0000
0000
0000
,
0010
0000
0000
0000
,
1001
0000
0000
0000
,
1000
0000
0000
0000
,
0100
0000
0000
0000
,
0010
0000
0000
0000
,
0110
0000
0000
0000
,
1001
0000
0000
0000
,
1000
0000
0001
0000
,
0100
0000
0000
0100
0000
0000
0100
0000
,
0010
0000
0000
0000
,
1000
0000
0000
0000
,
0001
0000
0000
0000
,
0010
0000
0000
0000
,
0100
0000
0000
0000
,
1000
0000
0000
0000
,
0001
0000
0000
0000
,
0100
0000
0000
0000
,
0110
0000
0000
0000
,
0010
0000
0000
0000
,
1000
0000
0000
0000
,
0001
0000
0000
0000
,
1001
0000
0000
0000
,
0110
0000
0000
0000
,
1000
0000
0001
0000
,
0100
0000
0010
0000
,
2000
0000
0000
0000
,
0000
3000
0000
0000
,
0002
0000
0000
0000
,
0000
0003
0000
0000
,
0200
0000
0000
0000
,
0000
0300
0000
0000
,
0020
0000
0030
0000
,
0200
0000
0300
0000
,
0002
0000
2003
0000
,
3000
0000
0000
0000
,
0200
0000
0320
0000
,
0030
0000
0000
0000
,
0002
0000
0000
0000
,
0203
0000
0000
0000
,
0320
0000
0000
0000
,
0000
0000
0030
0000
,
1000
0000
1000
0000
,
0001
0000
0001
0000
,
0100
0000
0100
0000
,
0010
0010
0010
0000
,
1000
0000
0001
0000
,
0010
0000
0100
0000
,
0000
1000
0001
0000
,
0100
0000
0010
0000
,
1001
0000
0000
0000
,
1000
0000
0001
0000
,
0100
0000
0010
0000
,
1000
0000
0001
0000
,
0010
0000
0000
0000
,
0100
0000
1000
0000
,
0001
0000
0100
0000
,
0010
0000
1000
0000
,
1001
0000
0000
0000
,
0001
0000
0010
0000
,
0001
0000
0100
0000
,
0010
0000
1000
0000
,
0100
0000
0000
0000
,
0010
0000
0001
0000
,
1000
0000
0010
0000
,
0100
0000
0100
0000
,
0110
0000
0000
0000
,
0001
0000
1000
0000
,
0010
0000
1000
0000
,
0100
0000
0010
0000
,
0001
0000
0000
0000
,
0100
0000
0001
0000
,
0010
0000
0001
0000
,
0100
0000
0010
0000
,
1001
0000
0000
0000
,
0001
0000
0010
0000
,
0100
0000
1000
0000
,
0001
0000
0100
0000
,
0010
0000
0010
0000
,
0100
0000
0100
0000
,
0001
0001
0001
0000
,
1000
1000
1000
0000
,
1001
0000
0000
0000
;

//--------------- dance-single - forcednature ----------------
#NOTEDATA:;
#STEPSTYPE:dance-single;
#DESCRIPTION:forcednature;
#DIFFICULTY:Easy;
#METER:8;
#RADARVALUES:0,0,0,0,0;
#CREDIT:forcednature;
#NOTES:
0000
0000
0000
0000
,
0000
0000
0000
0000
,
0000
0000
0000
0000
,
0000
0000
0000
0000
,
0000
0000
0000
0000
,
0000
0000
0000
0000
,
0000
0000
0000
0010
,
1001
0000
1000
0001
,
0100
0010
1000
0001
,
0010
0000
0100
1000
,
0100
0010
0001
0000
,
1001
0000
1000
0010
,
0100
0001
0010
0001
,
0100
0000
0010
1000
,
0100
0010
0001
0000
,
1001
0000
1000
0010
,
1001
0000
0001
0010
,
1001
0000
0110
0000
,
0001
0000
0000
1000
0000
0000
0001
0000
0000
1000
0000
0000
0010
0000
0000
0000
,
0100
0001
1000
0001
,
0010
0100
2000
3000
,
0010
0100
0010
1000
,
0001
0010
0200
0300
,
0010
0001
1000
0010
,
0100
0001
2000
3000
,
0100
1000
0010
0100
,
0001
0010
0200
0300
,
0110
0010
0001
1000
,
0010
0100
0002
0003
,
1000
0100
1000
0010
,
0100
0001
0020
0030
,
0220
0330
0100
1000
,
2002
3003
0001
0100
,
0220
0330
2002
3003
,
0010
0100
0220
0330
,
0002
0000
2003
0000
,
0000
3002
0023
0230
,
2300
0000
3002
0000
,
0000
2003
3020
0230
,
0302
0000
0000
0023
,
0230
0000
0000
2300
0000
3002
0000
2003
,
0000
0000
0000
3000
,
0020
0000
0000
0030
,
0200
0000
0302
0000
,
0000
2003
3200
0320
,
0032
0000
2003
0000
,
0000
3020
0230
0302
,
2003
0000
0000
3200
,
0320
0000
0000
0032
0000
2003
0000
3020
,
0000
0000
0000
0000
,
0000
0000
0000
0030
,
0100
0001
0101
0000
,
0010
1000
1010
0000
,
1000
0100
1100
0000
,
0001
0010
0002
0003
,
0100
0010
1000
0001
,
0010
0100
1000
0002
,
0003
0100
0010
1000
,
0001
0000
0010
0000
0100
1000
0000
0000
,
0001
1000
0010
0100
,
0001
1000
0100
0020
,
0031
1000
0010
1000
,
0100
0010
0001
0200
,
0310
0100
0001
0010
,
0100
1000
0001
2000
,
3010
0100
0001
0010
,
0100
1000
0020
0030
,
0100
0001
1000
0010
,
1000
0001
0010
0200
,
0310
0001
1000
0010
,
0100
0001
1000
0200
,
0310
0001
0100
0010
,
0100
0001
1000
0200
,
0310
0010
0001
0001
,
1000
0010
2000
3000
,
0001
0010
0100
1000
,
0001
0000
0100
0000
0010
0000
1000
0001
,
1000
0100
0010
0001
,
1000
0000
0010
0000
0100
0000
0001
1000
,
0001
0010
0100
1000
,
0010
0000
0100
0000
0010
0000
1000
0100
,
1000
0001
0010
0001
,
0100
0010
1000
0100
,
0110
0010
0001
1000
,
0010
0000
0100
0000
0001
0000
0010
0100
,
0010
0001
1000
0010
,
0100
0000
0001
0000
1000
0000
0100
0010
,
0100
0100
1000
1000
,
0001
0001
0100
0100
,
0001
0010
0001
0000
1000
0010
1000
0000
,
0200
0310
0002
1003
,
1001
0000
0000
0000
;

//--------------- dance-single - forcednature ----------------
#NOTEDATA:;
#STEPSTYPE:dance-single;
#DESCRIPTION:forcednature;
#DIFFICULTY:Medium;
#METER:12;
#RADARVALUES:0,0,0,0,0;
#CREDIT:forcednature;
#NOTES:
0000
0000
0000
0000
,
0000
0000
0000
0000
,
0000
0000
0000
0000
,
0000
0000
0000
0000
,
0000
0000
0000
0000
,
0000
0000
0000
0000
,
0000
0000
0000
0110
,
1001
0000
1000
0000
0010
0100
0000
0001
,
0000
0100
0000
0010
1000
0010
0000
0000
,
0100
0000
0001
0000
1000
0100
0000
1000
,
0000
0001
0000
0010
0200
0000
0310
0000
,
1001
0000
0001
0000
0100
0001
0000
1000
,
0000
0010
0000
1000
0001
1000
0000
0000
,
0100
0000
1000
0000
0001
0010
0000
0001
,
0000
1000
0000
0001
0100
0001
0000
0000
,
1010
0001
1000
0100
,
0011
1000
0001
0100
,
1010
0100
0011
0100
,
0001
0000
0000
1000
0000
0000
0001
0000
0000
1000
0000
0000
0010
0000
0000
0000
,
0100
0000
0001
0000
1000
0010
0000
1000
,
0000
0001
0010
0100
1000
0001
0000
0000
,
0100
0000
0010
0000
1000
0001
0000
0010
,
0000
0100
1000
0100
0010
0010
0000
0000
,
0001
0000
1000
0000
0010
0100
0000
0001
,
0000
0010
0001
0100
0010
1000
0000
0000
,
0001
0000
0010
0000
0100
1000
0000
0001
,
0000
0100
0010
1000
0002
0000
0013
0000
,
0101
0000
1000
0000
0010
0100
0000
0001
,
0000
1000
0100
0010
0001
0100
0000
0010
,
1000
0000
0001
0000
0010
0100
0000
1000
,
0000
0001
0100
0010
1000
1000
0000
0001
,
0010
0010
0100
1000
0001
0100
0010
1000
,
0001
0000
0010
0100
1000
0001
0100
0010
,
0001
0000
0010
1000
0100
0000
0001
0100
,
0010
0010
0001
0000
0200
0000
0320
0000
,
2030
0000
0002
0000
,
3003
2000
3200
0320
,
0032
0000
2000
0000
,
3003
0002
0203
0320
,
2030
0000
3000
0200
,
0320
0000
0032
0203
0000
0320
0000
2030
,
0000
0000
0000
3000
,
0002
0000
0000
0003
,
0202
0303
2020
0000
,
3030
0002
2003
3010
,
2200
3300
0022
0000
,
0033
2000
3002
0023
,
0230
0000
0300
0020
,
0032
0000
2003
3020
0000
0230
0000
0002
,
0000
0000
0000
0000
,
0000
0000
0000
0303
,
1000
0000
0000
0010
0000
0000
1000
0000
0001
0000
0010
0000
0200
0000
0000
0000
,
0310
0000
0000
0001
0000
0000
1000
0000
0010
0000
0100
0000
0002
0000
0000
0000
,
1003
0000
0000
0100
0000
0000
1000
0000
0010
0000
0100
0000
0002
0000
0003
0000
,
0010
0000
0000
0100
0000
0001
0000
0100
0000
2000
0000
0000
0000
0000
0000
0000
,
3010
0000
0000
0100
0000
0000
0001
0000
1000
0000
0100
0000
0010
0000
0001
0000
,
1000
0000
0000
0000
0000
0000
0000
0000
0000
0010
0000
0000
0000
0000
0000
0000
0000
0000
0100
0000
0000
0000
0000
0000
0001
0000
0000
0000
0000
0000
1000
0000
0000
0000
0000
0000
0001
0000
0000
0000
0000
0000
0000
0000
0002
0000
0000
0000
,
0000
0003
1000
0010
0100
0010
0001
0010
,
0200
0000
0302
0000
1003
0100
0010
0000
,
0001
0100
0010
0100
0001
1000
0010
0100
,
0001
0010
0100
0010
0001
1000
0010
0000
,
0100
0001
1000
0100
1000
0010
0100
0010
,
1000
0001
0010
0100
0010
0001
1000
0000
,
0010
0100
0001
1000
0100
0010
0001
0100
,
0010
0100
0001
0010
0100
1000
0010
0000
,
0100
0001
1000
0100
0010
0001
0100
0010
,
0100
0001
0010
0100
1000
0001
0100
0000
,
0010
1000
0001
0010
0100
0010
0001
1000
,
0010
0100
0001
1000
0100
0010
0001
0000
,
0100
0010
0100
0001
1000
0100
1000
0010
,
0100
0001
0010
0001
0100
0010
1000
0000
,
0001
0010
0100
1000
0100
0010
0001
1000
,
0001
0100
0010
1000
0100
1000
0010
0000
,
0100
0001
0010
0001
0100
0010
1000
0100
,
0010
0010
0001
0001
0100
0100
0010
0000
,
1000
0001
0010
0001
0100
0010
1000
0100
,
0010
0001
0100
0010
1000
0001
0010
0100
,
0001
0100
1000
0001
1000
0010
0100
0001
,
1000
0010
0001
0010
0100
0001
1000
0000
,
0001
0010
0100
1000
0001
0100
1000
0100
,
0010
1000
0001
0010
0100
0001
0100
0010
,
0001
1000
0010
0100
0010
0001
0010
1000
,
0001
1000
0100
0010
0001
1000
0010
0000
,
0100
0001
0100
1000
0100
0010
1000
0001
,
0010
0100
0001
0100
1000
0001
1000
0010
,
0100
1000
0100
0001
1000
0001
0010
0100
,
0001
0100
0010
0001
1000
0010
0001
0010
,
0100
0001
0100
0001
1000
0100
1000
0100
,
0010
0001
0010
0001
1000
0010
1000
0010
,
1000
0100
0010
0001
0100
0010
1000
0001
,
0010
0010
0020
0000
0032
0000
0103
0010
,
1001
0000
0000
0000
;

//--------------- dance-single - forcednature ----------------
#NOTEDATA:;
#STEPSTYPE:dance-single;
#DESCRIPTION:forcednature;
#DIFFICULTY:Hard;
#METER:16;
#RADARVALUES:0,0,0,0,0;
#CREDIT:forcednature;
#NOTES:
0000
0000
0000
0000
,
0000
0000
0000
0000
,
0000
0000
0000
0000
,
0000
0000
0000
0000
,
0000
0000
0000
0000
,
0000
0000
0000
0000
,
0000
0000
0000
0110
,
0001
1000
0000
0010
0000
0100
0001
0100
,
0000
0010
0010
1000
0001
0010
0000
0110
,
0000
0100
0000
1000
0000
0001
0100
0001
,
0000
1000
0010
1000
0100
0100
0010
0001
,
0010
0000
0101
0000
0010
1000
0000
0100
,
0010
0100
1000
0010
0100
0001
0000
0010
,
0100
0000
0110
0000
1000
0001
0000
0100
,
0001
0000
1000
0000
0100
0000
1000
0000
0001
0000
0000
0000
0100
0010
0100
0000
,
1001
0000
0001
0000
0100
0010
0100
0001
,
1001
0000
1000
0000
0100
0010
0100
1000
,
0001
0001
0100
0100
0010
0010
1000
1000
,
1100
0000
0000
0011
0000
0000
0101
0000
0000
1010
0000
0000
0001
0010
0100
1000
,
0010
0100
0001
0010
0001
0100
0000
0010
,
1000
0100
1000
0010
1000
0100
0000
0010
,
0001
0010
0100
1000
0001
0100
0000
1000
,
0100
0010
0100
0001
0010
0010
0100
0000
,
1000
0010
1000
0001
0010
0100
0000
0010
,
0001
0100
0010
1000
0100
0010
0000
0100
,
1000
0001
1000
0010
0100
0001
0000
0010
,
0100
0010
0001
0100
0020
0000
1030
0000
,
0001
0010
0001
0100
0010
1000
0000
0100
,
0001
0100
0010
0001
1000
0001
0000
0100
,
1000
0100
0010
0100
0001
1000
0000
0010
,
0001
0010
0100
0010
2000
0000
3100
0010
,
0001
0100
0001
0100
0010
0000
1000
0000
0001
0000
0010
0000
0100
0000
1000
0000
,
1001
0000
1000
0010
0100
0001
0010
0100
,
1000
0010
1000
0000
0001
0000
0100
0000
0001
0010
0001
0000
1000
0000
0100
0000
,
0010
0001
0010
0001
0200
0000
0300
0000
0020
0000
0000
0000
1030
0100
0010
0001
,
0200
0000
0002
0000
,
0303
2000
3002
0023
,
0230
0000
2000
0000
,
3300
2000
3002
0203
,
0302
0000
0003
0020
,
0230
0000
1300
0002
0000
0203
0000
0302
,
0000
0000
0000
0003
,
0020
0000
0000
0030
,
2200
3300
0022
0000
,
0033
0002
0203
0310
,
2020
3030
0202
0000
,
0303
0002
2003
3100
,
0220
0000
0330
0011
,
1010
0000
2000
3002
0000
0103
0000
2002
,
0000
0000
0000
0000
,
0000
0000
0000
3003
,
0001
0100
0000
0001
0000
0000
1000
0000
0010
0000
0100
0000
0002
0000
0000
0000
,
1003
0100
0000
1000
0000
0000
0001
0000
0010
0000
0010
0000
0001
0100
0010
1000
,
0001
0100
0000
0001
0000
0000
0010
0000
0100
0000
1000
0000
0020
0030
0000
0000
,
0100
0001
0000
0100
0000
0010
0000
1000
0000
0001
0000
1000
0100
0010
0001
0100
,
0010
1000
0000
0001
0000
0000
0010
0000
0001
0000
0100
0000
0001
0000
0010
0000
,
0100
0000
0000
1000
0000
0000
0000
0000
0000
0001
0000
0000
0000
0000
0000
0000
0000
0000
0100
0000
0000
0000
0000
0000
0010
0000
0000
0000
0000
0000
1000
0000
0000
0000
0000
0000
0010
0000
0000
0000
0100
0000
0000
0000
0001
0000
0000
0000
,
0020
0000
0030
0000
0100
0000
0001
0000
0100
0000
1000
0000
0100
0000
0010
0001
,
1000
0000
0000
0001
0000
0000
0100
0000
0000
0010
0000
0000
1000
0000
0000
0000
0100
0000
0000
0000
0010
0000
0000
0000
0001
0000
0000
0000
0000
0000
0000
0000
0000
0001
0000
0000
0100
0000
0000
0000
0000
0000
0000
0000
0000
0000
0000
0000
,
1001
0000
0001
0000
0100
0010
0000
0010
1000
0000
0001
0000
0010
0000
0001
0000
,
0100
0000
0010
0000
1000
0100
0000
0100
0010
0000
0001
0000
1000
0010
1000
0000
,
0001
0000
0010
0000
0100
1000
0000
1000
0001
0000
0100
0000
0010
0000
1000
0000
,
0100
0000
0010
0000
0001
0100
0000
0100
0010
0000
1000
0000
0100
0010
0100
0000
,
1000
0000
0001
0000
0100
0010
0000
1000
0010
0000
0100
0000
0001
0000
0010
0000
,
0100
0000
1000
0000
0001
0100
0000
0001
0010
0000
0100
0000
1000
0001
1000
0000
,
0010
0000
0100
0000
0001
0010
0000
0100
0010
0000
0001
0000
1000
0000
0010
0000
,
0100
0000
0001
0000
1000
0100
0000
0010
0100
0000
1000
0000
0001
0100
0001
0100
,
0010
0000
1000
0000
0100
0010
0000
0010
0001
0000
0100
0000
0010
0000
0100
0000
,
1000
0000
0100
0000
0001
1000
0000
1000
0100
0000
0010
0000
0001
0100
0001
0000
,
1000
0000
0010
0000
1000
0100
0000
0100
0010
0000
1000
0000
0010
0000
0001
0000
,
1000
0000
0010
0000
0100
0001
0000
0001
0010
0000
0100
0000
1000
0001
1000
0000
,
0010
0000
0100
0000
0001
0010
0000
0001
0100
0000
0010
0000
0001
0000
0010
0000
,
1000
0000
0001
0000
1000
0100
0000
0010
0100
0000
1000
0000
0001
0100
0001
0000
,
1000
1000
0100
0100
0010
0010
0001
0001
,
1000
0010
1000
0010
0100
0001
0100
0001
1000
0100
0010
0001
0100
0001
0000
0001
,
1000
0000
0001
0000
1000
0010
0000
0100
0001
0000
0010
0000
0100
0000
0010
0000
,
0001
0000
0100
0000
0010
1000
0000
0001
0010
0000
0100
0000
1000
0001
1000
0010
,
0100
0000
0001
0000
0010
0100
0000
1000
0001
0000
0100
0000
0001
0000
0010
0000
,
0100
0000
1000
0000
0001
0100
0000
0010
1000
0000
0001
0000
0010
0100
0010
0001
,
1000
0000
0010
0000
0100
0001
0000
1000
0001
0000
0010
0000
0100
0000
0010
0000
,
0001
0000
0100
0000
0010
1000
0000
0001
0010
0000
0100
0000
1000
0010
0100
0001
,
1000
0000
0100
0000
0010
0001
0000
0010
0100
0000
0010
0000
0001
0000
1000
0000
,
0010
0000
0100
0000
0001
0010
0000
0100
1000
0000
0001
0100
0010
1000
0010
0000
,
1001
0000
0001
0000
0100
0010
0000
1000
0001
0000
0010
0000
0100
0000
0010
0000
,
0001
0000
1000
0000
0001
0100
0000
0010
1000
0000
0100
0000
0010
0001
1000
0001
,
0100
0000
0010
0000
1000
0001
0000
1000
0100
0000
0010
0000
0001
0000
0010
0000
,
0100
0000
1000
0000
0001
0100
0000
0010
1000
0000
0001
0000
1000
0001
0100
0010
,
1000
1000
0100
0100
0010
0010
0001
0001
,
1000
1000
0010
0010
0100
0100
0001
0001
,
1000
0100
1000
0100
0010
0001
0010
0001
1000
0010
1000
0010
0100
0001
0100
0001
,
1000
0100
0010
0001
0200
0000
0300
0000
0001
0000
0010
0000
0001
0100
0010
1000
,
0100
0000
0000
0000
;

//--------------- dance-double - forcednature ----------------
#NOTEDATA:;
#STEPSTYPE:dance-double;
#DESCRIPTION:forcednature;
#DIFFICULTY:Easy;
#METER:9;
#RADARVALUES:0,0,0,0,0;
#CREDIT:forcednature;
#NOTES:
00000000
00000000
00000000
00000000
,
00000000
00000000
00000000
00000000
,
00000000
00000000
00000000
00000000
,
00000000
00000000
00000000
00000000
,
00000000
00000000
00000000
00000000
,
00000000
00000000
00000000
00000000
,
00000000
00000000
00000000
00001000
,
00011000
00010000
00100000
00000000
,
01000000
00010000
10000000
00010000
,
00100000
01000000
00010000
00000000
,
00001000
00010000
00000010
00000000
,
00000110
00000100
00000001
00000000
,
00000010
00000100
00001000
00000010
,
00010000
00001000
00100000
00000000
,
00010000
01000000
00100000
00000000
,
10010000
10000000
01000000
00000000
,
01100000
00100000
00001000
00000000
,
00011000
00000000
00010100
00000000
,
00000010
00000000
00000000
00001000
00000000
00000000
00000010
00000000
00000000
00001000
00000000
00000000
00000001
00000000
00000000
00000000
,
00000010
00000100
00001000
00000100
,
00000010
00000100
00010000
00001000
,
01000000
00010000
01000000
00100000
,
01000000
00001000
00010000
00000000
,
00100000
10000000
00010000
10000000
,
01000000
00100000
00010000
00100000
,
00001000
00010000
00000010
00001000
,
00000010
00000100
00000001
00000000
,
00001001
00001000
00000100
00000010
,
00000100
00001000
00000001
00000100
,
00000001
00000010
00001000
00010000
,
00000100
00001000
00000010
00000000
,
00022000
00033000
01000000
00001000
,
00022000
00033000
00000100
00010000
,
00022000
00033000
02200000
03300000
,
00020000
20030000
32000000
00000000
,
03200000
00000000
00020000
00000000
,
00330000
01000000
00001000
00010000
,
00000200
00000000
00002000
00000000
,
00003300
00000010
00001000
00000001
,
00000020
00000000
00000000
00000130
,
00002000
00000000
00000000
00003020
00000000
00020030
00000000
00032000
,
00000000
00000000
00000000
00003000
,
00200000
00000000
00000000
00300000
,
00020000
00030000
02020000
00000000
,
03030000
01000000
00001000
00010000
,
00000200
00000300
00002200
00000000
,
00003300
00001000
00000010
00000100
,
00000002
00000000
00000003
00000010
,
00000200
00000000
00000000
00001300
00000000
00000010
00000000
00000200
,
00000000
00000000
00000000
00000000
,
00000000
00000000
00000000
00000300
,
00000001
00000000
00000000
00000010
00000000
00000000
00000001
00000000
00000100
00000000
00000000
00000000
00000020
00000000
00000000
00000000
,
00001030
00000000
00000000
00000100
00000000
00000000
00010000
00000000
00001000
00000000
00000000
00000000
02000000
00000000
00000000
00000000
,
03010000
00000000
00000000
00100000
00000000
00000000
01000000
00000000
10000000
00000000
00000000
00000000
00020000
00000000
00030000
00000000
,
01000000
00000000
00000000
01000000
00000000
01000000
00000000
01000000
00000000
01000000
00000000
00000000
00000000
00000000
00000000
00000000
,
00100000
00000000
00000000
10000000
00000000
00000000
00100000
00000000
10000000
00000000
00000000
00000000
00010000
00000000
00000000
00000000
,
00100000
00000000
00000000
00001000
00000000
00000000
00010000
00000000
00000010
00000000
00000000
00000000
00002000
00000000
00000000
00000000
,
00003000
00000100
00000010
00000001
,
00000200
00002300
00023000
00030000
,
00011000
00001000
01000000
00010000
,
00100000
00000000
01000000
00000000
10000000
00010000
10000000
00000000
,
00100000
01000000
00010000
00100000
,
00001000
00000000
00010000
00000000
00000010
00001000
00000010
00000000
,
00000100
00000001
00000010
00000100
,
00001000
00000000
00000001
00000000
00000100
00000010
00000100
00000000
,
00001000
00010000
01000000
00100000
,
00010000
10000000
00100000
00000000
,
10000000
01000000
00100000
00010000
,
01000000
00000000
00001000
00000000
00010000
00000100
00010000
00000000
,
00001000
00000100
00000001
00000010
,
00000100
00000000
00001000
00000000
00000010
00000100
00000010
00000000
,
00001000
00000001
00000010
00000001
,
00000100
00000000
00000010
00000000
00010000
00001000
00010000
00000000
,
00000100
00001000
00000010
00010000
,
00002000
00100000
00010000
01003000
,
00011000
00010000
00100000
01000000
,
00010000
00000000
10000000
00000000
01000000
00000000
00100000
00010000
,
00100000
00001000
00010000
00000010
,
00001000
00000000
00000001
00000000
00000010
00000000
00000100
00001000
,
00000100
00010000
00001000
01000000
,
00010000
00000000
00100000
00000000
01000000
00000000
10000000
00010000
,
10000000
00100000
01000000
00100000
,
00010000
00001000
00000010
00000000
,
00000110
00000100
00001000
00000001
,
00000100
00000000
00000010
00000000
00001000
00000000
00000001
00000010
,
00000001
00000100
00001000
00010000
,
01000000
00000000
10000000
00000000
00010000
00000000
10000000
00100000
,
10000000
10000000
01000000
01000000
,
00010000
00010000
00001000
00001000
,
00000010
00000100
00000010
00000000
00000100
00000010
00000100
00000000
,
00001000
00000000
00000001
00000000
00000100
00000000
00001000
00010000
,
00001000
00000000
00000000
00000000
;

//--------------- dance-double - forcednature ----------------
#NOTEDATA:;
#STEPSTYPE:dance-double;
#DESCRIPTION:forcednature;
#DIFFICULTY:Medium;
#METER:13;
#RADARVALUES:0,0,0,0,0;
#CREDIT:forcednature;
#NOTES:
00000000
00000000
00000000
00000000
,
00000000
00000000
00000000
00000000
,
00000000
00000000
00000000
00000000
,
00000000
00000000
00000000
00000000
,
00000000
00000000
00000000
00000000
,
00000000
00000000
00000000
00000000
,
00000000
00000000
00000000
00011000
,
01001000
00000000
01000000
00000000
00010000
10000000
00000000
01000000
,
00000000
00100000
00000000
00001000
00010000
00001000
00000000
00000000
,
00000100
00000000
00000001
00000000
00001000
00000010
00000000
00010000
,
00000000
00001000
00000000
00100000
00020000
00000000
01030000
00000000
,
01100000
00000000
00100000
00000000
10000000
00010000
00000000
10000000
,
00000000
01000000
00000000
00010000
00001000
00010000
00000000
00000000
,
00000100
00000000
00001000
00000000
00000001
00000100
00000000
00000010
,
00000000
00001000
00000000
00000100
00000010
00000100
00010000
00000000
,
00011000
00001000
01000000
00100000
,
00011000
00010000
00000100
00000010
,
00010100
00100000
01001000
00000010
,
00010000
00000000
00000000
00001000
00000000
00000000
00010000
00000000
00000000
00100000
00000000
00000000
01000000
00000000
00000000
00000000
,
00010000
00000000
10000000
00000000
01000000
00100000
00000000
10000000
,
00000000
00100000
00010000
00100000
00001000
00010000
00000000
00000000
,
00000010
00000000
00001000
00000000
00000010
00000100
00000000
00001000
,
00000000
00000100
00000001
00001000
00000100
00000100
00000000
00000000
,
00010000
00000000
00001000
00000000
00100000
00010000
00000000
01000000
,
00000000
10000000
01000000
00010000
10000000
00100000
00000000
00000000
,
10000000
00000000
01000000
00000000
00010000
00001000
00000000
00000010
,
00000000
00000100
00001000
00000001
00000200
00000000
00000310
00000000
,
00001001
00000000
00010000
00000000
00001000
00100000
00000000
00010000
,
00000000
01000000
00100000
00010000
00100000
10000000
00000000
01000000
,
00010000
00000000
00001000
00000000
00000010
00000100
00000000
00001000
,
00000000
00000001
00000100
00001000
00010000
00010000
00100000
00000000
,
10000000
10000000
01000000
00010000
00001000
00010000
01000000
00010000
,
00001000
00000000
00000100
00001000
00010000
00001000
00000100
00001000
,
00010000
00000000
00100000
00010000
00001000
00000000
00000010
00001000
,
00010000
00010000
00100000
00000000
02000000
00000000
03020000
00000000
,
20030000
00000000
02000000
00000000
,
33000000
00020000
00230000
00302000
,
00023000
00000000
00000020
00000000
,
00030030
00000002
00000023
00000230
,
00002300
00000000
00003000
00000020
,
00020030
00000000
00032000
00203000
00000000
00320000
00000000
02030000
,
00000000
00000000
00000000
03000000
,
00200000
00000000
00000000
00300000
,
20020000
30030000
02200000
00000000
,
03300000
00020000
02030000
03001000
,
00020200
00030300
00002020
00000000
,
00003030
00000002
00000023
00000230
,
00020300
00000000
00030000
00002000
,
02003000
00000000
03020000
00230000
00000000
02300000
00000000
20000000
,
00000000
00000000
00000000
00000000
,
00000000
00000000
00000000
33000000
,
10000000
00000000
00000000
00100000
00000000
00000000
10000000
00000000
01000000
00000000
00010000
00000000
00002000
00000000
00000000
00000000
,
00103000
00000000
00000000
00010000
00000000
00000000
01000000
00000000
00001000
00000000
00010000
00000000
00000200
00000000
00000000
00000000
,
00001300
00000000
00000000
00000010
00000000
00000000
00000100
00000000
00001000
00000000
00000100
00000000
00000002
00000000
00000003
00000000
,
00000010
00000000
00000000
00000100
00000000
00000001
00000000
00000100
00000000
00002000
00000000
00000000
00000000
00000000
00000000
00000000
,
00003010
00000000
00000000
00010000
00000000
00000000
00001000
00000000
00100000
00000000
00010000
00000000
01000000
00000000
00010000
00000000
,
00100000
00000000
00000000
00000000
00000000
00000000
00000000
00000000
00000000
01000000
00000000
00000000
00000000
00000000
00000000
00000000
00000000
00000000
00010000
00000000
00000000
00000000
00000000
00000000
00001000
00000000
00000000
00000000
00000000
00000000
00000010
00000000
00000000
00000000
00000000
00000000
00000100
00000000
00000000
00000000
00000000
00000000
00000000
00000000
00000200
00000000
00000000
00000000
,
00000000
00000300
00001000
00000010
00000001
00000010
00000100
00000010
,
00020000
00000000
00032000
00000000
00103000
00010000
01000000
00000000
,
00100000
00010000
00100000
10000000
00010000
10000000
01000000
00010000
,
00001000
00100000
00010000
01000000
00001000
00010000
00000100
00000000
,
00001000
00000010
00010000
00001000
00000010
00000100
00001000
00000001
,
00000100
00001000
00000100
00000001
00000010
00000100
00010000
00000000
,
00001000
01000000
00010000
00100000
00001000
00010000
01000000
00010000
,
00001000
00100000
00010000
01000000
00100000
10000000
00010000
00000000
,
00100000
01000000
00010000
00001000
00000010
00000100
00001000
00000010
,
00000100
00001000
00000100
00000001
00000010
00000100
00001000
00000000
,
00000010
00010000
00001000
00100000
00010000
01000000
00001000
00010000
,
01000000
00100000
00001000
00010000
00100000
10000000
00010000
00000000
,
10000000
01000000
00010000
00001000
00000100
00000010
00001000
00000001
,
00000010
00000100
00000001
00000100
00001000
00000001
00000010
00000000
,
00000100
00010000
00001000
00000100
00001000
00010000
00100000
01000000
,
00010000
10000000
01000000
10000000
00100000
00010000
00001000
00000000
,
00100000
00010000
01000000
00001000
00010000
00000100
00001000
00000010
,
00010000
00010000
00001000
00001000
00000010
00000010
00000100
00000000
,
00001000
00000001
00000100
00000001
00000010
00000100
00001000
00000010
,
00010000
00001000
00100000
00010000
01000000
00001000
00010000
01000000
,
00100000
00001000
00010000
00100000
10000000
00010000
10000000
01000000
,
00010000
00001000
00000100
00000001
00000010
00000100
00001000
00000000
,
00000010
00000100
00001000
00010000
00100000
01000000
00100000
10000000
,
00010000
10000000
01000000
00010000
00001000
00100000
00010000
01000000
,
00100000
00010000
00001000
00000010
00000100
00001000
00000001
00000100
,
00000010
00010000
00001000
00000010
00000001
00001000
00000010
00000000
,
00000100
00001000
00010000
01000000
00100000
00001000
00010000
00100000
,
01000000
00010000
10000000
01000000
00100000
00010000
01000000
00001000
,
00010000
00000100
00001000
00000010
00010000
00001000
00000010
00000100
,
00001000
00000001
00000100
00001000
00000100
00000010
00010000
00001000
,
00100000
00010000
01000000
00010000
00001000
00000010
00001000
00000100
,
00010000
00001000
00000100
00001000
00010000
01000000
00010000
00001000
,
00100000
00010000
01000000
00001000
00010000
00000100
00001000
00000010
,
00010000
00010000
00002000
00000000
00003020
00000000
00000130
00000000
,
00001001
00000000
00000000
00000000
;

//--------------- dance-double - forcednature ----------------
#NOTEDATA:;
#STEPSTYPE:dance-double;
#DESCRIPTION:forcednature;
#DIFFICULTY:Hard;
#METER:16;
#RADARVALUES:0,0,0,0,0;
#CREDIT:forcednature;
#NOTES:
00000000
00000000
00000000
00000000
,
00000000
00000000
00000000
00000000
,
00000000
00000000
00000000
00000000
,
00000000
00000000
00000000
00000000
,
00000000
00000000
00000000
00000000
,
00000000
00000000
00000000
00000000
,
00000000
00000000
00000000
00011000
,
01000000
00010000
00000000
00100000
00000000
01000000
10000000
01000000
,
00000000
00010000
00010000
00001000
00000010
00000001
00000000
00000110
,
00000000
00001000
00000000
00000001
00000000
00000100
00001000
00000100
,
00000000
00000010
00001000
00010000
01000000
01000000
00100000
10000000
,
00010000
00000000
01100000
00000000
10000000
01000000
00000000
00100000
,
00010000
00100000
00001000
00010000
00000010
00001000
00000000
00000100
,
00000010
00000000
00000110
00000000
00000100
00001000
00000000
00000001
,
00000100
00000000
00000010
00000000
00010000
00000000
00001000
00000000
00100000
00000000
00000000
00000000
01000000
00100000
01000000
00000000
,
10010000
00000000
10000000
00000000
01000000
00010000
00001000
00000000
,
00001001
00000000
00000001
00000000
00000100
00001000
00010000
00000000
,
00100000
00100000
10000000
10000000
00010000
00010000
00100000
00100000
,
01000000
00000000
00000000
00010000
00000000
00000000
00000100
00000000
00000000
00001000
00000000
00000000
00000001
00000100
00000001
00000100
,
00000010
00001000
00000100
00000010
00001000
00010000
00000000
00100000
,
10000000
01000000
00100000
00010000
10000000
00100000
00000000
00010000
,
00001000
00100000
00010000
01000000
00100000
00010000
00000000
00001000
,
00000010
00000100
00001000
00000010
00000100
00000100
00000001
00000000
,
00000010
00000100
00010000
00001000
01000000
00010000
00000000
00100000
,
01000000
00100000
00001000
00010000
00100000
01000000
00000000
00010000
,
10000000
01000000
00010000
00001000
00000100
00000001
00000000
00000010
,
00000100
00000010
00000001
00000100
00002000
00000000
00103000
00000000
,
10010000
00000000
10000000
01000000
00010000
00001000
00000000
00100000
,
00010000
01000000
00100000
00010000
00001000
00000010
00000000
00000100
,
00001000
00000010
00000100
00001000
00000100
00000001
00000000
00000010
,
00000100
00000010
00001000
00010000
00200000
00000000
01300000
00010000
,
10000000
01000000
10000000
01000000
00100000
00000000
00001000
00000000
00010000
00000000
00001000
00000000
00000100
00000000
00000001
00000000
,
00001001
00000000
00000001
00000010
00000100
00000010
00001000
00010000
,
00100000
01000000
00100000
00000000
10000000
00000000
00010000
00000000
00100000
01000000
00100000
00000000
00010000
00000000
01000000
00000000
,
00001000
00000000
00000000
00010000
00000000
00000000
00001000
00000000
00000000
00010000
00000000
00000000
00000200
00000000
00000000
00000000
00000000
00000000
00000000
00000000
00000300
00000000
00000000
00000000
00000020
00000000
00000000
00000000
00000000
00000000
00000000
00000000
00000000
00000000
00000000
00000000
00000031
00000000
00000000
00000100
00000000
00000000
00000010
00000000
00000000
00001000
00000000
00000000
,
00000200
00000000
00020000
00000000
,
00030300
00200000
00302000
00023000
,
00230000
00000000
02000000
00000000
,
03300000
20000000
30020000
00230000
,
00302000
00000000
00003000
00020000
,
00030020
00000000
00001030
00000200
00000000
00000320
00000000
00000032
,
00000000
00000000
00000000
00000003
,
00000200
00000000
00000000
00000300
,
00020020
00030030
02002000
00000000
,
03003000
20000000
30020000
00130000
,
00202000
00303000
00020200
00000000
,
00030300
00000002
00002003
00003010
,
00022000
00000000
00033000
00101000
,
01001000
00000000
20000000
30020000
00000000
00130000
00000000
02200000
,
00000000
00000000
00000000
00000000
,
00000000
00000000
00000000
03300000
,
01000000
10000000
00000000
01000000
00000000
00000000
00010000
00000000
00001000
00000000
00100000
00000000
00020000
00000000
00000000
00000000
,
01030000
00001000
00000000
00010000
00000000
00000000
00000100
00000000
00001000
00000000
00001000
00000000
00000001
00000010
00000100
00001000
,
00000010
00010000
00000000
00000010
00000000
00000000
00000100
00000000
00001000
00000000
00010000
00000000
00200000
00300000
00000000
00000000
,
01000000
00010000
00000000
10000000
00000000
00010000
00000000
00100000
00000000
01000000
00000000
10000000
01000000
00100000
00010000
01000000
,
00001000
00010000
00000000
00000100
00000000
00000000
00001000
00000000
00000010
00000000
00000001
00000000
00000010
00000000
00000100
00000000
,
00000001
00000000
00000000
00001000
00000000
00000000
00000000
00000000
00000000
00000001
00000000
00000000
00000000
00000000
00000000
00000000
00000000
00000000
00000010
00000000
00000000
00000000
00000000
00000000
00000100
00000000
00000000
00000000
00000000
00000000
00010000
00000000
00000000
00000000
00000000
00000000
00001000
00000000
00000000
00000000
01000000
00000000
00000000
00000000
00010000
00000000
00000000
00000000
,
00200000
00000000
00300000
00000000
01000000
00000000
00010000
00000000
01000000
00000000
10000000
00000000
01000000
00000000
00100000
00010000
,
00100000
00000000
00000000
00001000
00000000
00000000
00010000
00000000
00000000
00000010
00000000
00000000
00001000
00000000
00000000
00000000
00000001
00000000
00000000
00000000
00000010
00000000
00000000
00000000
00000001
00000000
00000000
00000000
00000000
00000000
00000000
00000000
00000000
00000001
00000000
00000000
00000100
00000000
00000000
00000000
00000000
00000000
00000000
00000000
00000000
00000000
00000000
00000000
,
00001000
00000000
00010000
00000000
00100000
01000000
00000000
01000000
00010000
00000000
10000000
00000000
00010000
00000000
00100000
00000000
,
01000000
00000000
10000000
00000000
01000000
00010000
00000000
00010000
00001000
00000000
00100000
00000000
00010000
01000000
00010000
00000000
,
00100000
00000000
00001000
00000000
00010000
00000010
00000000
00000010
00001000
00000000
00000100
00000000
00000010
00000000
00000100
00000000
,
00001000
00000000
00000001
00000000
00000100
00000001
00000000
00000001
00000010
00000000
00000100
00000000
00010000
00001000
00010000
00000000
,
00100000
00000000
01000000
00000000
00010000
00100000
00000000
00010000
01000000
00000000
00100000
00000000
10000000
00000000
00010000
00000000
,
10000000
00000000
01000000
00000000
00100000
00010000
00000000
00100000
00001000
00000000
00010000
00000000
00000010
00001000
00000010
00000000
,
00000100
00000000
00001000
00000000
00000100
00000001
00000000
00000010
00000001
00000000
00000100
00000000
00000010
00000000
00001000
00000000
,
00000100
00000000
00000010
00000000
00001000
00010000
00000000
00001000
01000000
00000000
00010000
00000000
10000000
01000000
10000000
01000000
,
00100000
00000000
00010000
00000000
01000000
00001000
00000000
00001000
00010000
00000000
00000100
00000000
00000010
00000000
00001000
00000000
,
00000010
00000000
00000001
00000000
00001000
00000010
00000000
00000010
00010000
00000000
00001000
00000000
00100000
00010000
00100000
00000000
,
01000000
00000000
00010000
00000000
00001000
00100000
00000000
00100000
00010000
00000000
01000000
00000000
00100000
00000000
00010000
00000000
,
00100000
00000000
10000000
00000000
01000000
00010000
00000000
00010000
00001000
00000000
00100000
00000000
00010000
01000000
00010000
00000000
,
00100000
00000000
00001000
00000000
00010000
00000010
00000000
00001000
00000010
00000000
00000100
00000000
00001000
00000000
00000100
00000000
,
00000001
00000000
00001000
00000000
00000100
00000010
00000000
00000100
00010000
00000000
00001000
00000000
01000000
00010000
01000000
00000000
,
00100000
00010000
00001000
00010000
01000000
00010000
00001000
00010000
,
00000010
00001000
00000010
00001000
00000001
00000010
00000001
00000010
00000100
00001000
00000100
00010000
00001000
01000000
00000000
01000000
,
00010000
00000000
00100000
00000000
01000000
10000000
00000000
00010000
00100000
00000000
01000000
00000000
00010000
00000000
00001000
00000000
,
00000010
00000000
00000100
00000000
00001000
00000010
00000000
00000100
00000001
00000000
00000010
00000000
00000100
00001000
00000100
00010000
,
00001000
00000000
01000000
00000000
00010000
10000000
00000000
00100000
01000000
00000000
10000000
00000000
01000000
00000000
00010000
00000000
,
00100000
00000000
00001000
00000000
00010000
00000010
00000000
00001000
00000100
00000000
00000010
00000000
00000001
00001000
00000001
00000100
,
00000010
00000000
00001000
00000000
00000100
00010000
00000000
00001000
00100000
00000000
00010000
00000000
01000000
00000000
00010000
00000000
,
10000000
00000000
00100000
00000000
01000000
00010000
00000000
00100000
00001000
00000000
00010000
00000000
00000010
00001000
00000001
00001000
,
00000100
00000000
00000010
00000000
00000100
00001000
00000000
00000001
00000010
00000000
00000001
00000000
00000100
00000000
00001000
00000000
,
00010000
00000000
01000000
00000000
00100000
00001000
00000000
01000000
00010000
00000000
10000000
01000000
00100000
00010000
01000000
00000000
,
01100000
00000000
00100000
00000000
10000000
00010000
00000000
00100000
00001000
00000000
00010000
00000000
01000000
00000000
00010000
00000000
,
00001000
00000000
00000100
00000000
00000010
00001000
00000000
00000100
00010000
00000000
00001000
00000000
00000010
00000100
00000010
00000001
,
00001000
00000000
00000010
00000000
00001000
00000100
00000000
00010000
00001000
00000000
01000000
00000000
00010000
00000000
00100000
00000000
,
01000000
00000000
00010000
00000000
01000000
10000000
00000000
00010000
01000000
00000000
00100000
00000000
00010000
00001000
01000000
00010000
,
00100000
01000000
00100000
00001000
00010000
00000010
00000100
00000010
,
00001000
00000100
00000001
00000100
00001000
00010000
01000000
00100000
,
01000000
00010000
01000000
00010000
10000000
01000000
10000000
01000000
00100000
00010000
00100000
00001000
00010000
00000010
00001000
00000010
,
00000100
00000001
00001000
00000001
00000020
00000000
00000030
00000000
00000100
00000000
00010000
00000000
00001000
01000000
00010000
01000000
,
00100000
00000000
00000000
00000000
;
