#VERSION:0.83;
#TITLE:Little Little Princess;
#SUBTITLE:;
#ARTIST:SHRINE 418;
#TITLETRANSLIT:;
#SUBTITLETRANSLIT:;
#ARTISTTRANSLIT:;
#GENRE:PUNK OPERA;
#CREDIT:;
#MUSIC:Little Little Princess.ogg;
#BANNER:Little Little Princess.png;
#BACKGROUND:Little Little Princess-bg.png;
#CDTITLE:./CDTitles/bm IIDX 12 HAPPY SKY.png;
#SAMPLESTART:52.582;
#SAMPLELENGTH:15.000;
#SELECTABLE:YES;
#OFFSET:0.620;
#BPMS:0.000=212.000;
#STOPS:;
#BGCHANGES:0.000=Little Little Princess.mp4=1.000=0=0=0=StretchNoLoop====,
99999.000=-nosongbg-=1.000=0=0=0=StretchNoLoop====
;
#FGCHANGES:;

//--------------- dance-single - forcednature ----------------
#NOTEDATA:;
#STEPSTYPE:dance-single;
#DESCRIPTION:forcednature;
#DIFFICULTY:Beginner;
#METER:1;
#RADARVALUES:0,0,0,0,0;
#CREDIT:forcednature;
#NOTES:
0000
0000
0000
0000
,
0000
0000
0000
0000
,
0000
0000
0000
0000
,
0000
0000
0000
0000
,
0000
0000
0000
0000
,
0000
0000
0000
0000
,
0000
0000
0000
0000
,
0000
0000
0000
0000
,
0000
0000
0000
0000
,
0000
0000
0000
0000
,
1000
0000
0000
0000
,
0000
0000
0000
0000
,
0000
0000
0000
0000
,
0000
0000
0000
0000
,
0001
0000
0000
0000
,
0000
0000
0000
0000
,
0000
0000
0000
0000
,
0000
0000
0000
0000
,
0100
0000
0000
0000
,
0000
0000
0000
0000
,
0000
0000
0000
0000
,
0000
0000
0000
0000
,
0000
0000
0000
0000
,
0000
0000
0000
0000
,
0010
0000
0000
0000
,
0000
0000
0000
0000
,
0000
0000
0000
0000
,
1000
0000
0000
0000
,
0000
0000
0000
0000
,
0000
0000
0000
0000
,
0000
0000
0000
0000
,
0001
0000
0000
0000
,
0000
0000
0000
0000
,
0001
0000
0000
0000
,
0000
0000
0000
0000
,
0001
0000
0000
0000
,
0000
0000
0000
0000
,
1000
0000
0000
0000
,
0000
0000
0000
0000
,
0010
0000
0000
0000
,
0000
0000
0000
0000
,
0000
0000
0000
0000
,
0000
0000
0000
0000
,
0100
0000
0000
0000
,
0000
0000
0000
0000
,
0100
0000
0000
0000
,
0000
0000
0000
0000
,
0001
0000
0000
0000
,
0000
0000
0000
0000
,
0001
0000
0000
0000
,
0000
0000
0000
0000
,
1000
0000
0000
0000
,
0000
0000
0000
0000
,
0100
0000
0000
0000
,
0000
0000
0000
0000
,
1000
0000
0000
0000
,
0000
0000
0000
0000
,
1000
0000
0000
0000
,
0000
0000
0000
0000
,
0001
0000
0000
0000
,
0000
0000
0000
0000
,
0010
0000
0000
0000
,
0000
0000
0000
0000
,
0001
0000
0000
0000
,
0000
0000
0000
0000
,
1000
0000
0000
0000
,
0000
0000
0000
0000
,
0000
0000
0000
0000
,
0010
0000
0000
0000
,
0000
0000
0000
0000
,
0000
0000
0000
0000
,
0100
0000
0000
0000
,
0000
0000
0000
0000
,
0000
0000
0000
0000
,
0001
0000
0000
0000
,
0000
0000
0000
0000
,
0000
0000
0000
0000
,
0000
0000
0000
0000
,
0010
0000
0000
0000
,
0000
0000
0000
0000
,
0100
0000
0000
0000
,
0000
0000
0000
0000
,
1000
0000
0000
0000
,
0000
0000
0000
0000
,
0001
0000
0000
0000
,
0000
0000
0000
0000
,
0100
0000
0000
0000
,
0000
0000
0000
0000
,
0010
0000
0000
0000
,
0000
0000
0000
0000
,
1000
0000
0000
0000
,
0000
0000
0000
0000
,
0001
0000
0000
0000
,
0000
0000
0000
0000
,
0001
0000
0000
0000
,
0000
0000
0000
0000
,
0100
0000
0000
0000
,
0000
0000
0000
0000
,
1000
0000
0000
0000
,
0000
0000
0000
0000
,
0001
0000
0000
0000
,
0000
0000
0000
0000
,
0100
0000
0000
0000
,
0000
0000
0000
0000
,
0010
0000
0000
0000
,
0000
0000
0000
0000
,
0000
0000
0000
0000
,
1000
0000
0000
0000
;

//--------------- dance-single - forcednature ----------------
#NOTEDATA:;
#STEPSTYPE:dance-single;
#DESCRIPTION:forcednature;
#DIFFICULTY:Easy;
#METER:7;
#RADARVALUES:0,0,0,0,0;
#CREDIT:forcednature;
#NOTES:
0000
0000
0000
0000
,
0000
0000
0000
0000
,
0000
0000
0000
0000
,
0000
0000
0000
0000
,
0000
0000
0000
0000
,
0000
0000
0000
0000
,
0000
1000
0000
1000
,
0000
1000
0000
0000
,
0001
0000
0100
0000
,
0000
0000
0010
0010
,
1000
0000
0001
0010
,
0001
0000
0100
0000
,
0010
0000
1000
0010
,
1000
0000
0001
0000
,
0010
0000
0100
1000
,
0100
0000
0010
0000
,
0001
0000
0100
0001
,
0100
0000
0010
0000
,
1000
0000
0000
0000
,
0000
0000
0002
0000
,
0000
0023
0000
0000
,
0032
0000
0000
0003
,
0000
0000
2000
0000
,
0000
3020
0000
0000
,
2030
0000
0000
3000
,
0000
0000
0100
0000
,
0100
0000
0010
0000
,
0001
0000
1000
0000
,
0001
0000
0100
0000
,
0010
0000
1000
0000
,
0001
0001
0001
0000
,
0010
0000
0100
0000
,
1001
0000
0000
0000
,
1000
0000
0010
0000
,
1000
0001
1000
0000
,
0100
0000
0010
0000
,
0001
1000
0001
0000
,
0100
0000
0010
0000
,
1000
0100
1000
0000
,
0001
0000
0100
0001
,
0100
0000
0010
0100
,
0010
0000
1000
0010
,
1000
0000
0001
0000
,
1001
0000
1000
0100
,
1000
0000
0100
0000
,
0010
0001
0010
0000
,
0001
0001
0001
0000
,
0100
0001
1000
0010
,
0100
0000
0001
0000
,
0010
0100
1000
0001
,
0010
0000
0100
0000
,
0110
0000
1000
0000
,
1001
0000
0110
0000
,
1001
0000
0001
0000
,
0110
0000
1000
0000
,
0001
0100
0010
1000
,
0001
0000
0001
0000
,
1000
0100
0010
0001
,
1000
0000
1000
0000
,
0110
0000
0001
1000
,
0100
0000
1000
0001
,
0100
0000
0010
1000
,
0001
1000
0100
0000
,
0010
0010
0001
1000
,
0010
0010
0100
0000
,
0002
0000
0000
0003
,
1000
0000
0200
0000
,
0000
0300
0010
0000
,
0002
0000
0000
0003
,
1000
0000
0020
0000
,
0030
0200
0000
0300
,
0002
0000
0000
0003
,
1000
0000
0200
0000
,
0000
0300
0010
0000
,
0002
0000
0000
0003
,
1000
0000
0020
0000
,
0030
0200
0000
0300
,
0001
0000
1000
0000
,
0001
0000
0010
0100
,
0010
0000
0001
0000
,
1000
0000
0010
0100
,
0010
0000
1000
0000
,
0100
0000
0010
0001
,
0010
0000
0100
0000
,
1000
0000
0001
0100
,
0001
0000
0010
0000
,
0100
1000
0001
1000
,
0010
0000
0010
0000
,
0100
0001
1000
0001
,
0010
0000
0100
1000
,
0100
0000
1000
0010
,
1000
0000
1001
0000
,
0110
0000
0001
0010
,
0100
1000
0010
0000
,
1000
0100
1000
0001
,
0100
0000
0010
0000
,
1000
0001
0010
0100
,
0010
0000
0001
1000
,
1001
0000
0100
0000
,
0110
0000
1000
0001
,
1001
0000
0100
0000
,
0110
0000
0001
1000
,
1001
0000
0010
0100
,
0100
0010
0100
0000
,
0002
0000
0000
0003
,
0020
0000
0000
0030
,
0200
0000
0000
0300
2000
0000
0000
3000
,
0002
0000
0000
0000
,
0000
0000
0000
0000
,
0003
0000
0000
0000
;

//--------------- dance-single - forcednature ----------------
#NOTEDATA:;
#STEPSTYPE:dance-single;
#DESCRIPTION:forcednature;
#DIFFICULTY:Medium;
#METER:11;
#RADARVALUES:0,0,0,0,0;
#CREDIT:forcednature;
#NOTES:
0000
0000
0000
0000
,
0000
0000
0000
0000
,
0000
0000
0000
0000
,
0000
0000
0000
0000
,
0000
0000
0000
0000
,
0000
0000
0000
0000
,
0000
1000
0000
1000
,
0000
0000
1000
0000
0000
0000
0000
0001
,
0100
0000
0000
0000
0010
0000
0000
1000
,
0000
0001
0010
0010
,
0110
0100
1000
0001
,
0100
0010
1000
0000
,
0001
0010
0001
1000
,
0010
0100
0001
0000
,
1001
0000
1000
0100
,
1000
0001
0100
0000
,
0010
0000
1000
0000
0100
1000
0000
1001
,
0000
0000
0001
0000
0100
0001
0100
0000
,
0010
0000
0000
1000
,
0100
0010
0002
0000
,
0000
0020
0000
0000
,
0033
0000
0000
0001
,
0100
0010
2000
0000
,
0000
0000
0020
0000
0000
3000
0000
0000
,
0200
0000
0000
0330
0000
0000
0001
0000
,
0010
0100
1000
1000
,
0001
0100
0001
0010
,
0110
0100
1000
0001
,
1000
0000
0000
0010
0000
0010
0000
0100
,
0000
0001
1000
0001
,
0010
0010
0100
1000
,
0001
0100
0001
1000
,
0010
0000
0000
2002
0000
0000
3003
0000
,
1000
0100
1000
0001
,
0100
0000
0001
0000
0100
0001
0100
0000
,
0010
1000
0001
1000
,
0100
0000
1000
0000
0100
0010
0100
0000
,
0010
0001
1000
0001
,
0100
0000
0010
0000
1000
0001
1000
0000
,
0200
0000
0000
0320
0000
0000
0032
0000
,
0203
0000
0000
0320
0000
0000
2030
0000
,
3002
0000
0000
0020
0000
0000
0033
0000
,
2000
0000
0000
0020
0000
0000
3030
0000
,
0110
1000
0001
0100
,
0010
0000
1000
0001
0000
1000
0000
0000
,
0100
0010
0001
1000
,
0010
0100
0010
0100
0010
0000
0110
0000
,
0001
0100
0000
0010
0000
1000
0000
2002
,
0000
0000
3003
0000
,
1000
0100
0000
0010
0000
0001
0000
2002
,
0000
3003
0001
0100
,
0202
0303
1000
0010
,
2020
3030
0220
0330
,
2002
3003
0001
0010
,
0022
0033
2200
3300
,
1000
0001
0000
0100
0000
0010
0000
2002
,
0000
0000
3003
0000
,
0001
1000
0000
0100
0000
0010
0000
2002
,
0000
3003
1000
0010
,
0100
0000
0001
1000
0000
0001
0000
0000
,
0010
0000
0001
0010
0000
0100
1000
0000
,
0010
0000
1000
0001
0000
0100
0000
0000
,
0010
0000
1000
0100
0000
0010
0001
0000
,
0100
0000
0010
1000
0000
0001
0010
0000
,
0110
0000
0100
0000
1000
0001
1000
0000
,
0020
0000
0130
0001
,
1000
0000
0200
0000
,
0310
0001
1000
0000
,
0020
0000
0130
0001
,
1000
0000
0200
0000
,
0310
0001
1000
0001
,
0200
0000
0310
1000
,
0001
0000
0020
0000
,
0130
1000
0001
0000
,
0200
0000
0310
1000
,
0001
0000
0020
0000
,
0130
1000
0001
1000
,
0010
0010
0100
0110
,
1001
0000
1000
0000
0100
0000
0010
0001
,
0000
0010
0100
1000
,
0001
0000
0100
0000
0010
0000
1000
0001
,
0000
0010
0001
0100
,
0010
0000
1000
0010
1000
0000
0001
0000
,
0100
0000
0001
0010
0001
0000
1000
0000
,
0100
0000
0010
0000
0001
1000
0000
1001
,
0000
0000
0001
1000
0001
1000
0010
0000
,
0100
0001
0000
0010
0000
0011
0000
2200
,
0000
0000
3300
0000
,
0001
1000
0000
0010
0000
1010
0000
0202
,
0000
0303
1000
0001
,
0022
0033
0100
1000
,
2020
3030
0220
0330
,
2002
0000
3003
0000
0001
0000
1000
0001
,
1000
0010
0220
0330
,
0100
0001
0000
0010
0000
0110
0000
2002
,
0000
0000
3003
0000
,
0100
1000
0000
0010
0000
0110
0000
2002
,
0000
3003
1000
0100
,
0010
0000
0001
1000
0000
0001
1000
0000
,
0010
0000
1000
0001
0000
1000
0001
0000
,
0010
0000
0100
1000
0000
0100
1000
0000
,
0010
0000
0100
0001
0000
0100
0001
0000
,
1000
0000
0100
0010
0000
0100
0010
0000
,
0001
1001
1000
1001
,
0002
0000
0000
0000
0203
0000
0000
0000
0302
0000
0000
0000
,
2003
0000
0000
0000
3200
0000
0000
0000
2300
0000
0000
0000
,
3020
0230
0302
2003
,
3200
0000
0000
0000
,
0000
0000
0000
0000
,
0300
0000
0000
0000
;

//--------------- dance-single - forcednature ----------------
#NOTEDATA:;
#STEPSTYPE:dance-single;
#DESCRIPTION:forcednature;
#DIFFICULTY:Hard;
#METER:15;
#RADARVALUES:0,0,0,0,0;
#CREDIT:forcednature;
#NOTES:
0000
0000
0000
0000
,
0000
0000
0000
0000
,
0000
0000
0000
0000
,
0000
0000
0000
0000
,
0000
0000
0000
0000
,
0000
0000
0000
0000
,
0000
0000
0000
0000
,
0000
0000
0000
0000
,
0000
0000
0000
0000
,
0000
0000
0001
0001
,
1100
0000
0001
0100
0010
1000
0001
0010
,
0000
0100
0010
0001
1000
0001
0100
0000
,
0010
0000
0100
0001
1000
0001
0010
0100
,
0000
1000
0001
0001
0100
0010
1000
0000
,
1001
0000
0001
0010
0001
0100
0010
1000
,
0000
0100
1000
0001
0100
0010
1000
0000
,
0100
0000
0010
0100
1000
1010
0000
0011
,
0000
0001
0100
0100
0010
1000
0001
0000
,
0010
0000
0000
0200
,
2300
3002
0203
0000
,
0300
0020
0000
0000
,
0030
0000
0000
2000
,
3002
0023
0032
0000
,
0000
0203
0000
0300
,
0020
0000
0030
2000
,
3002
2003
3100
1001
,
0001
0100
0010
1000
0001
0000
1000
1000
,
0100
0010
0100
0000
0100
0001
0100
0000
,
0100
1000
0001
0010
0000
0001
1000
0010
,
0000
0010
0100
1000
0100
0010
0100
0001
,
1000
0000
1010
0000
0010
0100
1000
0100
,
0002
0023
0230
2300
,
3020
0000
0000
0030
0000
0000
2002
0000
0000
0000
0000
0000
3003
0000
0000
0000
,
2000
0000
0000
0000
3200
0000
0310
0001
,
0010
0000
0100
0001
0000
0100
1000
0000
,
1001
0000
0001
1000
0100
1000
0010
0000
,
0100
0000
1000
0100
0000
0001
0010
0000
,
0220
0000
0330
0000
0100
1000
0000
1000
,
0010
0000
0100
0001
0010
0001
1000
0000
,
1200
0000
0000
0302
0000
0000
2003
0000
,
3020
0000
0000
0032
0000
0000
2003
0000
,
3002
0000
0100
0203
0000
0000
1000
0000
,
2300
0000
0001
3002
0000
0013
1000
0000
,
1001
0011
0110
1100
,
2000
0000
0010
3020
0000
0032
0000
1003
,
0200
0000
0302
0000
0013
0100
1000
0000
,
0010
0001
0010
1000
0010
0000
1001
0000
,
1000
0100
0000
1010
0000
0011
0000
0101
,
0000
0100
0010
0010
1000
1000
0001
0001
,
0010
0100
0000
1100
0000
1010
0000
0101
,
0000
0001
1000
1000
0100
0100
0010
0010
,
0001
0000
0100
0010
1000
0001
0010
0000
,
0110
0100
1001
0010
,
0110
0000
1000
0001
0100
0010
1000
0000
,
0011
0000
0010
0010
0100
1000
0001
0000
,
1000
0010
0000
1100
0000
0101
0000
0021
,
0000
0031
1000
1000
0010
0010
0100
0100
,
0001
1000
0000
1010
0000
0011
0000
0102
,
0000
0103
0010
0010
1000
1000
0001
0010
,
0110
0000
0100
1000
0001
1000
0010
0000
,
0110
0000
0100
0001
1000
0001
0010
0000
,
1001
0000
0001
0100
1000
0100
0010
1000
,
1001
0000
1000
0100
0001
0100
0010
0010
,
0110
0000
0100
1000
0001
1000
0010
0100
,
0110
0000
0100
0001
1000
0001
0011
0000
,
0100
1000
0100
1000
0200
0000
0320
0000
,
0032
0000
0003
0000
0100
0001
0100
0001
,
0200
0320
2030
3000
,
0100
0010
0100
0010
0200
0000
2300
0000
,
3002
0000
0003
0000
0100
0010
0100
0010
,
0200
0000
0301
1000
0100
0010
0002
0000
,
1003
0010
1000
0010
0200
0000
0302
0000
,
2003
0000
3000
0000
0001
0010
0001
0010
,
0200
2300
3002
0003
,
0100
0010
0100
0010
2000
0000
3002
0000
,
0023
0000
0030
0000
0100
0010
0100
0010
,
0002
0000
1003
0010
0100
0001
0020
0000
,
0130
0000
1001
0000
1000
1000
0001
0000
,
0101
0000
0100
1000
0100
0010
1000
0001
,
0000
0010
0100
1000
0100
0010
0001
0000
,
1001
0000
1000
0010
0001
0010
0100
0001
,
0000
1000
0100
0001
0100
1000
0010
0000
,
0100
1000
0001
0010
1000
0001
0100
1000
,
0001
0010
1000
0001
1000
0100
0001
0000
,
1000
0010
0100
0010
0001
0011
0000
1010
,
0000
0000
0001
0000
0010
0001
0010
0000
0100
0010
0100
0000
1000
0000
0000
0000
,
0001
0100
0000
1010
0000
1100
0000
0101
,
0000
1000
0001
0001
0010
0010
0100
0100
,
1000
0010
0000
1100
0000
0101
0000
0011
,
0000
0001
1000
1000
0010
0010
0100
0001
,
0011
0000
0010
0100
1000
1000
0001
0100
,
0020
0000
1030
0001
0010
0100
1000
0000
,
1010
0000
0010
0100
1000
0100
0001
0010
,
0110
0000
0001
0001
0010
0001
1000
0000
,
0001
0100
0000
1010
0000
0101
0000
0021
,
0000
1030
0010
0010
0001
0001
1000
1000
,
0010
0100
0000
1100
0000
0101
0000
1020
,
0000
0000
0031
0000
0010
0000
0010
0000
1000
0000
0010
1000
0010
0000
1000
0001
,
1000
0000
0100
0001
0100
1000
0010
0000
,
1001
0000
0001
0100
1000
0100
0010
0000
,
1000
0100
0010
1000
0001
0100
0010
0001
,
1000
0010
0001
0001
0010
0100
0001
0000
,
0010
0100
0010
0000
0100
0000
1000
0000
0001
0000
0010
0000
0100
0000
1000
0000
,
0010
0100
0010
0000
0100
0000
0001
0000
0011
0000
0000
0000
1010
0000
0000
0000
,
0002
0000
0000
0000
2003
0000
0000
0000
3200
0000
0000
0000
,
2300
0000
0000
0000
3002
0000
0000
0000
0203
0000
0000
0000
,
0310
0000
0000
1000
0000
0000
0001
0000
0000
0010
0000
0000
0001
0000
0100
0000
0001
0000
1000
0000
0100
0000
1000
0000
,
0020
0000
0000
0000
,
0000
0000
0000
0000
,
0030
0000
0000
0000
;

//--------------- dance-double - forcednature ----------------
#NOTEDATA:;
#STEPSTYPE:dance-double;
#DESCRIPTION:forcednature;
#DIFFICULTY:Easy;
#METER:5;
#RADARVALUES:0,0,0,0,0;
#CREDIT:forcednature;
#NOTES:
00000000
00000000
00000000
00000000
,
00000000
00000000
00000000
00000000
,
00000000
00000000
00000000
00000000
,
00000000
00000000
00000000
00000000
,
00000000
00000000
00000000
00000000
,
00000000
00000000
00000000
00000000
,
00000000
00000000
00000000
00000000
,
00000000
00000000
00000000
00000000
,
00000000
00000000
00000000
00000000
,
00000000
00000000
00000000
00000000
,
00010000
00000000
00000000
00000000
,
00001000
00000000
00000000
00000000
,
01000000
00000000
00000000
00000000
,
00010000
00000000
00000000
00000000
,
10000000
00000000
00000000
00000000
,
01000000
00000000
00000000
00000000
,
00100000
00000000
00000000
00000000
,
00001000
00000000
00000000
00000000
,
00011000
00000000
00000000
00000000
,
00000000
00000000
00010000
00000000
,
00000000
00000000
00000000
00000000
,
00000100
00000000
00000000
00000000
,
00000000
00000000
00001000
00000000
,
00000000
00000000
00000000
00000000
,
00000001
00000000
00000000
00000000
,
00000000
00000000
00000100
00000000
,
00000000
00000000
00000010
00000000
,
00000110
00000000
00000000
00000000
,
00000100
00000000
00000001
00000000
,
00000100
00000000
00000000
00000000
,
00000010
00000000
00000100
00000000
,
00000010
00000000
00000010
00000000
,
00000010
00000000
00000000
00000000
,
00010000
00000000
00010000
00000000
,
00010000
00000000
00000000
00000000
,
00001000
00000000
00100000
00000000
,
00001000
00000000
00000000
00000000
,
00100000
00000000
00010000
00000000
,
00100000
00000000
00000000
00000000
,
01100000
00000000
00000000
00000000
,
11000000
00000000
00000000
00000000
,
10000000
00000000
00010000
00000000
,
10000000
00000000
00000000
00000000
,
00100000
00000000
10000000
00000000
,
00100000
00000000
00000000
00000000
,
01000000
00000000
01000000
00000000
,
01000000
00000000
00000000
00000000
,
10010000
00000000
00000000
00000000
,
00010000
00000000
01000000
00000000
,
00001000
00000000
00010000
00000000
,
00000010
00000000
00000000
00000000
,
00001001
00000000
00000000
00000000
,
00001000
00000000
00000100
00000000
,
00010000
00000000
00001000
00000000
,
00100000
00000000
00000000
00000000
,
10010000
00000000
00000000
00000000
,
00010000
00000000
00100000
00000000
,
00001000
00000000
00010000
00000000
,
00000100
00000000
00000000
00000000
,
00001001
00000000
00000000
00000000
,
00000110
00000000
00000000
00000000
,
00001000
00000000
00001000
00000000
,
00000010
00000000
00000000
00000000
,
00010000
00000000
00001000
00000000
,
00010000
00000000
00000000
00000000
,
00001000
00000000
00000000
00000000
,
00000000
00000000
00100000
00000000
,
00000000
00000000
00000000
00000000
,
01000000
00000000
00000000
00000000
,
00000000
00000000
10000000
00000000
,
00000000
00010000
00000000
00000000
,
01000000
00000000
00000000
00000000
,
00000000
00000000
00001000
00000000
,
00000000
00000000
00000000
00000000
,
00010000
00000000
00000000
00000000
,
00000000
00000000
00000010
00000000
,
00000000
00001000
00000000
00000000
,
00000001
00000000
00000001
00000000
,
00000010
00000000
00000100
00000000
,
00000010
00000000
00000000
00000000
,
00000100
00000000
00001000
00000000
,
00000100
00000000
00000000
00000000
,
00010000
00000000
00001000
00000000
,
00010000
00000000
00000000
00000000
,
00001000
00000000
01000000
00000000
,
00001000
00000000
00000000
00000000
,
01000000
00100000
01000000
00000000
,
00100000
00000000
00000000
00000000
,
10000000
00010000
10000000
00000000
,
00010000
00000000
00000000
00000000
,
00100000
00000000
01000000
00000000
,
00100000
00000000
00000000
00000000
,
00001000
00000000
00010000
00000000
,
00001000
00000000
00000000
00000000
,
00010000
00000100
00010000
00000000
,
00000100
00000000
00000000
00000000
,
00001000
00000010
00001000
00000000
,
00000010
00000000
00000000
00000000
,
00000110
00000000
00000000
00000000
,
00001001
00000000
00000000
00000000
,
00001000
00000000
00000100
00000000
,
00010000
00000000
00001000
00000000
,
01000000
00000000
00010000
00000000
,
00100000
00100000
00100000
00000000
,
00010000
00000000
00000000
00000000
,
01000000
00000000
00000000
00000000
,
00001000
00000000
00000000
00000000
,
00020000
00000000
00000000
00000000
,
00000000
00000000
00000000
00000000
,
00030000
00000000
00000000
00000000
;

//--------------- dance-double - forcednature ----------------
#NOTEDATA:;
#STEPSTYPE:dance-double;
#DESCRIPTION:forcednature;
#DIFFICULTY:Medium;
#METER:11;
#RADARVALUES:0,0,0,0,0;
#CREDIT:forcednature;
#NOTES:
00000000
00000000
00000000
00000000
,
00000000
00000000
00000000
00000000
,
00000000
00000000
00000000
00000000
,
00000000
00000000
00000000
00000000
,
00000000
00000000
00000000
00000000
,
00000000
00000000
00000000
00000000
,
00000000
00001000
00000000
00001000
,
00000000
00000000
00010000
00000000
00000000
00000000
00000000
00010000
,
00001000
00000000
00000000
00000000
00100000
00000000
00000000
00100000
,
00000000
01000000
10000000
10000000
,
10010000
00010000
01000000
00001000
,
00000000
00010000
00000100
00010000
,
00001000
00100000
00001000
00010000
,
00000000
00000010
00001000
00000001
,
00001000
00000100
00010000
00001000
,
00000000
01000000
00010000
01000000
,
00100000
00000000
10000000
00000000
01000000
10000000
00000000
01000000
,
00000000
00010000
00001000
00011000
,
00010000
00000000
00000000
00000100
,
00001000
00000100
00000020
00000000
,
00000000
00000002
00000000
00000000
,
00000033
00000000
00000000
00000001
,
00000100
00000001
00002000
00000000
,
00000000
00003200
00000000
00000000
,
00020000
00000000
00000000
00030300
00000000
00000000
00010000
00000000
,
00001000
01000000
00010000
00010000
,
10000000
10000000
00100000
01000000
,
01100000
00000000
00100000
10000000
,
00010000
00000000
00000000
00100000
00000000
00100000
00000000
00001000
,
00000000
00010000
00001000
00010000
,
00000010
00000010
00001000
00000000
,
00000002
00000023
00000230
00020300
,
00032000
00000000
00000000
00020000
00000000
00000000
00033000
00000000
,
01000000
00010000
01000000
00100000
,
10000000
00000000
00100000
00000000
10000000
00010000
10000000
00000000
,
01000000
00010000
00001000
00010000
,
00000010
00000000
00001000
00000000
00000010
00000100
00000010
00000000
,
00000100
00000001
00000010
00000001
,
00000100
00000000
00000010
00000000
00001000
00000010
00001000
00000000
,
00000200
00000000
00000000
00020300
00000000
00000000
00032000
00000000
,
02003000
00000000
00000000
03002000
00000000
00000000
00023000
00000000
,
00230000
00000000
00000000
02000000
00000000
00000000
03300000
00000000
,
20000000
00000000
00000000
00020000
00000000
00000000
30030000
00000000
,
10010000
10000000
01000000
00010000
,
00001000
00000000
00001000
00010000
00000000
00010000
00001000
00000000
,
00000010
00000000
00000100
00000000
00000010
00000100
00000010
00000000
,
00000001
00001000
00000001
00001000
00000001
00000000
00001001
00000000
,
00001000
00000100
00000000
00010000
00000000
00001000
00000000
00022000
,
00000000
00000000
00033000
00000000
,
00001000
01000000
00000000
00010000
00000000
10000000
00000000
20020000
,
00000000
30030000
10000000
01000000
,
02200000
03300000
00100000
00001000
,
00022000
00033000
00020200
00030300
,
00000220
00000330
00000010
00000001
,
00002002
00003003
00002200
00003300
,
00000100
00010000
00000000
00001000
00000000
00100000
00000000
02200000
,
00000000
00000000
03300000
00000000
,
00100000
00001000
00000000
00010000
00000000
00000010
00000000
00000220
,
00000000
00000000
00000330
00000010
,
00001001
00000000
00001000
00000000
00000100
00001000
00000100
00000000
,
00010000
00000000
00001000
00000000
01000000
00010000
01000000
00000000
,
00100000
00000000
10000000
00000000
00010000
00100000
00010000
00000000
,
01000000
00000000
00001000
00000000
00010000
00001000
00010000
00000000
,
00000100
00000000
00001000
00000000
00000001
00000100
00000001
00000000
,
00000010
00000110
00000100
00001001
,
00001000
00000100
00010000
00001000
,
00100000
00000000
00010000
01000000
,
00001000
00010000
00000010
00000000
,
00001000
00000100
00010000
00001000
,
00100000
00000000
00010000
01000000
,
00001000
00010000
00000100
00001000
,
00000010
00010000
00001000
01000000
,
00010000
00000000
00100000
00001000
,
00010000
00000100
00001000
00000000
,
00000010
00010000
00001000
01000000
,
00010000
00000000
00100000
00001000
,
00010000
00000010
00010000
00001000
,
00100000
01000000
00100000
01100000
,
10010000
00000000
10000000
00000000
01000000
00000000
00010000
00001000
,
00000000
00010000
01000000
10000000
,
00010000
00000000
01000000
00000000
00001000
00000000
00010000
00000010
,
00000000
00010000
00001000
00000010
,
00000110
00000100
00001000
00000010
,
00000110
00000100
00000001
00000010
,
00000110
00000000
00000100
00000000
00000000
00001000
00000000
00011000
,
00000000
00000000
00010000
00001000
00010000
00001000
00100000
00000000
,
01000000
10000000
00000000
00100000
00000000
10100000
00000000
20020000
,
00000000
00000000
30030000
00000000
,
00010000
01000000
00000000
00001000
00000000
00011000
00000000
00020200
,
00000000
00030300
00000100
00000010
,
00000220
00000330
00000100
00010000
,
00022000
00033000
02002000
03003000
,
02200000
00000000
03300000
00000000
00100000
00000000
10000000
00010000
,
10000000
01000000
02200000
03300000
,
00100000
00001000
00000000
00010000
00000000
00010100
00000000
00002200
,
00000000
00000000
00003300
00000000
,
00000100
00000010
00000000
00000001
00000000
00000101
00000000
00000220
,
00000000
00000000
00000330
00000010
,
00001000
00000000
00000010
00000000
00010000
00001000
00010000
00000000
,
00001000
00000000
00100000
00000000
00010000
10000000
00010000
00000000
,
01000000
00000000
00001000
00000000
00010000
00001000
00010000
00000000
,
00000100
00000000
00001000
00000000
00000001
00001000
00000001
00000000
,
00000100
00000000
00000010
00000000
00001000
00000010
00001000
00000000
,
00000100
00000110
00000010
00000110
,
00000200
00000000
00000000
00000000
00020300
00000000
00000000
00000000
00032000
00000000
00000000
00000000
,
02003000
00000000
00000000
00000000
03002000
00000000
00000000
00000000
00023000
00000000
00000000
00000000
,
00030020
00020030
00032000
00203000
,
02300000
00000000
00000000
00000000
,
00000000
00000000
00000000
00000000
,
03000000
00000000
00000000
00000000
;

//--------------- dance-double - forcednature ----------------
#NOTEDATA:;
#STEPSTYPE:dance-double;
#DESCRIPTION:forcednature;
#DIFFICULTY:Hard;
#METER:16;
#RADARVALUES:0,0,0,0,0;
#CREDIT:forcednature;
#NOTES:
00000000
00000000
00000000
00000000
,
00000000
00000000
00000000
00000000
,
00000000
00000000
00000000
00000000
,
00000000
00000000
00000000
00000000
,
00000000
00000000
00000000
00000000
,
00000000
00000000
00000000
00000000
,
00000000
00000000
00000000
00000000
,
00000000
00000000
00000000
00000000
,
00000000
00000000
00000000
00000000
,
00000000
00000000
00000000
00000000
00001000
00010000
00001000
00010000
,
00001000
00000000
00010000
01000000
00100000
01000000
10000000
00010000
,
00000000
00100000
00001000
00010000
00000100
00010000
00001000
00000000
,
00011000
00000000
00010000
00000010
00001000
00000010
00000100
00001000
,
00000000
00000100
00000001
00000100
00000010
00001000
00000010
00000000
,
00011000
00000000
00001000
00100000
00010000
00100000
01000000
00010000
,
00000000
01000000
10000000
00010000
00100000
00001000
00010000
00000000
,
00011000
00000000
00001000
00000010
00000001
00000100
00000000
00000110
,
00000000
00000010
00010000
00001000
00010000
00000100
00000010
00000000
,
00000001
00000000
00000000
00000200
,
00002300
00023000
00230000
00000000
,
00300000
20000000
00000000
00000000
,
30000000
00000000
00000000
02000000
,
03020000
00032000
00003020
00000000
,
00000030
00000002
00000000
00000003
,
00002002
00000000
00003003
00002000
,
00003020
00020030
00031000
00011000
,
00010000
00001000
01000000
00010000
20000000
00000000
32000000
00000000
,
03010000
00001000
00010000
00000000
00000100
00001000
00000100
00000000
,
00000010
00000001
00001000
00000010
00000000
00000100
00001000
00010000
,
00000000
00001000
00010000
00100000
01000000
00100000
10000000
00000000
,
10010000
00000000
10010000
00000000
10000000
01000000
00010000
00000000
,
00002000
00003020
00000032
00000203
,
00002300
00000000
00003000
00020000
00000000
00000000
00030000
00000000
,
00100000
10000000
00100000
00000000
10000000
01000000
10000000
00000000
,
01000000
00000000
00010000
00001000
00000000
00100000
00001000
00000000
,
00011000
00000000
00010000
00000000
00000100
00001000
00000001
00000000
,
00000100
00000000
00001000
00010000
00000000
00001000
00100000
00000000
,
01100000
00000000
01000000
00000000
10000000
00100000
10000000
00000000
,
01000000
00000000
00010000
00001000
00100000
00001000
00010000
00000000
,
00000020
00000000
00000000
00000230
00000000
00000000
00002300
00000000
,
00023000
00000000
00000000
02030000
00000000
00000000
03200000
00000000
,
00320000
00000000
00000000
20030000
00000000
00000000
00100000
00000000
,
30200000
00000000
00000000
00320000
00000000
00000000
00031000
00000000
,
00011000
00000000
00010000
00001000
00000010
00000000
00001000
00000010
,
00000001
00000000
00000001
00000100
00000000
00000100
00001000
00000000
,
00011000
00000000
00011000
00000000
00001000
00010000
00100000
00000000
,
10000000
01000000
00010000
00001000
00100000
00000000
01100000
00000000
,
01000000
00010000
00000000
00011000
00000000
00101000
00000000
01100000
,
00000000
01000000
00010000
00001000
00000010
00000100
00000010
00000001
,
00000100
00000010
00000000
00001010
00000000
00011000
00000000
01010000
,
00000000
01000000
00010000
10000000
00010000
00100000
01000000
00000000
,
01100000
00000000
00100000
00001000
00010000
00000100
00000010
00000000
,
00000110
00000000
00000100
00010000
00001000
00000000
00000100
00000001
,
00001000
00000000
00000010
00010000
00001000
01000000
00010000
00000000
,
10010000
00000000
10000000
10000000
01000000
00010000
00001000
00000000
,
00100000
00010000
00000000
01010000
00000000
01001000
00000000
00021000
,
00000000
00031000
00010000
00100000
00010000
00001000
00000100
00001000
,
00010000
00000010
00000000
00001010
00000000
00001100
00000000
00000120
,
00000000
00000031
00000100
00000001
00000010
00000100
00010000
00000000
,
00011000
00000000
00001000
00100000
00010000
00100000
01000000
00000000
,
01100000
00000000
01000000
10000000
00010000
10000000
00100000
00000000
,
01100000
00000000
01000000
00001000
00010000
00001000
00100000
00000000
,
01100000
00000000
01000000
00010000
00001000
00010000
00001000
00000000
,
00010000
00000100
00001000
00000010
00010000
00001000
00100000
00010000
,
01000000
00000000
01100000
00000000
00100000
10000000
01000000
00000000
,
00010000
00001000
00010000
00001000
00010000
00000000
00000100
00000000
,
00000010
00000000
00000000
00000000
00001000
00010000
00001000
00010000
,
00001000
01000000
00100000
00000000
,
00010000
00001000
00010000
00001000
00010000
00000000
00000100
00000000
,
00000010
00000000
00000000
00000000
00001000
00010000
00001000
00010000
,
00001000
00000000
01000000
00100000
10000000
01000000
00100000
00000000
,
00010000
00001000
00010000
00001000
00010000
00000000
00000010
00000000
,
00000100
00000000
00000000
00000000
00001000
00010000
00001000
00010000
,
00001000
00100000
01000000
00000000
,
00010000
00001000
00010000
00001000
00010000
00000000
00000010
00000000
,
00000100
00000000
00000000
00000000
00001000
00010000
00001000
00010000
,
00001000
00000000
00000010
00000100
00001000
00000001
00000100
00000000
,
00000110
00000000
00000110
00000000
00000010
00010000
00001000
00000000
,
00011000
00000000
00010000
00100000
01000000
00100000
10000000
00010000
,
00000000
10000000
01000000
00010000
00001000
00100000
01000000
00000000
,
01100000
00000000
00100000
00001000
00010000
00000100
00010000
00001000
,
00000000
00000010
00000001
00000100
00001000
00000100
00000001
00000000
,
00000010
00000100
00010000
00001000
00010000
00000100
00000010
00000100
,
00010000
00001000
00010000
00100000
01000000
00100000
00010000
00000000
,
00011000
00000000
00001000
00000010
00000100
00010000
00000000
00011000
,
00000000
00001000
01000000
00100000
01000000
00001000
00010000
00000000
,
00100000
10000000
00000000
11000000
00000000
01010000
00000000
00011000
,
00000000
00001000
00000010
00000100
00000010
00000001
00001000
00000001
,
00000100
00001000
00000000
00011000
00000000
01001000
00000000
01100000
,
00000000
00100000
10000000
00010000
10000000
01000000
00010000
00001000
,
00100000
00000000
01000000
00010000
00001000
00000010
00000100
00000000
,
00000110
00000000
00000010
00000001
00001000
00000001
00000100
00000000
,
00000110
00000000
00000010
00010000
00001000
01000000
00010000
00100000
,
01000000
00000000
01100000
00000000
00100000
00001000
00010000
00000000
,
00100000
10000000
00000000
11000000
00000000
01010000
00000000
00011000
,
00000000
00001000
00000010
00000100
00010000
00000010
00000100
00000010
,
00001000
00000100
00000000
00000110
00000000
00001010
00000000
00011000
,
00000000
00010000
00100000
01000000
00100000
10000000
01000000
00010000
,
00001000
00000000
00100000
01000000
00100000
00001000
00010000
00000000
,
00011000
00000000
00001000
00000010
00000100
00010000
00000010
00000000
,
00000100
00001000
00000100
00000001
00000010
00000100
00010000
00000000
,
00001000
01000000
00010000
00100000
01000000
00010000
00001000
00000000
,
00010000
00001000
00010000
00000000
00000100
00000000
00010000
00000000
00001000
00010000
00001000
00000000
01000000
00000000
00001000
00000000
,
00010000
00001000
00010000
00000000
00001000
00010000
00001000
00000000
00010000
00000000
00000000
00000000
00011000
00000000
00000000
00000000
,
00002000
00000000
00000000
00000000
00003020
00000000
00000000
00000000
00000032
00000000
00000000
00000000
,
00000203
00000000
00000000
00000000
00000302
00000000
00000000
00000000
00000023
00000000
00000000
00000000
,
00001030
00000000
00000000
00010000
00000000
00000000
00001000
00000000
00000000
01000000
00000000
00000000
00010000
00000000
10000000
00000000
01000000
00000000
10000000
00000000
00010000
00000000
01000000
00000000
,
00200000
00000000
00000000
00000000
,
00000000
00000000
00000000
00000000
,
00300000
00000000
00000000
00000000
;
