#VERSION:0.83;
#TITLE:リリーゼと炎龍レーヴァテイン;
#SUBTITLE:;
#ARTIST:黒猫ダンジョン;
#TITLETRANSLIT:Lilieze to enryuu Laevateinn;
#SUBTITLETRANSLIT:;
#ARTISTTRANSLIT:Kuroneko Dungeon;
#GENRE:OLDSTYLE GAMEMUSIC;
#CREDIT:;
#MUSIC:Lilieze to enryuu Laevateinn.ogg;
#BANNER:Lilieze to enryuu Laevateinn.png;
#BACKGROUND:Lilieze to enryuu Laevateinn-bg.png;
#CDTITLE:./CDTitles/REFLEC BEAT -colette-.png;
#SAMPLESTART:81.944;
#SAMPLELENGTH:15.000;
#SELECTABLE:YES;
#OFFSET:1.437;
#BPMS:0.000=200.000;
#STOPS:;
#TIMESIGNATURES:0.000=4=4,
120.000=2=4,
122.000=4=4,
250.000=3=4,
262.000=4=4
;
#BGCHANGES:4.000=Lilieze to enryuu Laevateinn.mp4=1.000=0=0=0=StretchNoLoop====,
99999.000=-nosongbg-=1.000=0=0=0=StretchNoLoop====
;
#FGCHANGES:;

//--------------- dance-single - forcednature ----------------
#NOTEDATA:;
#STEPSTYPE:dance-single;
#DESCRIPTION:forcednature;
#CREDIT:forcednature;
#DIFFICULTY:Beginner;
#METER:7;
#RADARVALUES:0,0,0,0,0;
#NOTES:
0000
0000
0000
0000
,
0000
0000
0000
0000
,
0000
0000
0000
0000
,
0000
0000
0000
0000
,
0000
0000
0000
0000
,
0000
0000
0000
0000
,
1001
0000
0001
0000
,
0100
0000
0010
0000
,
1000
0000
0100
0000
,
0010
0100
0010
0100
,
0010
0000
0110
0000
,
1001
0000
0110
0000
,
1000
0000
0110
0000
,
1001
0000
0110
0000
,
0001
0000
0110
0000
,
1001
0000
0110
0000
,
1000
0000
0110
0000
,
1001
0000
0110
0000
,
1000
0100
0010
0001
,
0010
0100
1000
0000
,
0001
0100
0010
1000
,
0010
0100
0001
0000
,
1000
0100
1000
0001
,
0100
0001
1000
0000
,
0001
0010
0001
1000
,
0010
1000
0001
0000
,
1001
0001
1000
1000
,
0010
0010
0100
0100
,
0001
0001
1000
1000
,
0100
0100
0010
0010
,
0000
0100
1001
0000
,
1000
0000
0001
0000
,
0100
0000
0001
0000
,
1000
0000
0100
0000
,
0010
0000
0110
0000
,
0100
0000
1000
0000
,
0001
0000
0110
0000
,
0001
0000
1001
0000
,
1000
0000
0010
1000
,
0010
1000
0001
0100
,
0001
0000
0010
0001
,
0010
0001
1000
0100
,
1000
0000
0010
1000
,
0001
0010
0001
1000
,
0010
0000
0100
0001
,
1000
0100
1000
0001
,
0100
0000
0000
0000
1000
0000
0000
0001
,
0000
0000
1000
0000
0000
0001
0000
0000
,
0100
0000
0100
0000
0001
0000
0000
1000
,
0000
0000
0001
0000
0000
1000
0000
0000
,
0100
0000
0100
0000
1000
0000
0000
0010
,
0000
0000
0001
0000
0000
0010
0000
0000
,
0100
0000
0100
0000
0001
0000
0000
0010
,
0000
0000
1000
0000
0000
0010
0000
0000
,
0100
0100
1000
0000
,
0001
0000
0100
0100
,
0010
0010
1000
1000
,
0001
0000
0010
0100
,
0010
0000
1001
0000
,
0001
0000
0100
0100
,
0010
0010
1000
1000
,
0001
0000
0010
0100
,
0010
0000
0100
0100
,
0100
0000
0000
0000
,
1000
0000
0001
0000
1000
0000
0001
0000
0000
0000
0000
0000
,
0000
0000
0100
0100
,
0010
0000
1000
0001
,
0010
0000
0100
0000
,
1001
0000
0010
0000
,
1000
0000
0001
0000
2000
0000
0000
3020
,
0000
0000
0130
0001
,
0010
0000
0100
0000
0020
0000
0000
0032
,
0000
0203
0000
0000
,
0000
0000
0300
0000
0020
0000
0000
2030
,
0000
0000
3001
1000
,
0100
0000
0010
0000
0002
0000
0000
0203
,
0000
0000
0320
0000
2030
0000
0000
3002
,
0000
0000
0003
0000
2000
0000
0000
3200
,
0000
0000
0310
0001
,
1000
0000
0010
0000
0200
0000
0000
0302
,
0000
2003
0000
0000
,
0000
0000
3000
0000
0200
0000
0000
0320
,
0000
0000
0031
0100
,
0010
0000
1000
0000
0001
0000
0000
0010
,
0000
0000
0100
0000
0000
1000
0000
0000
,
0001
1000
0000
0000
1000
0000
0000
0010
,
0000
0000
0100
0000
0000
0001
0000
0000
,
1000
0001
0000
0000
1001
0000
0000
0001
,
0000
0000
0100
0000
0000
1000
0000
0000
,
0100
0000
0000
0010
0000
0000
0100
0100
;

//--------------- dance-single - forcednature ----------------
#NOTEDATA:;
#STEPSTYPE:dance-single;
#DESCRIPTION:forcednature;
#CREDIT:forcednature;
#DIFFICULTY:Easy;
#METER:11;
#RADARVALUES:0,0,0,0,0;
#NOTES:
0000
0000
0000
0000
,
0000
0000
0000
0000
,
0000
0000
0000
0000
,
0000
0000
0000
0000
,
0000
0000
0000
0000
,
0000
0000
0000
0000
,
1001
0001
0100
0001
,
1000
0010
1000
0100
,
0010
0001
0100
0010
,
1000
1000
0001
0001
,
1001
0000
1100
0000
,
1001
0000
0101
0000
,
0110
0000
1010
0000
,
0110
0000
0011
0000
,
1100
0000
1010
0000
,
0101
0000
0011
0000
,
1100
0000
0101
0000
,
1010
0000
0011
0000
,
0001
0000
0100
0000
0010
1000
0010
0000
,
0100
0001
0100
0000
0010
0000
1000
0000
,
0001
0000
0010
0000
0100
1000
0100
0000
,
0010
0001
0010
0000
0100
0000
1000
0000
,
0001
0000
0100
0000
0010
1000
0001
0000
,
0010
0001
1000
0000
0010
0000
0100
0000
,
0001
0000
1000
0000
0100
0010
0001
0000
,
0100
0010
1000
0000
0100
0000
0010
0000
,
0110
0100
1000
1000
,
0001
0001
0100
0100
,
0010
0010
1000
1000
,
0001
0000
0001
0000
0010
0100
0010
0100
,
0000
1001
0110
0001
,
0001
0100
0000
0100
0010
0000
0010
1000
,
0000
1000
0001
0000
1000
0000
0100
0000
,
0010
0001
0000
0001
0100
0000
0100
0010
,
0000
0010
1000
0000
1001
0000
0001
0000
,
0010
0100
0000
0100
0010
0000
0010
0001
,
0000
0001
0100
0000
0110
0000
0010
0000
,
1000
0100
0000
0100
0010
0000
0010
0100
,
0000
0100
1000
0000
0001
0100
0001
0000
,
1000
0010
1000
0000
0001
1000
0001
1000
,
0100
0010
0100
0000
1000
0100
1000
0000
,
0001
0010
0001
0000
1000
0010
1000
0010
,
0100
0001
0100
0000
0001
1000
0001
0000
,
0100
0010
0100
0000
0001
0010
0001
0010
,
0100
1000
0100
0000
1000
0010
1000
0000
,
0001
0100
0001
0000
1000
0100
0010
0001
,
0100
0010
1000
0000
1001
0000
0000
1100
,
0000
0000
1001
0000
0000
0101
0000
0000
,
0001
0100
1000
0000
0110
0000
0000
1010
,
0000
0000
0011
0000
0000
0110
0000
0000
,
0001
0010
1000
0000
0011
0000
0000
1010
,
0000
0000
0101
0000
0000
1100
0000
0000
,
0100
0100
0010
0000
1001
0000
0000
1100
,
0000
0000
1001
0000
0000
0101
0000
0000
,
0010
0100
0010
0000
1001
0000
1000
0000
,
0001
0100
0001
0000
0010
0010
0010
0000
,
0100
0100
0100
0000
2000
0000
3002
0000
,
1003
0010
1000
0000
0001
0100
0001
1000
,
0100
0010
0001
0000
0110
0000
0001
0000
,
1000
0100
1000
0000
0010
0100
0010
0100
,
0001
1000
0100
0000
0020
0000
0032
0000
,
0103
0001
1000
0000
0010
1000
0001
0100
,
0001
1000
0100
0000
0110
0000
0110
0000
,
1001
0000
0000
0000
0000
0000
0001
0000
0100
0000
0010
0000
,
1000
0000
1000
0000
1000
0000
1000
0000
0000
0100
0000
0000
,
0010
0000
0010
0001
0000
0000
0011
0000
0000
0110
0000
0000
,
1001
0001
1100
0101
,
1010
0000
0000
0001
0000
0001
0010
0000
0000
0100
0000
0000
,
1100
0000
0000
1000
0000
1000
0010
0000
0000
0100
0000
0000
,
0001
1000
0001
1000
0200
0000
0000
0320
,
0000
0000
0031
0100
,
0010
0000
1000
0000
2001
0000
0000
3200
,
0000
0320
0001
0100
,
1000
0000
0130
0000
1002
0000
0000
0023
,
0000
0000
0031
0100
,
0010
0000
1000
0000
0011
0000
0010
0100
,
1000
0000
1010
0000
0010
0100
0001
0000
,
1000
0001
1000
0001
0200
0000
0000
0320
,
0000
0000
1030
0100
,
0010
0000
0001
0000
0200
0000
0000
0320
,
0000
2030
0100
0001
,
0010
0000
3001
0000
1200
0000
0000
0320
,
0000
0000
0031
1000
,
0010
0000
0100
0000
0001
0010
0000
0100
,
1000
0000
0010
1000
0000
0001
0010
0000
,
0100
0100
0000
0000
0010
0001
0000
1000
,
0010
0000
1000
0100
0000
0010
0001
0000
,
0100
0100
0000
0000
1001
0000
0000
1000
,
0000
0000
0010
0000
0000
0100
0000
0000
,
0001
0000
0000
0010
0010
0010
0100
0100
;

//--------------- dance-single - forcednature ----------------
#NOTEDATA:;
#STEPSTYPE:dance-single;
#DESCRIPTION:forcednature;
#CREDIT:forcednature;
#DIFFICULTY:Medium;
#METER:15;
#RADARVALUES:0,0,0,0,0;
#NOTES:
0000
0000
0000
0000
,
0000
0000
0000
0000
,
0000
0000
0000
0000
,
0000
0000
0000
0000
,
0000
0000
0000
0000
,
0000
0000
0000
0000
,
0101
0000
1000
0000
0010
1000
0001
1000
,
0000
0100
0010
0001
0100
0010
0000
1000
,
0001
0010
0001
0100
0010
1000
0001
1000
,
0000
0100
0010
0100
0010
0100
0010
0100
,
1100
0000
0000
0001
0000
0100
0001
0000
0000
1000
0000
0000
,
0010
0000
0000
0100
0000
0001
0010
0000
0000
0100
1000
0001
,
0010
0000
0000
0001
0000
1000
0010
0000
0000
0100
0000
0000
,
0001
0000
1000
0100
0000
0000
0010
0001
0100
0010
1000
0001
,
1000
0000
0000
0010
0000
0010
0100
0000
0000
0001
0000
0000
,
0010
0000
0000
0100
0000
0100
1000
0000
0000
0001
0100
0010
,
1000
0000
0000
1000
0000
0001
0010
0000
0000
0100
0000
0000
,
0010
0000
0000
0001
0000
0100
0010
1000
0001
1000
0100
0010
,
0001
0100
0001
1000
0010
1000
0001
1000
,
0100
0001
0100
0010
0001
1000
0010
0000
,
0100
0001
0100
1000
0100
0010
1000
0001
,
1000
0100
0010
0001
0100
0010
1000
0000
,
0001
0010
1000
0010
0100
1000
0001
1000
,
0010
0001
0010
0100
0001
1000
0100
0000
,
0010
0001
0100
0010
0100
0001
0010
1000
,
0010
0100
1000
0001
1000
0010
0100
0000
,
0201
0001
0010
0010
,
1000
1000
0010
0010
,
0001
0010
1000
0010
,
0001
0000
1000
0000
0010
0010
0010
0310
,
0000
0000
0000
0000
0001
1000
0001
1000
0001
0000
0000
0000
0100
0000
0001
0000
,
0001
1000
0010
0010
1000
0100
0100
0020
,
0000
0000
0002
0000
0033
0000
0001
0100
,
0100
0010
1000
1000
0100
0010
0010
0001
,
0100
0001
0100
0000
0010
1000
0010
1000
0001
0000
0000
0000
1000
0000
0100
0000
,
0100
0010
0100
0100
1000
0001
0001
0200
,
0000
0000
0020
0000
0330
0000
0001
0100
,
0100
1000
0100
0100
0010
1000
1000
0001
,
0010
0001
0010
0000
0100
1000
0100
1000
0001
0000
0100
0000
0001
0000
0100
0000
,
0010
1000
0010
1000
0001
1000
0100
0010
,
0001
0100
0010
0000
1000
0001
0010
0001
,
0100
0010
1000
0100
1000
0010
0100
0001
,
0010
0100
0001
0000
0100
1000
0001
1000
,
0010
0100
0001
1000
0010
0001
0010
0100
,
0001
1000
0010
0000
1000
0100
0001
0100
,
1000
0010
0100
1000
0100
0001
0100
0010
,
1000
0001
0010
0000
0011
0000
0000
0101
,
0000
0000
1100
0000
0000
1010
0000
0000
,
1000
0001
1000
0001
1000
0000
0000
0000
0101
0000
0000
0000
0000
0000
1100
0000
,
0000
0000
0011
0000
0000
1010
0000
0000
,
0001
1000
0001
1000
0001
0000
0000
0000
1100
0000
0000
0000
0000
0000
1010
0000
,
0000
0000
0101
0000
0000
0011
0000
0000
,
1000
0100
1000
0100
1000
0000
0000
0000
0101
0000
0000
0000
0000
0000
1010
0000
,
0000
0000
1100
0000
0000
0011
0000
0000
,
0001
0100
0001
0100
0001
0000
0000
0000
1000
0000
0100
0000
1000
0000
0010
0100
,
0000
0000
0001
0100
0000
0000
0010
0000
1000
0000
0001
0000
0010
0000
0001
0000
,
0100
0010
1000
0000
0001
0001
1000
1000
,
0100
0010
0001
0000
0100
0100
0010
0010
,
1000
0000
0001
0000
0010
0000
0000
0000
0100
0000
1000
0000
0001
0000
0100
0001
,
0000
0000
1000
0001
0000
0000
1000
0000
0010
0000
1000
0000
0100
0000
0010
0000
,
1000
0010
0001
0000
0100
0100
0001
0001
,
1000
0010
0100
0000
0001
0010
0100
1000
,
0100
0010
0001
0000
1001
0000
1001
0000
,
0110
0000
0000
0000
0000
0000
0001
0100
0010
1000
0010
0100
,
0001
0000
0000
0000
0010
0000
0000
0000
0100
0000
0000
0000
1001
0000
0000
0000
0000
0000
1000
0000
0000
0010
0000
0000
,
0100
0001
1000
0001
0010
0100
1000
0000
0001
0100
0000
1000
,
0100
0000
0010
0100
0001
1000
0100
0000
0000
0110
0000
0000
,
1001
0000
0000
0001
0100
0001
1000
0000
0000
0010
1000
0001
,
1000
0000
0000
0100
0010
0001
0100
0010
0100
0001
0010
0100
,
1000
0000
0000
0000
0001
0000
0000
0000
0100
0000
0000
0000
0010
0000
0000
1000
0000
0000
0010
0000
0000
1000
0000
0000
0020
0000
0000
0000
0000
0000
0000
0000
0000
0000
0000
0000
0130
0000
0000
0000
0000
0000
0002
0000
0000
0000
0000
0000
,
0000
1003
0100
0000
0020
0000
0032
0000
,
0203
0000
0320
0000
2030
0000
3001
0020
,
0000
0130
2000
0000
3001
0100
0010
1000
,
0100
0000
0010
0000
0001
0000
0100
0001
0200
0000
0000
0000
0310
0000
2000
0000
,
0000
3001
0010
0000
0200
0000
0302
0000
,
0203
0000
2300
0000
3010
0100
0001
1000
,
0100
0010
0001
0100
1000
0100
0001
0010
,
0100
0000
1000
0000
0010
0000
1000
0001
2000
0000
0000
0000
3010
0000
0200
0000
,
0000
0301
0100
0000
0020
0000
2030
0000
,
3200
0000
0320
0000
0032
0000
0103
2000
,
0000
3100
0020
0000
1030
0001
1000
0100
,
0010
0000
0001
0000
0100
0000
0010
1000
0020
0000
0000
0000
0130
0000
0002
0000
,
0000
1003
0100
0000
0020
0000
0032
0000
,
0203
0000
0320
0000
1030
0100
0000
0001
,
0100
0000
1000
0010
0000
0001
0010
0000
,
0100
0110
0000
0000
0001
0100
0000
1000
,
0100
0000
0001
0010
0000
1000
0010
0000
,
0100
0110
0000
0000
1001
0000
0000
1000
,
0100
1000
0001
0100
0001
1000
0010
1000
,
0001
0010
0001
1000
0100
0001
0100
0100
;

//--------------- dance-single - forcednature ----------------
#NOTEDATA:;
#STEPSTYPE:dance-single;
#DESCRIPTION:forcednature;
#CREDIT:forcednature;
#DIFFICULTY:Hard;
#METER:17;
#RADARVALUES:0,0,0,0,0;
#NOTES:
0000
0000
0000
0000
,
0000
0000
0000
0000
,
0000
0000
0000
0000
,
0000
0000
0000
0000
,
0000
0000
0000
0000
,
0000
0000
0000
0000
,
0001
0100
0001
0100
0010
1000
0010
1000
,
0001
0010
0001
0010
0100
1000
0100
1000
,
0001
0100
0001
0010
0100
1000
0010
0100
,
0001
1000
0100
1000
0001
0100
0001
1000
,
2002
0000
0000
3003
0000
0000
0001
0000
0000
0000
0001
0000
0020
0000
0000
0030
0000
0000
0100
0000
0000
0000
0000
0000
,
0220
0000
0000
0330
0000
0000
0010
0000
0000
0000
0001
0000
2000
0000
0000
3000
0000
0000
0001
0000
0100
0000
0010
0000
,
2000
0000
0000
3000
0000
0000
0001
0000
0000
0000
0001
0000
2000
0000
0000
3000
0000
0000
0100
0000
0000
0000
0000
0000
,
0220
0000
0000
0330
0000
0000
0100
0000
0000
0000
0100
0000
2000
0000
0010
3000
0100
0000
0001
0000
0100
0000
0010
0000
,
2000
0000
0000
3000
0000
0000
0001
0000
0010
0000
0100
0000
2000
0000
0000
3000
0000
0000
1010
0000
0000
0000
0000
0000
,
0202
0000
0000
0303
0000
0000
0001
0000
0100
0000
0010
0000
2000
0000
0000
3000
0000
0000
0100
0000
1000
0000
0010
0000
,
0200
0000
0000
0300
0000
0000
0001
0000
0010
0000
0100
0000
0020
0000
0000
0030
0000
0000
0011
0000
0000
0000
0000
0000
,
2200
0000
0000
3300
0000
0000
0001
0000
0000
0000
0001
0000
2000
0000
0010
3000
1000
0000
0001
0000
0010
0000
0001
0000
,
2000
0000
0100
3000
0010
0000
0001
0000
0100
0000
0001
0000
0020
0000
0100
0030
1000
0000
0010
0000
1000
0000
0001
0000
,
0200
0000
0010
0300
1000
0000
0010
0000
0100
0000
0010
0000
2000
0000
0100
3000
0010
0000
0001
0000
0000
0000
0000
0000
,
0200
0000
0001
0300
1000
0000
0010
0000
1000
0000
0001
0000
0020
0000
0001
0030
0100
0000
0010
0000
1000
0000
0100
0000
,
0020
0000
0100
0030
1000
0000
0001
0000
0010
0000
0001
0000
2000
0000
0010
3000
0100
0000
0001
0000
0000
0000
0000
0000
,
2000
0000
0100
3000
1000
0000
0001
0000
0100
0000
0001
0000
2000
0000
0010
3000
1000
0000
0001
0000
0010
0000
0001
0000
,
0200
0000
0010
0300
1000
0000
0100
0000
0010
0000
0001
0000
0200
0000
0010
0300
1000
0000
0001
0000
0000
0000
0000
0000
,
0020
0000
0001
0030
0100
0000
0010
0000
1000
0000
0100
0000
2000
0000
0010
3000
0100
0000
0001
0000
0010
0000
0001
0000
,
2000
0000
0000
0000
0100
0000
3000
0000
0010
0000
0000
0000
0001
0000
0000
0000
0100
0000
0000
0000
0010
0000
0000
0000
0100
0000
0000
0001
0000
0000
0100
0000
0000
0001
0000
0000
1000
0000
0000
0100
0000
0000
1000
0000
0000
0100
0000
0000
,
0010
0001
0010
0001
0100
0001
0100
0001
,
1000
0000
0010
0000
1000
0000
0010
0000
1000
0000
0001
0000
1000
0000
0100
1000
,
0100
0010
0100
0010
0001
1000
0001
1000
,
0001
0100
0001
0100
0010
0010
0010
0010
,
0000
0000
1000
0001
1000
0100
0010
0001
0100
0000
0000
0000
0010
0000
1000
0000
,
0010
0100
1000
0100
0010
1000
0010
0100
,
1000
0100
0001
0010
0100
0000
0001
0100
,
1000
0010
1000
0100
0001
0100
1000
0010
,
1000
0000
0100
0000
0010
0001
0010
0001
0100
0000
0000
0000
0010
0000
1000
0000
,
0001
0100
1000
0100
0010
1000
0001
0100
,
1000
0100
0010
1000
0100
0000
0010
1000
,
0010
0001
0100
0001
0010
1000
0010
0001
,
0100
0000
0001
0000
1000
0001
1000
0001
1000
0000
0010
0000
0100
0000
0001
0000
,
0100
1000
0100
0010
1000
0001
1000
0100
,
0010
0001
0100
0010
1000
0001
0010
0100
,
1000
0010
1000
0010
1000
0000
0001
0000
0010
0000
0001
0000
0100
0000
0001
0000
,
1000
0000
0010
0000
0010
0000
0010
1000
0010
0000
0100
0000
0001
0000
1000
0000
,
0100
1000
0010
0100
1000
0100
0001
0010
,
0100
0001
0100
0010
0001
1000
0010
1000
,
0100
0010
0100
0010
0100
0000
1000
0000
0001
0000
0100
0000
0010
0000
1000
0000
,
0001
0010
1000
0010
0100
1000
0001
0100
,
0001
0010
0100
1000
0010
0000
0100
0000
0001
0000
1000
0000
0100
0000
0010
0000
,
0001
0100
0010
1000
0001
0000
0000
0000
1000
0000
0100
0000
1000
0000
0010
0000
,
0100
0001
1000
0010
0100
0000
0001
0000
1000
0000
0100
0000
1000
0000
0001
0000
,
0010
0001
1000
0100
0010
0000
0010
0001
0010
0000
0100
0000
1000
0000
0010
0000
,
0100
0001
1000
0100
0010
0000
0001
0000
0100
0000
1000
0000
0100
0000
0001
0000
,
0010
0001
1000
0010
0100
0000
0000
0000
0001
0000
1000
0000
0010
0000
1000
0000
,
0100
0010
0100
1000
0010
0000
0100
0000
0001
0000
0010
0000
0100
0000
1000
0000
,
0010
0100
0010
1000
0100
0010
0001
0010
0001
0000
0010
0000
0010
0000
0001
0100
,
0001
0000
1000
0010
1000
0000
0001
0000
1000
0100
1000
0000
0100
0010
0100
0000
,
0010
0001
0010
0000
0001
1000
0001
0000
0100
0000
0100
0000
0001
0000
0001
0000
,
1000
0000
1000
0000
0100
0000
0100
0000
1000
0100
0010
0001
0100
0010
1000
0001
,
0010
0000
0000
0000
0001
0100
0001
0100
0010
0000
1000
0000
0010
0000
1000
0100
,
0010
0000
0100
0010
0001
0000
0100
0000
0001
0100
0001
0000
0100
0010
0100
0000
,
0010
1000
0010
0000
1000
0001
1000
0000
0010
0000
0010
0000
0100
0000
0100
0000
,
0001
1000
0001
1000
0001
1000
0001
0000
1000
0100
1000
0100
0010
0001
0010
0000
,
0001
0100
0010
1000
0010
0100
0001
1000
0001
0000
0000
0000
0011
0000
0000
0000
,
0101
0000
0000
0000
0000
0000
0001
0100
1000
0100
0010
1000
,
0001
0000
0000
0000
0000
0000
0000
0000
0101
0000
0000
0000
0000
0000
0000
0000
1010
0000
0000
0000
0000
0000
0000
0000
1000
0000
0000
0100
0000
0000
1000
0000
0000
0100
0000
0000
0010
0000
0000
0001
0000
0000
0010
0000
0000
0000
0000
0000
,
0001
1000
0100
0001
0100
0010
0001
0000
0000
1100
0000
0000
,
1000
0010
0001
0010
0100
0001
1000
0000
0000
0110
0000
0000
,
1000
0100
0010
0001
0100
0010
0001
0010
0100
0001
1000
0010
,
1000
0001
1000
0100
0001
0100
0010
0001
1000
0010
0100
1000
,
0100
0000
0000
0000
0010
0000
0000
0000
1000
0000
0000
0000
0001
0000
0000
0010
0000
0000
0100
0000
0000
1000
0000
0000
0001
0000
0000
0100
0000
0000
0001
0000
0000
0000
0000
0000
1000
0000
0000
0000
0000
0000
0100
0000
0000
0010
0000
0000
,
0100
0000
1000
0000
0001
0000
0010
0000
0100
1000
0000
0000
1000
0001
0000
0000
,
0001
0100
0000
0000
0100
0010
0000
0000
0010
1000
0010
0000
0100
0000
0001
0010
,
0001
0000
1000
0000
0010
1000
0010
0000
0100
0000
0001
0000
0100
0000
1000
0000
,
0100
0000
0010
0000
1000
0000
0001
0010
0100
1000
0100
0000
0010
0000
0001
1000
,
0001
0000
0010
0000
0100
0000
1000
0000
0001
0100
0000
0000
0100
0010
0000
0000
,
0010
1000
0000
0000
1000
0001
0000
0000
0001
0010
0001
1000
0100
0000
1000
0000
,
0010
0000
0010
0000
0100
0001
0100
0000
0010
0000
1000
0000
0001
0000
0010
0001
,
1000
0100
0010
0001
1000
0001
0100
0010
1000
0001
1000
0000
0010
0000
0100
0001
,
0100
0000
0001
0000
0010
0000
0100
0000
0010
0001
0000
0000
0001
0100
0000
0000
,
0100
0010
0000
0000
0010
1000
0000
0000
0001
0010
0001
0000
0100
0000
0010
1000
,
0010
0000
0100
0000
0001
1000
0001
0000
0100
0000
1000
0000
0100
0000
0010
0000
,
1000
0000
0001
0000
1000
0100
0010
0000
0100
1000
0100
0000
0010
0000
0001
1000
,
0001
0000
0100
0000
0010
0000
1000
0000
0001
0010
0000
0000
0010
0100
0000
0000
,
1000
0100
0000
0000
1000
0010
0100
0001
1000
0000
1100
0000
0000
0000
0001
0000
,
0101
0000
0000
0000
1000
0000
1010
0000
0000
0000
0001
0000
0011
0000
0010
0001
,
1000
1001
0000
0000
0001
0101
0000
1000
,
1010
0000
0000
0000
0001
0000
0011
0000
0000
0000
1000
0000
1100
0000
0100
0010
,
0001
0000
1001
0000
0000
0000
1000
0010
0100
0000
0100
0000
0100
0000
0001
0000
,
0001
0001
1000
1000
1000
0100
0100
0100
,
1000
1000
1000
0001
0001
0001
1001
1001
;

//--------------- dance-double - forcednature ----------------
#NOTEDATA:;
#STEPSTYPE:dance-double;
#DESCRIPTION:forcednature;
#CREDIT:forcednature;
#DIFFICULTY:Easy;
#METER:12;
#RADARVALUES:0,0,0,0,0;
#NOTES:
00000000
00000000
00000000
00000000
,
00000000
00000000
00000000
00000000
,
00000000
00000000
00000000
00000000
,
00000000
00000000
00000000
00000000
,
00000000
00000000
00000000
00000000
,
00000000
00000000
00000000
00000000
,
00011000
00010000
01000000
01000000
,
00100000
00100000
00010000
00010000
,
10000000
10000000
00100000
00100000
,
01000000
01000000
00001000
00001000
,
00020200
00030300
00020200
00030300
,
00020200
00030300
00022000
00033000
,
02002000
03003000
02002000
03003000
,
02002000
03003000
00022000
00033000
,
00020020
00030030
00020020
00030030
,
00020020
00030030
00022000
00033000
,
00202000
00303000
00202000
00303000
,
00202000
00000000
00303000
00000000
00001000
00010000
00001000
00000000
,
00010000
01000000
00100000
00010000
,
10000000
00100000
10000000
00000000
01000000
00000000
00100000
00000000
,
00010000
01000000
00001000
00010000
,
00000100
00001000
00000100
00000000
00010000
00000000
00000010
00000000
,
00001000
00000001
00000100
00001000
,
00010000
00100000
00010000
00000000
00001000
00000000
00010000
00000000
,
01000000
00100000
00001000
00010000
,
00100000
10000000
00100000
00000000
01000000
00000000
00001000
00000000
,
00011000
00010000
00001000
00001000
,
00000100
00000100
00000010
00000010
,
00010000
00010000
00001000
00001000
,
00000010
00000000
00000010
00000000
00000001
00001000
00000001
00001000
,
00000000
00000010
00001001
00000002
,
00000000
00000203
00000000
00000000
00002300
00000000
00000000
00023000
,
00000000
00000000
02030000
00000000
00000000
03000000
00200000
00000000
,
00000000
00302000
00000000
00000000
00023000
00000000
00000000
00230000
,
00000000
10300000
10010000
00020000
,
00000000
00230000
00000000
00000000
02300000
00000000
00000000
03020000
,
00000000
00000000
00032000
00000000
00000000
00003000
00000200
00000000
,
00000000
00000320
00000000
00000000
00002030
00000000
00000000
00003002
,
00000000
00000000
00000013
00000000
00000100
00001000
00000100
00000000
,
00010000
00000000
00001000
00000000
01000000
00010000
01000000
00000000
,
00100000
10000000
00100000
00000000
10000000
01000000
10000000
00000000
,
00010000
00010000
00010000
00000000
00100000
00000000
01000000
00000000
,
00010000
00001000
00010000
00000000
00011000
00000000
00001000
00000000
,
00000100
00000000
00000010
00000000
00001000
00000100
00001000
00000000
,
00000001
00000100
00000110
00000010
,
00010000
00010000
00010000
00000000
00010100
00000000
00000100
00000000
,
00010000
00001000
00010000
00000000
00200000
00000000
00300000
20000000
,
00000000
30000000
02000000
00000000
03000000
00020000
00000000
00030000
,
00001000
00010000
00001000
00000000
00000020
00000000
00000030
00000002
,
00000000
00000003
00000200
00000000
00000300
00002000
00000000
00003000
,
00010000
00001000
00010000
00000000
00200000
00000000
00300000
20000000
,
00000000
30000000
02000000
00000000
03000000
00020000
00000000
00030000
,
00001000
00010000
00001000
00000000
00000020
00000000
00000030
00000002
,
00000000
00000003
00000200
00000000
00000300
00002000
00000000
00003000
,
00010000
00001000
00010000
00000000
00100000
00000000
01000000
00000000
,
00010000
10000000
00010000
00000000
00100000
00000000
00001000
00000000
,
00010000
00000000
00000100
00000000
00010000
00001000
00010000
00000000
,
00000010
00001000
00000010
00000000
00000100
00000000
00000001
00000000
,
00000010
00000100
00000010
00000000
00000110
00000000
00000100
00000000
,
00010000
00001000
00010000
00000000
01000000
00000000
10000000
00000000
,
00010000
01000000
00010000
00000000
10000000
00000000
00100000
00000000
,
00010000
00001000
00010000
00000000
00000100
00001000
00000010
00000100
,
00000001
00000010
00000100
00000000
00000110
00000000
00000100
00000000
,
00000110
00000000
00000000
00000000
00000000
00000000
00001000
00000010
00001000
00000010
00000000
00000000
,
00010000
00000000
00010000
00000000
00001000
00000000
01000000
00000000
00000000
00000000
00000000
00000000
,
00100000
10000000
00100000
10000000
00010000
00000000
10010000
00000000
00000000
10000000
00000000
00000000
,
11000000
00000000
00110000
00010000
,
01001000
00000000
00000100
00010000
,
00001010
00000000
00000000
00000000
00000000
00000000
00000001
00000010
00000001
00000010
00000000
00000000
,
00000100
00000000
00010000
00000000
00002000
00000000
00000000
02003000
,
00000000
00000000
03200000
20300000
,
30020000
00000000
20030000
00000000
32000000
00000000
00000000
03020000
,
00000000
00032000
00010000
00010000
,
00010000
00000000
00003000
00000000
00000200
00000000
00000000
00000320
,
00000000
00000000
00002030
00003002
,
00000023
00000000
00000230
00000000
00020300
00000000
00000000
00032000
,
00000000
00000000
01003000
00010000
02000000
00000000
00000000
03200000
,
00000000
00000000
00300000
00000000
20000000
00000000
00000000
32000000
,
00000000
00000000
03020000
00032000
,
02003000
00000000
03020000
00000000
00230000
00000000
00000000
00302000
,
00000000
00023000
00000100
00000100
,
00000100
00000000
00030000
00000000
00000020
00000000
00000000
00002030
,
00000000
00000000
00003002
00000023
,
00000230
00000000
00002300
00000000
00003010
00010000
00000000
00000010
,
00010000
00000000
00001000
01000000
00000000
00001000
01000000
00000000
,
00001000
00010000
00000000
00000000
00100000
00001000
00000000
00100000
,
00001000
00000000
00010000
00000100
00000000
00010000
00000100
00000000
,
00010000
00001000
00000000
00000000
00011000
00000000
00000000
01000000
,
00000000
00000000
00001000
00000000
00000000
00010000
01000000
00010000
,
01000000
00100000
01000000
10000000
01000000
10000000
00010000
10000000
;

//--------------- dance-double - forcednature ----------------
#NOTEDATA:;
#STEPSTYPE:dance-double;
#DESCRIPTION:forcednature;
#CREDIT:forcednature;
#DIFFICULTY:Medium;
#METER:14;
#RADARVALUES:0,0,0,0,0;
#NOTES:
00000000
00000000
00000000
00000000
,
00000000
00000000
00000000
00000000
,
00000000
00000000
00000000
00000000
,
00000000
00000000
00000000
00000000
,
00000000
00000000
00000000
00000000
,
00000000
00000000
00000000
00000000
,
00011000
00000000
00001000
00010000
00001000
00010000
01000000
00000000
,
00100000
00010000
00100000
00010000
01000000
00000000
00100000
10000000
,
00100000
10000000
00010000
00000000
10000000
01000000
00100000
00010000
,
01000000
00001000
00010000
00001000
00010000
00001000
00010000
00000000
,
00020200
00030300
00000000
00000000
00020020
00030030
00000000
00000000
,
02002000
03003000
00000000
00000000
00202000
00303000
00000000
00000000
,
00020200
00030300
00000000
00000000
02002000
03003000
00000000
00000000
,
00020020
00030030
00000000
00000000
00202000
00303000
00000000
00000000
,
00022000
00033000
00000000
00000000
02200000
03300000
00000000
00000000
,
00022000
00033000
00000000
00000000
00000220
00000330
00000000
00000000
,
00022000
00033000
00000000
00000000
22000000
33000000
00000000
00000000
,
00022000
00033000
00000000
00000000
00000202
00000303
00000000
00000000
,
00010000
00001000
00010000
00001000
00100000
00010000
10000000
00010000
,
10000000
00100000
10000000
01000000
00100000
00010000
01000000
00000000
,
00001000
00010000
00000100
00010000
00001000
00010000
00000010
00001000
,
00000001
00001000
00000100
00000010
00000001
00000100
00000010
00000000
,
00010000
00000100
00010000
00001000
01000000
00001000
00100000
00010000
,
01000000
00100000
10000000
01000000
00100000
00010000
01000000
00000000
,
00001000
00010000
00000100
00001000
00000001
00001000
00000010
00010000
,
00001000
00100000
00001000
00010000
00000010
00001000
00000001
00000000
,
00000011
00000010
00000100
00000100
,
00010000
00010000
00001000
00001000
,
01000000
01000000
00010000
00010000
,
10000000
00000000
10000000
00000000
01000000
00010000
01000000
00010000
,
00000000
00000000
00001000
00000000
00011000
00000000
00010000
00000100
,
00000000
00001000
00000100
00000000
00000010
00000001
00000000
00000100
,
00000000
00000010
00001000
00000000
00010000
00000000
01000000
00100000
,
00000000
10000000
00010000
00000000
10000000
01000000
00000000
00100000
,
00010000
01000000
00001000
00010000
00100000
00000000
01000000
00001000
,
00000000
00010000
00000010
00000000
00010000
00001000
00000000
00000010
,
00000000
00000100
00001000
00000000
00001001
00000000
00000001
00000000
,
00000100
00000010
00001000
00000000
00011000
00000000
00010000
00000000
,
01000000
00100000
10000000
00000000
01000000
00100000
01000000
00100000
,
00010000
10000000
00100000
10000000
00010000
10000000
01000000
00100000
,
00010000
01000000
00001000
00000000
00010000
00000100
00001000
00000001
,
00001000
00000010
00010000
00001000
00000010
00000100
00001000
00000001
,
00001000
00000010
00010000
00000000
00001000
01000000
00010000
01000000
,
00100000
10000000
00010000
10000000
01000000
00100000
00010000
01000000
,
00001000
00010000
00000100
00000000
00001000
00000001
00001000
00000010
,
00010000
00001000
00000010
00000100
00001000
00000001
00000100
00000010
,
00010000
00001000
00100000
00000000
00101000
00000000
00000000
00010100
,
00000000
00000000
01001000
00000000
00000000
00010010
00000000
00000000
,
00001000
01000000
00001000
01000000
00001000
00000000
00000000
00000000
00010010
00000000
00000000
00000000
00000000
00000000
01001000
00000000
,
00000000
00000000
00010100
00000000
00000000
00101000
00000000
00000000
,
00010000
00000010
00010000
00000010
00010000
00000000
00000000
00000000
00010100
00000000
00000000
00000000
00000000
00000000
00010010
00000000
,
00000000
00000000
01001000
00000000
00000000
00101000
00000000
00000000
,
00010000
00000100
00010000
00000100
00010000
00000000
00000000
00000000
01001000
00000000
00000000
00000000
00000000
00000000
00101000
00000000
,
00000000
00000000
00010100
00000000
00000000
00010010
00000000
00000000
,
00001000
00100000
00001000
00100000
00001000
00000000
00000000
00000000
01000000
00000000
00010000
00000000
10000000
00000000
00100000
00000000
,
10000000
01000000
00100000
00000000
01000000
01000000
10000000
10000000
,
00010000
01000000
00001000
00000000
00020000
00000000
00030200
00000000
,
00010300
00001000
00000100
00000000
00000001
00001000
00000100
00000010
,
00000001
00000100
00000010
00000000
00010000
00001000
00100000
00001000
,
00010000
00100000
01000000
00000000
00100000
10000000
00010000
10000000
,
01000000
00100000
00010000
00000000
02000000
00000000
03002000
00000000
,
00013000
00000100
00000010
00000000
00000100
00001000
00000001
00000100
,
00000010
00010000
00001000
00000000
00101000
00000000
00101000
00000000
,
00101000
00000000
00000000
00000000
00000000
00000000
01000000
00010000
01000000
00100000
10000000
00100000
,
01000000
00000000
01000000
00000000
01000000
00000000
01000000
00000000
00000000
00000000
00000000
00000000
,
00001000
00010000
00001000
00010000
00000100
00010000
00000100
00000000
00000000
00000110
00000000
00000000
,
00001001
00000000
00000101
00001100
,
00011000
00000000
00100000
01000000
,
10010000
00000000
00000000
00000000
00000000
00000000
10000000
01000000
10000000
00010000
00100000
00010000
,
02000000
00000000
03002000
00000000
00013000
00000100
00010000
00001000
,
00000010
00000001
00000100
00000000
00000020
00000000
00020030
00000000
,
00032000
00000000
02003000
00000000
03010000
00100000
00010000
10000000
,
00100000
10000000
01000000
00000000
00100000
00010000
01000000
00001000
,
00010000
00000100
00001000
00000000
00000010
00010000
00001000
00000010
,
00000100
00001000
00000001
00000000
00000200
00000000
00002300
00000000
,
00023000
00000000
00230000
00000000
01300000
00010000
10000000
00100000
,
10000000
00010000
00100000
00000000
01000000
00010000
01000000
10000000
,
00010000
01000000
00001000
00000000
00010000
00000100
00001000
00000010
,
00010000
00001000
00000100
00000000
00000002
00000000
00002003
00000000
,
00003020
00000000
00020030
00000000
00031000
00100000
00001000
00010000
,
00100000
01000000
00010000
00000000
10000000
01000000
00100000
00010000
,
01000000
00001000
00010000
00000000
00000100
00001000
00000010
00010000
,
00001000
00100000
00010000
00000000
02000000
00000000
03002000
00000000
,
00023000
00000000
00030200
00000000
00001300
00000001
00000000
00000100
,
00001000
00000000
00010000
01000000
00000000
10000000
00010000
00000000
,
01000000
01000000
00000000
00000000
00010000
10000000
00000000
01000000
,
00010000
00000000
00001000
00000100
00000000
00000001
00001000
00000000
,
00000100
00000100
00000000
00000000
00001100
00000000
00000000
00010000
,
00000000
00000000
00000010
00010000
00001000
00100000
00001000
00010000
,
00000100
00010000
00001000
01000000
00001000
00010000
00100000
10000000
;

//--------------- dance-double - forcednature ----------------
#NOTEDATA:;
#STEPSTYPE:dance-double;
#DESCRIPTION:forcednature;
#CREDIT:forcednature;
#DIFFICULTY:Hard;
#METER:18;
#RADARVALUES:0,0,0,0,0;
#NOTES:
00000000
00000000
00000000
00000000
,
00000000
00000000
00000000
00000000
,
00000000
00000000
00000000
00000000
,
00000000
00000000
00000000
00000000
,
00000000
00000000
00000000
00000000
,
00000000
00000000
00000000
00000000
,
00010000
00001000
00010000
00001000
01000000
00010000
01000000
00010000
,
10000000
01000000
10000000
01000000
00100000
00010000
00100000
00010000
,
01000000
00001000
00010000
00000100
00001000
00000001
00000100
00001000
,
00010000
00100000
10000000
00010000
10000000
01000000
00010000
00001000
,
00022000
00000000
00000000
00033000
00000000
00000000
00000100
00000000
00000000
00000000
00001000
00000000
00000002
00000000
00000000
00000003
00000000
00000000
00000100
00000000
00000000
00000000
00000000
00000000
,
00002020
00000000
00000000
00003030
00000000
00000000
00010000
00000000
00000000
00000000
00001000
00000000
00200000
00000000
00000000
00300000
00000000
00000000
00010000
00000000
01000000
00000000
00100000
00000000
,
20000000
00000000
00000000
30000000
00000000
00000000
01000000
00000000
00000000
00000000
01000000
00000000
00020000
00000000
00000000
00030000
00000000
00000000
00001000
00000000
00000000
00000000
00000000
00000000
,
00022000
00000000
00000000
00033000
00000000
00000000
00000010
00000000
00000000
00000000
00001000
00000000
00000002
00000000
00000010
00000003
00000100
00000000
00001000
00000000
00000001
00000000
00000100
00000000
,
00002000
00000000
00000000
00003000
00000000
00000000
00010000
00000000
01000000
00000000
10000000
00000000
00200000
00000000
00000000
00300000
00000000
00000000
01001000
00000000
00000000
00000000
00000000
00000000
,
00020200
00000000
00000000
00030300
00000000
00000000
00010000
00000000
00001000
00000000
00000100
00000000
00000002
00000000
00000000
00000003
00000000
00000000
00000010
00000000
00000100
00000000
00001000
00000000
,
00000002
00000000
00000000
00000003
00000000
00000000
00000100
00000000
00001000
00000000
00010000
00000000
00200000
00000000
00000000
00300000
00000000
00000000
00110000
00000000
00000000
00000000
00000000
00000000
,
00022000
00000000
00000000
00033000
00000000
00000000
00001000
00000000
00000000
00000000
00001000
00000000
02000000
00000000
00010000
03000000
10000000
00000000
01000000
00000000
00010000
00000000
00001000
00000000
,
02000000
00000000
00010000
03000000
00100000
00000000
01000000
00000000
00010000
00000000
00001000
00000000
00000020
00000000
00000100
00000030
00001000
00000000
00000001
00000000
00000100
00000000
00001000
00000000
,
00020000
00000000
01000000
00030000
00100000
00000000
00010000
00000000
01000000
00000000
00100000
00000000
20000000
00000000
01000000
30000000
00010000
00000000
00001000
00000000
00000000
00000000
00000000
00000000
,
02000000
00000000
00001000
03000000
00010000
00000000
00000100
00000000
00010000
00000000
00001000
00000000
00000200
00000000
00000001
00000300
00001000
00000000
00000100
00000000
00000010
00000000
00001000
00000000
,
00000020
00000000
00000001
00000030
00001000
00000000
00000001
00000000
00000100
00000000
00000010
00000000
00002000
00000000
00010000
00003000
01000000
00000000
00100000
00000000
00000000
00000000
00000000
00000000
,
20000000
00000000
01000000
30000000
00010000
00000000
00001000
00000000
01000000
00000000
00010000
00000000
00200000
00000000
00001000
00300000
00010000
00000000
00000010
00000000
00001000
00000000
00000100
00000000
,
00000020
00000000
00001000
00000030
00010000
00000000
00000100
00000000
00000010
00000000
00000001
00000000
00000200
00000000
00000010
00000300
00001000
00000000
00010000
00000000
00000000
00000000
00000000
00000000
,
02000000
00000000
00100000
03000000
10000000
00000000
00010000
00000000
10000000
00000000
01000000
00000000
00020000
00000000
00001000
00030000
01000000
00000000
00010000
00000000
00100000
00000000
00001000
00000000
,
00020000
00000000
00000000
00000000
00000010
00000000
00030000
00000000
00001000
00000000
00000000
00000000
00000100
00000000
00000000
00000000
00000010
00000000
00000000
00000000
00000001
00000000
00000000
00000000
00000100
00000000
00000000
00000001
00000000
00000000
00000100
00000000
00000000
00000001
00000000
00000000
00001000
00000000
00000000
00000010
00000000
00000000
00001000
00000000
00000000
00000010
00000000
00000000
,
00000100
00001000
00000100
00001000
00010000
01000000
00010000
01000000
,
00100000
00000000
00010000
00000000
00100000
00000000
00010000
00000000
10000000
00000000
00100000
00000000
10000000
00000000
01000000
10000000
,
01000000
00010000
01000000
00010000
00001000
00000010
00001000
00000010
,
00000001
00000100
00000001
00000100
00001000
00001000
00001000
00001000
,
00000000
00000000
00010000
00001000
01000000
00001000
01000000
00010000
10000000
00000000
00000000
00000000
01000000
00000000
00010000
00000000
,
00001000
00000010
00001000
00010000
00100000
00010000
00001000
00000100
,
00001000
00010000
01000000
00100000
00010000
00000000
01000000
00001000
,
00010000
00000100
00001000
00000010
00010000
00001000
00100000
00010000
,
01000000
00000000
00001000
00000000
00010000
00000100
00010000
00000100
00001000
00000000
00000000
00000000
00000010
00000000
00000001
00000000
,
00000010
00001000
00000100
00000010
00001000
00010000
01000000
00100000
,
00010000
10000000
00100000
00010000
00001000
00000000
01000000
00001000
,
00010000
00000010
00000100
00001000
00000100
00000001
00001000
00000100
,
00010000
00000000
00001000
00000000
01000000
00010000
01000000
00010000
01000000
00000000
00100000
00000000
10000000
00000000
00010000
00000000
,
10000000
01000000
00010000
00001000
00100000
00001000
00010000
00100000
,
01000000
00001000
00010000
00000010
00010000
00001000
00000010
00000001
,
00001000
00000100
00001000
00000100
00001000
00000000
00000010
00000000
00000100
00000000
00001000
00000000
00010000
00000000
01000000
00000000
,
00100000
00000000
00010000
00000000
00010000
00000000
00010000
10000000
00010000
00000000
01000000
00000000
00010000
00000000
00100000
00000000
,
00001000
00010000
00000100
00010000
00001000
00000100
00000010
00010000
,
00001000
00000010
00000001
00000100
00000010
00000100
00001000
00010000
,
01000000
00100000
01000000
00100000
01000000
00000000
10000000
00000000
00010000
00000000
01000000
00000000
00100000
00000000
10000000
00000000
,
01000000
00100000
00001000
00010000
00000100
00010000
00000010
00000100
,
00000001
00000010
00000100
00001000
00000001
00000000
00000100
00000000
00001000
00000000
00000100
00000000
00000010
00000000
00010000
00000000
,
00001000
00100000
00010000
00100000
00001000
00000000
00000000
00000000
00010000
00000000
00100000
00000000
10000000
00000000
00100000
00000000
,
10000000
00010000
10000000
01000000
00100000
00000000
00010000
00000000
01000000
00000000
00001000
00000000
00010000
00000000
00000010
00000000
,
00010000
00001000
00010000
00000100
00001000
00000000
00000001
00000010
00000001
00000000
00000100
00000000
00000010
00000000
00001000
00000000
,
00000010
00010000
00001000
00010000
00001000
00000000
00100000
00000000
00001000
00000000
00010000
00000000
00100000
00000000
10000000
00000000
,
01000000
00100000
01000000
10000000
00010000
00000000
00000000
00000000
01000000
00000000
00001000
00000000
00010000
00000000
00000100
00000000
,
00001000
00000001
00000100
00000001
00000010
00000000
00000100
00000000
00001000
00000000
00000001
00000000
00000100
00000000
00001000
00000000
,
00010000
00001000
01000000
00001000
00010000
00000100
00010000
00001000
00010000
00000000
00100000
00000000
00100000
00000000
01000000
00010000
,
01000000
00000000
00100000
10000000
00100000
00000000
10000000
00000000
01000000
00000000
00100000
00000000
00010000
00000000
00001000
00000000
,
00000100
00000000
00000010
00000000
00000001
00001000
00000001
00000000
00000100
00000000
00001000
00000000
00000100
00000000
00000010
00000000
,
00001000
00000000
00000100
00000000
00010000
00000000
00001000
00000000
01000000
00010000
01000000
00010000
10000000
00100000
10000000
00100000
,
01000000
00000000
00000000
00000000
00001000
00010000
00001000
00010000
00000100
00000000
00001000
00000000
00000001
00000000
00000010
00000001
,
00000010
00000000
00000100
00001000
00000100
00000000
00010000
00000000
00001000
00000000
00010000
00000000
00100000
00000000
10000000
00000000
,
01000000
00010000
00001000
00010000
00100000
01000000
00100000
00010000
,
00001000
00010000
00001000
00010000
00001000
00010000
00001000
00000000
00000010
00000000
00000001
00000000
00000100
00000000
00001000
00000000
,
00010000
00000100
00010000
00000100
00010000
00001000
00010000
00001000
01000000
00000000
00000000
00000000
01010000
00000000
00000000
00000000
,
10010000
00000000
00000000
00000000
00000000
00000000
10000000
01000000
00100000
00010000
00100000
00001000
,
00010000
00000000
00000000
00000000
00000000
00000000
00000000
00000000
00010100
00000000
00000000
00000000
00000000
00000000
00000000
00000000
00001001
00000000
00000000
00000000
00000000
00000000
00000000
00000000
00000001
00000000
00000000
00000100
00000000
00000000
00000001
00000000
00000000
00000100
00000000
00000000
00000001
00000000
00000000
00000100
00000000
00000000
00000001
00000000
00000000
00000000
00000000
00000000
,
00000010
00000100
00001000
00000010
00010000
00001000
00010000
00000000
00000000
01001000
00000000
00000000
,
00000100
00010000
00001000
00100000
00001000
00010000
00000010
00000000
00000000
00011000
00000000
00000000
,
01000000
00010000
00100000
01000000
10000000
01000000
00010000
00001000
00000010
00000001
00001000
00000001
,
00000100
00001000
00000100
00000010
00001000
00000100
00010000
00001000
01000000
00010000
00100000
01000000
,
00010000
00000000
00000000
00000000
00001000
00000000
00000000
00000000
00000010
00000000
00000000
00000000
00000001
00000000
00000000
00000010
00000000
00000000
00000001
00000000
00000000
00000010
00000000
00000000
00000001
00000000
00000000
00000010
00000000
00000000
00000001
00000000
00000000
00000000
00000000
00000000
00001000
00000000
00000000
00000000
00000000
00000000
00000010
00000000
00000000
00000100
00000000
00000000
,
00000010
00001000
00000001
00000100
00002000
00000000
02003000
00000000
,
03200000
00000000
00000000
00000000
20300000
00000000
00000000
00000000
31000000
00100000
01000000
00000000
10000000
00000000
00010000
01000000
,
00010000
00000000
00100000
00000000
00001000
00010000
00001000
00000000
00000010
00000000
00000001
00000000
00000100
00000000
00001000
00000000
,
00010000
00000000
00000100
00000000
00010000
00000000
00001000
01000000
00001000
01000000
00001000
00000000
00100000
00000000
00010000
10000000
,
00010000
01000000
00001000
00010000
00000200
00000000
00000320
00000000
,
00000032
00000000
00000000
00000000
00000203
00000000
00000000
00000000
00001300
00010000
00001000
01000000
00001000
00000000
00010000
00000000
,
01000000
00000000
01000000
00000000
10000000
00010000
10000000
00000000
00100000
00000000
00010000
00000000
00001000
00000000
01000000
00001000
,
01000000
00001000
00010000
00000100
00010000
00000100
00010000
00001000
00010000
00001000
00010000
00000000
00000100
00000000
00001000
00000001
,
00001000
00000010
00000100
00001000
00020000
00000000
02030000
00000000
,
03200000
00000000
00000000
00000000
00302000
00000000
00000000
00000000
01003000
00010000
01000000
00000000
00100000
00000000
10000000
00010000
,
10000000
00000000
01000000
00000000
00010000
00001000
00010000
00000000
00000100
00000000
00001000
00000000
00000001
00000000
00000100
00000000
,
00001000
00000000
00010000
00000000
00000100
00001000
00000010
00000000
00000100
00000001
00000100
00000000
00001000
00000000
00010000
00001000
,
00010000
00100000
10000000
00010000
20000000
00000000
32000000
00000000
,
03020000
00000000
00000000
00000000
00031000
00010000
00001000
00010000
00001000
00000000
01001000
00000000
00000000
00000000
00010000
00000000
,
00010100
00000000
00001000
00101000
00000000
00010000
00010010
00000000
,
00011000
00011000
00000000
00000000
00001000
01010000
00000000
00010000
,
00001100
00000000
00001000
00110000
00000000
00010000
00001010
00000000
,
00011000
00011000
00000000
00000000
00010000
01000000
10000000
00100000
,
00010000
00001000
00000100
00000001
00000010
00001000
00010000
00100000
,
00010000
00001000
00000010
00001000
00010000
01000000
01100000
01100000
;
