#VERSION:0.83;
#TITLE:Like+it!;
#SUBTITLE:;
#ARTIST:Ryu☆;
#TITLETRANSLIT:Like it!;
#SUBTITLETRANSLIT:;
#ARTISTTRANSLIT:;
#GENRE:EUROBEAT;
#CREDIT:;
#MUSIC:Like+it!.ogg;
#BANNER:Like+it!.png;
#BACKGROUND:Like+it!-bg.png;
#CDTITLE:./CDTitles/REFLEC BEAT -colette-.png;
#SAMPLESTART:69.347;
#SAMPLELENGTH:15.000;
#SELECTABLE:YES;
#OFFSET:0.456;
#BPMS:0.000=165.000;
#STOPS:;
#TIMESIGNATURES:0.000=4=4;
#BGCHANGES:0.000=../BGAs/22bk.mp4=1.000=0=0=0=StretchNoLoop====,
99999.000=-nosongbg-=1.000=0=0=0=StretchNoLoop====
;
#FGCHANGES:;

//--------------- dance-single - forcednature ----------------
#NOTEDATA:;
#STEPSTYPE:dance-single;
#DESCRIPTION:forcednature;
#DIFFICULTY:Beginner;
#METER:3;
#RADARVALUES:0,0,0,0,0;
#CREDIT:forcednature;
#NOTES:
0000
0000
0000
0000
,
0000
0000
0000
0000
,
0000
0000
0000
0000
,
1000
0000
0000
0000
,
0001
0000
0000
0000
,
0010
0000
0000
0000
,
0100
0000
0000
0000
,
1000
0000
0000
0000
,
0001
0000
0000
0000
,
0100
0000
0000
0000
,
0010
0000
0000
0000
,
1000
0000
0000
0000
,
0001
0000
0000
0000
,
0010
0000
0000
0000
,
0000
0000
0000
0000
,
0100
0000
0000
0000
,
1000
0000
0000
0000
,
0001
0000
0000
0000
,
0100
0000
0000
0000
,
0010
0000
0000
0000
,
1000
0000
0000
0000
,
0001
0000
0000
0000
,
0010
0000
0000
0000
,
0001
0000
0000
0000
,
1000
0000
0000
0000
,
0010
0000
0000
0000
,
0100
0000
0001
0000
,
0100
0000
0000
0000
,
0010
0000
1000
0000
,
0010
0000
0000
0000
,
1000
0000
0000
0000
,
0100
0000
0000
0000
,
0010
0000
0000
0000
,
0001
0000
0000
0000
,
0100
0000
0000
0000
,
0001
0000
0001
0000
,
1000
0000
1000
0000
,
0100
0000
0000
0000
,
0000
0000
0000
0000
,
0010
0000
0000
0000
,
0000
0000
0000
0000
,
0001
0000
0000
0000
,
0100
0000
0000
0000
,
0010
0000
0000
0000
,
1000
0000
0000
0000
,
0100
0000
0000
0000
,
0010
0000
0000
0000
,
0000
0000
0000
0000
,
0001
0000
0100
0000
,
0001
0000
0000
0000
,
1000
0000
0010
0000
,
1000
0000
0000
0000
,
0001
0000
0010
0000
,
0001
0000
0000
0000
,
1000
0000
1000
0000
,
0001
0000
0010
0000
,
0001
0000
0100
0000
,
0001
0000
1000
0000
,
1000
0000
0100
0000
,
1000
0000
0001
0000
,
0010
0000
0100
0000
,
0010
0000
0001
0000
,
1000
0000
0010
0000
,
0100
0000
0010
0000
,
1001
0000
0000
0000
;

//--------------- dance-single - forcednature ----------------
#NOTEDATA:;
#STEPSTYPE:dance-single;
#DESCRIPTION:forcednature;
#DIFFICULTY:Easy;
#METER:7;
#RADARVALUES:0,0,0,0,0;
#CREDIT:forcednature;
#NOTES:
0000
0000
0000
0000
,
0000
0000
0000
0000
,
0000
0000
0000
0000
,
1000
1000
0001
0001
,
0100
0010
0000
0000
,
1001
0000
0001
0010
,
0100
1000
0001
0100
,
0010
0000
1000
0100
,
1000
0010
0100
0001
,
0010
0000
0100
1000
,
0001
0010
0001
0100
,
0001
0001
1000
1000
,
0010
0100
0001
0000
,
1000
0100
1000
0000
,
0010
0100
0001
0000
,
0001
0100
0001
0000
,
0010
0100
1000
0000
,
0010
0100
0001
0100
,
0010
1000
0100
1000
,
0001
0001
0010
0010
,
0001
0100
0010
0000
,
1001
0000
1000
0001
,
0010
0001
1000
0010
,
0100
0000
0001
1000
,
0100
1000
0010
0100
,
0001
0001
1000
0100
,
0010
0000
0001
0000
1000
0100
1000
0000
,
0001
1000
0010
0100
,
0001
1000
0001
0010
,
0100
1000
0100
0010
,
0001
1000
0010
0000
,
0100
0001
0010
0001
,
1000
0010
1000
0000
,
0001
0010
0100
1000
,
0001
0100
0010
1000
,
0100
0100
0010
0010
,
0001
1000
0010
0000
,
0100
0000
0001
0000
,
1000
0000
0010
0000
,
1000
0000
0100
0000
,
0010
0000
0001
0000
,
0100
0001
0100
0000
,
0010
1000
0010
0000
,
1000
0100
1000
0000
,
0001
0010
0001
0000
,
0100
0010
0100
0000
,
0001
1000
0100
0010
,
0000
0000
0000
1001
,
1000
0100
0010
0001
,
1000
0010
0100
0001
,
0010
0100
0010
0000
0001
0000
1000
0000
,
0010
0100
0001
1000
,
0100
0010
0100
0000
1000
0000
0001
0000
,
0100
0010
1000
0001
,
0010
0010
0100
0100
,
1000
0001
0100
0000
,
0010
1000
0001
0010
,
0100
0000
1000
0000
0010
0100
0010
0000
,
1000
0001
0010
0100
,
1000
0000
0010
0000
1000
0001
1000
0000
,
0100
0010
0001
1000
,
0010
0000
0100
0000
0001
1000
0001
0000
,
0010
0100
1000
0001
,
0100
0000
0010
0000
1000
0001
1000
0000
,
2002
0000
0000
0000
,
3003
0000
0000
0000
;

//--------------- dance-single - forcednature ----------------
#NOTEDATA:;
#STEPSTYPE:dance-single;
#DESCRIPTION:forcednature;
#DIFFICULTY:Medium;
#METER:11;
#RADARVALUES:0,0,0,0,0;
#CREDIT:forcednature;
#NOTES:
0000
0000
0000
0000
,
0000
0000
0000
0000
,
0000
0000
0000
0000
,
1000
0000
0000
0001
0000
0000
1000
0000
0001
0000
0000
1000
0000
0000
0001
0000
,
0100
0000
0010
0000
1000
0001
0010
0000
,
0110
0100
1000
0001
,
0100
0000
0010
0000
1000
0001
0010
0100
,
1000
0001
0100
0010
,
1000
0000
0001
0000
0010
0100
0010
0001
,
0100
0000
0000
0000
0010
0000
0000
0000
1000
0000
0000
1000
0000
0000
1000
0000
,
0100
0000
0000
0000
0010
0000
0000
0000
0001
0000
0000
0001
0000
0000
0001
0000
,
1000
0000
0000
0100
0000
0000
1000
0000
0001
0000
0000
0100
0000
0000
0001
0000
,
0010
0000
0100
0000
1000
0001
0100
0000
,
0110
0000
0010
1000
,
0001
0010
0100
1000
,
0110
0000
0001
1000
,
0010
0000
0100
0000
0001
1000
0001
1000
,
0100
0000
0000
0000
0010
0000
0000
0000
0001
0000
0000
1000
0000
0000
0001
0000
,
0100
0000
0000
0000
0010
0000
0000
0000
1000
0000
0000
0001
0000
0000
1000
0000
,
0001
0000
0000
0010
0000
0000
0001
0000
1000
0000
0000
0010
0000
0000
1000
0000
,
0100
0100
0010
0000
0001
1000
0010
0000
,
0100
0001
1000
0010
1000
0001
0010
0000
,
0100
1000
0100
0000
0010
0001
0010
0000
,
0100
1000
0010
0100
0001
0010
0100
0000
,
0010
0000
0000
0010
0000
0000
0010
0000
0001
0000
1000
0000
0010
0000
0100
0000
,
0001
0000
0010
0000
0001
0000
0000
0010
0000
0001
0000
0010
0001
0000
0000
0000
,
1000
0010
0100
0001
1000
1000
1000
0000
,
0010
0000
1000
0000
0010
0000
0000
1000
0000
0010
0000
1000
0010
0000
0000
0000
,
0100
0001
1000
0001
0000
0010
0100
0000
,
0110
0010
0001
1000
,
0010
0000
0100
0000
0001
0001
0001
0000
,
1001
1000
0100
1000
,
0010
0000
0100
0000
0001
1000
0100
0000
,
0110
0010
0001
1000
,
0010
0100
0001
0000
1000
0001
0010
0000
,
0001
0000
0000
0100
0000
0000
0001
0000
1000
0000
0000
0100
0000
0000
1000
0000
,
0010
0010
0100
0000
0001
1000
0100
0000
,
0110
0010
0001
0001
,
1000
1000
0010
0010
,
0100
0100
0001
0001
,
1000
1000
0100
0100
,
0110
0000
0000
0000
0010
0000
0000
0000
0001
0000
0000
0100
0000
0000
0001
0000
,
1000
0000
0000
0000
0010
0000
0000
0000
1000
0000
0000
0100
0000
0000
1000
0000
,
0001
0000
0000
0010
0000
0000
0001
0000
1000
0000
0000
0010
0000
0000
1000
0000
,
0001
0000
0000
0100
0000
0000
0001
0000
1000
0000
0000
0100
0000
0000
1000
0000
,
0010
0000
0000
0100
0000
0000
0010
0000
1000
0000
0000
0001
0000
0000
1000
0000
,
0100
0010
0100
0000
1000
0010
0100
0002
,
0000
0000
0000
0000
0000
0013
0100
0000
,
1000
0010
0100
0001
0010
0100
0010
0000
,
0001
0100
0001
0000
1000
0100
1000
0000
,
0010
0100
0001
1000
0100
0010
0001
0000
,
0100
0010
0100
0000
0001
1000
0001
0000
,
0010
0100
1000
0010
0100
0010
1000
0000
,
0100
0010
0001
0000
0100
0010
0100
0000
,
0001
0000
0000
0001
0000
0000
0001
0000
1000
0000
0000
1000
0000
0000
1000
0000
,
0100
0010
0100
0000
1000
0001
0100
0000
,
0010
0000
1000
0000
0010
0000
0000
0100
0000
0001
0000
0100
0010
0000
0000
0000
,
1000
0001
0010
0000
0100
0100
0100
0000
,
0010
0000
0001
0000
0010
0000
0000
0100
0000
1000
0000
0100
0010
0000
0000
0000
,
0001
1000
0010
0000
0100
0100
0100
0100
,
0001
0000
1000
0000
0010
0000
0000
0100
0000
0001
0000
1000
0010
0000
0000
0000
,
1000
0001
0010
0000
0100
0100
0100
0000
,
1000
0000
0100
0000
0010
0000
0000
0001
0000
1000
0000
0100
0010
0000
0000
0000
,
0001
1000
1000
0000
0010
0100
0001
0000
,
2002
0000
0000
0000
,
3003
0000
0000
0000
;

//--------------- dance-single - forcednature ----------------
#NOTEDATA:;
#STEPSTYPE:dance-single;
#DESCRIPTION:forcednature;
#DIFFICULTY:Hard;
#METER:15;
#RADARVALUES:0,0,0,0,0;
#CREDIT:forcednature;
#NOTES:
0000
0000
0000
0000
,
0000
0000
0000
0000
,
0000
0000
0000
0000
,
1000
0000
0000
1000
0000
0000
1000
0000
0001
0000
0000
0001
0000
0000
0001
0000
,
0100
0010
1000
0001
0000
0010
0110
0000
,
1000
0100
0001
0100
1000
0010
1000
0001
,
0100
1000
0100
0001
0010
0100
1000
0100
,
0010
0001
0100
1000
0100
0001
0010
0100
,
1000
0001
0100
0001
1000
0100
0010
0010
,
0001
0000
0100
0000
0010
0000
1000
0000
0001
0000
0100
0001
0000
0100
0001
0000
,
1000
0000
0100
0000
0010
0000
0001
0000
1000
0000
0100
1000
0000
0100
1000
0000
,
0001
0000
0000
0010
0000
0000
0011
0000
1000
0000
0000
0010
0000
0000
1010
0000
,
0001
0000
0100
0000
0010
1000
0010
1000
0001
0000
0010
0000
0110
0000
0000
0000
,
2002
3003
0001
0100
,
0010
1000
0010
0000
0100
0000
0001
0000
,
2002
3003
1000
0100
,
0010
0001
0010
0000
0100
0100
1000
1000
,
0001
0000
0000
0100
0000
0000
0010
0000
1000
0000
0000
1010
0000
0000
0010
0000
,
1000
0000
1000
0000
0100
0000
0010
0000
0001
0000
0000
0011
0000
0000
0010
0000
,
0001
0000
0000
0100
0000
0000
0101
0000
1000
0000
0000
0100
0000
0000
1100
0000
,
0010
0000
1000
0000
0001
1000
0001
1000
0100
0000
0010
0000
0110
0000
0000
0000
,
1000
0000
0001
0000
0010
0000
0100
1000
0000
0001
1000
0000
0010
0000
0000
0000
,
1000
0000
0100
0010
0000
0001
0010
0000
0100
0000
0100
0000
1000
0000
0001
0000
,
0100
0000
0010
0000
1000
0000
0001
0100
0000
0010
0100
0000
0001
0000
0000
0000
,
0010
0000
0100
1000
0000
0001
1000
0000
0010
0000
0010
0000
0100
0000
0010
0000
,
1000
0000
0100
0000
0010
0001
0000
1000
0000
0100
0000
0010
0001
0000
0000
0000
,
1000
0000
0010
0000
0100
0001
0100
0001
0010
0000
0010
0000
0010
0000
0000
0000
,
0001
0000
0100
0000
0010
1000
0000
0001
0000
0100
0000
0010
1000
0000
0000
0000
,
0001
0000
0010
0000
0100
1000
0100
1000
0010
0000
0100
0000
0110
0000
0000
0000
,
1000
0001
0100
0001
0010
0001
0100
0000
,
0100
0010
0000
1000
0000
0001
0000
0000
0010
0000
0010
0000
0010
0000
0000
0000
,
0001
1000
0100
1000
0010
1000
0100
0000
,
0100
0010
0000
0010
0001
0000
1000
0000
0010
0000
0100
0000
0110
0000
0000
0000
,
0001
0010
0001
0100
0010
1000
0100
1000
,
0001
0100
0000
0010
0000
1000
0000
0000
0001
0000
0010
0000
0100
0000
0000
0000
,
1000
0000
0000
0011
0000
0000
1000
0000
0001
0000
0000
1010
0000
0000
0001
0000
,
0100
0000
0010
0000
1000
0001
1000
0001
0010
0000
0100
0000
0110
0000
0000
0000
,
1000
1000
0001
0001
,
0100
0010
1000
0001
,
0010
0010
0100
0100
,
1000
0001
0200
0010
,
0301
0000
0000
0000
0100
0000
0000
0000
0010
0000
1000
0010
0000
1000
0010
0000
,
1000
0000
0000
0000
0100
0000
0000
0000
0010
0000
0001
0010
0000
0001
0010
0000
,
0100
0000
0000
1000
0000
0000
1100
0000
0001
0000
0100
0001
0000
0100
0001
0000
,
0010
0000
0000
0001
0000
0000
0011
0000
1000
0000
0010
1000
0000
0010
1000
0000
,
0100
0000
0000
0010
0000
0000
0110
0000
1000
0000
0001
1000
0000
0001
1000
0000
,
0010
0010
0100
0001
2000
3200
0320
0032
,
0000
0000
0000
0000
0000
0103
0110
0000
,
0001
0100
1000
0100
0010
1000
0001
0010
,
0100
1000
0100
0001
0100
0010
0001
1000
,
0010
0100
0010
0000
1000
0000
0001
0000
0010
0000
0100
0000
0001
0000
0100
0000
,
0010
0001
1000
0010
0001
0010
0100
0001
,
1000
0010
1000
0000
0001
0000
0010
0000
0100
0000
1000
0000
0100
0000
0001
0000
,
0100
0010
0001
1000
0010
0100
0001
1000
,
1100
0000
0000
0001
0000
0000
0010
0000
0101
0000
0000
1000
0000
0000
0010
0000
,
0100
1000
0100
0001
0010
0100
0110
0000
,
1000
0000
0100
0000
0010
0001
0000
1100
0000
0011
0000
1000
0001
0000
0000
0000
,
1000
0000
0010
0000
0100
0001
0100
0001
0010
0000
0010
0000
0010
0000
0000
0000
,
0001
0000
0100
0000
0010
1000
0000
0101
0000
1010
0000
0001
1000
0000
0000
0000
,
0001
0000
0010
0000
0100
1000
0100
1000
0010
0000
0010
0000
0010
0000
0010
0000
,
1000
0000
0001
0000
0010
0100
0000
1001
0000
0110
0000
1000
0001
0000
0000
0000
,
1000
0000
0100
0000
1000
0010
1000
0010
0100
0000
0100
0000
0100
0000
0000
0000
,
0001
0000
1000
0000
0010
0100
0000
1001
0000
0110
0000
0001
1000
0000
0000
0000
,
0001
0000
0100
0000
0001
0010
0001
0010
0100
0000
1000
0000
1001
0000
0000
0000
,
0220
0000
0000
0000
,
0330
0000
0000
0000
;

//--------------- dance-double - forcednature ----------------
#NOTEDATA:;
#STEPSTYPE:dance-double;
#DESCRIPTION:forcednature;
#DIFFICULTY:Easy;
#METER:7;
#RADARVALUES:0,0,0,0,0;
#CREDIT:forcednature;
#NOTES:
00000000
00000000
00000000
00000000
,
00000000
00000000
00000000
00000000
,
00000000
00000000
00000000
00000000
,
00001000
00001000
00010000
00010000
,
00000100
00001000
00000000
00000010
,
00000100
00000001
00000010
00000000
,
00000100
00000000
00010000
00000000
,
00001000
01000000
00010000
00000000
,
10000000
00000000
01000000
00000000
,
00100000
00000000
00001000
00001000
,
00010000
00000000
00000010
00000010
,
00001000
00000100
00000010
00000100
,
00010000
00001000
00000000
01000000
,
00010000
00000000
10000000
01000000
,
00100000
01000000
10000000
00000000
,
00010000
00000000
01000000
00001000
,
00010000
00001000
00010000
00000000
,
00000100
00001000
00000100
00001000
,
00000001
00000010
00000001
00000010
,
00000100
00000100
00010000
00010000
,
00001000
01000000
00000000
00100000
,
10000000
00010000
00100000
00000000
,
00001000
00010000
00000010
00001000
,
00000100
00000010
00000001
00000000
,
00000100
00000010
00010000
00000000
,
00001000
00001000
01000000
00010000
,
00100000
00000000
00100000
00000000
01000000
10000000
01000000
00000000
,
00100000
00100000
00001000
00010000
,
00000010
00001000
00000000
00000100
,
00000010
00000000
00000001
00000100
,
00001000
00010000
00100000
00000000
,
10000000
00000000
01000000
00010000
,
00001000
00000010
00000001
00000000
,
00000100
00000010
00000100
00000000
,
00000010
00010000
00001000
00000000
,
00100000
00100000
01000000
01000000
,
00100000
00000000
00010000
00000000
,
10000000
00000000
00010000
00000000
,
01000000
00000000
00001000
00000000
,
00010000
00000000
00000100
00000000
,
00001000
00000000
00000001
00000000
,
00000100
00000000
00000010
00000010
,
00000000
00000000
00001000
00001000
,
00000100
00000000
00010000
00010000
,
00001000
00000000
01000000
01000000
,
00010000
00000000
00100000
00100000
,
01000000
10000000
01000000
00100000
,
00000000
00000000
00000000
00010000
,
10000000
00010000
00100000
00010000
,
01000000
00001000
00010000
00000100
,
00001000
00000001
00000100
00000010
,
00001000
00000001
00000010
00000100
,
00010000
00001000
01000000
00010000
,
00100000
01000000
00100000
00010000
,
10000000
10000000
00100000
00100000
,
01000000
00001000
00010000
00000000
,
00000100
00001000
00000100
00000000
00000010
00000000
00000001
00000000
,
00001000
00000000
00000010
00000000
00010000
00010000
00010000
00000000
,
00001000
00010000
00001000
00000000
01000000
00000000
00010000
00000000
,
10000000
00000000
01000000
00000000
00100000
00100000
00100000
00000000
,
00010000
00100000
00010000
00000000
01000000
00000000
00001000
00000000
,
00010000
00000000
00000100
00000000
00001000
00001000
00001000
00000000
,
00000001
00000100
00000001
00000000
00001000
00000000
00000100
00000000
,
00010000
00001000
00000000
01000000
,
20020000
00000000
00000000
00000000
,
30030000
00000000
00000000
00000000
;

//--------------- dance-double - forcednature ----------------
#NOTEDATA:;
#STEPSTYPE:dance-double;
#DESCRIPTION:forcednature;
#DIFFICULTY:Medium;
#METER:11;
#RADARVALUES:0,0,0,0,0;
#CREDIT:forcednature;
#NOTES:
00000000
00000000
00000000
00000000
,
00000000
00000000
00000000
00000000
,
00000000
00000000
00000000
00000000
,
00001000
00000000
00000000
00001000
00000000
00000000
00001000
00000000
00010000
00000000
00000000
00010000
00000000
00000000
00010000
00000000
,
00000100
00000000
00000010
00000000
00000001
00001000
00000010
00000000
,
00000110
00000100
00001000
00010000
,
01000000
00000000
00100000
00000000
00010000
10000000
00010000
01000000
,
00100000
10000000
01000000
00010000
,
00001000
00000000
00000100
00000000
00000001
00000010
00000001
00000100
,
00000010
00000000
00000000
00000000
00010000
00000000
00000000
00000000
00001000
00000000
00000000
00001000
00000000
00001000
00000000
00000000
,
00100000
00000000
00000000
00000000
01000000
00000000
00000000
00000000
10000000
00000000
00000000
10000000
00000000
00000000
10000000
00000000
,
00100000
00000000
00000000
01000000
00000000
00000000
00100000
00000000
00010000
00000000
00000000
00001000
00000000
00000000
00010000
00000000
,
00000100
00000000
00001000
00000000
00000010
00000100
00000001
00000000
,
00000011
00000000
00000010
00000100
,
00010000
00001000
01000000
00100000
,
01100000
00000000
00100000
01000000
,
00001000
00000000
00010000
00000000
00000100
00001000
00000100
00001000
,
00000010
00000000
00000000
00000000
00000100
00000000
00000000
00000000
00000001
00000000
00000000
00001000
00000000
00000000
00000001
00000000
,
00000100
00000000
00000000
00000000
00000010
00000000
00000000
00000000
00010000
00000000
00000000
00001000
00000000
00000000
00100000
00000000
,
00010000
00000000
00000000
01000000
00000000
00000000
00010000
00000000
10000000
00000000
00000000
01000000
00000000
00000000
10000000
00000000
,
00100000
00100000
01000000
00000000
00001000
00010000
00000100
00000000
,
00000010
00000100
00010000
00001000
00100000
00001000
00010000
00000000
,
00000010
00001000
00000001
00000000
00000100
00000001
00001000
00000000
,
00000100
00000010
00000100
00010000
00001000
01000000
00010000
00000000
,
00100000
00000000
00000000
00100000
00000000
00000000
00100000
00000000
01000000
00000000
10000000
00000000
00100000
00000000
10000000
00000000
,
00010000
00000000
01000000
00000000
00010000
00000000
00000000
01000000
00000000
00010000
00000000
01000000
00010000
00000000
00000000
00000000
,
00100000
00001000
00010000
00000010
00010000
00010000
00010000
00000000
,
00000100
00000000
00001000
00000000
00000100
00000000
00000000
00001000
00000000
00000100
00000000
00001000
00000100
00000000
00000000
00000000
,
00010000
00001000
01000000
00001000
00000000
00010000
00100000
00000000
,
01100000
01000000
00010000
10000000
,
01000000
00000000
00010000
00000000
00001000
00001000
00001000
00000000
,
00011000
00010000
00000100
00001000
,
00000010
00000000
00000100
00000000
00000001
00001000
00000100
00000000
,
00000110
00000010
00000001
00000100
,
00001000
00010000
00001000
00000000
00010000
00001000
00010000
00000000
,
00100000
00000000
00000000
01000000
00000000
00000000
00100000
00000000
10000000
00000000
00000000
00010000
00000000
00000000
10000000
00000000
,
01000000
01000000
00100000
00000000
00001000
00010000
00000100
00000000
,
00000110
00000010
00000001
00000001
,
00000100
00001000
00010000
01000000
,
10000000
10000000
00100000
00100000
,
10000000
01000000
00010000
00001000
,
00011000
00000000
00000000
00000000
00010000
00000000
00000000
00000000
00000100
00000000
00000000
00001000
00000000
00000000
00000100
00000000
,
00010000
00000000
00000000
00000000
00001000
00000000
00000000
00000000
01000000
00000000
00000000
00010000
00000000
00000000
01000000
00000000
,
00100000
00000000
00000000
00100000
00000000
00000000
00100000
00000000
10000000
00000000
00000000
01000000
00000000
00000000
00100000
00000000
,
00001000
00000000
00000000
00001000
00000000
00000000
00001000
00000000
00010000
00000000
00000000
00000010
00000000
00000000
00001000
00000000
,
00000100
00000000
00000000
00000100
00000000
00000000
00000100
00000000
00000010
00000000
00000000
00000001
00000000
00000000
00001000
00000000
,
00000010
00000100
00001000
00000000
00010000
00100000
01000000
00200000
,
00000000
00000000
00000000
00000000
00000000
10300000
00010000
00000000
,
10000000
01000000
00100000
00001000
00010000
00000010
00001000
00000000
,
00000100
00000100
00000100
00000000
00000010
00000001
00001000
00000000
,
00000010
00010000
00001000
01000000
00010000
10000000
01000000
00000000
,
00100000
00100000
00100000
00000000
00001000
00010000
00000010
00000000
,
00000100
00001000
00000100
00000010
00001000
00000001
00000010
00000000
,
00000100
00000100
00000100
00000000
00010000
00001000
01000000
00000000
,
00010000
00000000
00000000
00010000
00000000
00000000
00010000
00000000
10000000
00000000
00000000
10000000
00000000
00000000
10000000
00000000
,
01000000
00000000
00100000
00000000
00001000
00010000
00000100
00000000
,
00001000
00000000
00000010
00000000
00000100
00000000
00000000
00000001
00000000
00000100
00000000
00000010
00001000
00000000
00000000
00000000
,
00000100
00010000
00001000
00000000
01000000
01000000
01000000
00000000
,
00010000
00000000
00100000
00000000
01000000
00000000
00000000
10000000
00000000
01000000
00000000
00100000
00010000
00000000
00000000
00000000
,
01000000
00001000
00010000
00000000
00000100
00000100
00000100
00000100
,
00001000
00000000
00000010
00000000
00010000
00000000
00000000
00000100
00000000
00010000
00000000
00000010
00001000
00000000
00000000
00000000
,
00000001
00000010
00000100
00000000
00010000
00010000
00010000
00000000
,
00001000
00000000
00100000
00000000
00010000
00000000
00000000
01000000
00000000
00010000
00000000
00100000
00001000
00000000
00000000
00000000
,
00010000
00000000
00100000
00000000
10000000
01000000
00010000
00000000
,
00022000
00000000
00000000
00000000
,
00033000
00000000
00000000
00000000
;

//--------------- dance-double - forcednature ----------------
#NOTEDATA:;
#STEPSTYPE:dance-double;
#DESCRIPTION:forcednature;
#DIFFICULTY:Hard;
#METER:15;
#RADARVALUES:0,0,0,0,0;
#CREDIT:forcednature;
#NOTES:
00000000
00000000
00000000
00000000
,
00000000
00000000
00000000
00000000
,
00000000
00000000
00000000
00000000
,
00010000
00000000
00000000
00010000
00000000
00000000
00010000
00000000
00001000
00000000
00000000
00001000
00000000
00000000
00001000
00000000
,
01000000
00010000
00100000
00100000
00000000
01000000
01100000
00000000
,
00100000
00001000
00010000
00000010
00001000
00000100
00000010
00000001
,
00000100
00001000
00000100
00000001
00000010
00000100
00010000
00001000
,
00100000
00010000
01000000
10000000
01000000
00010000
00100000
01000000
,
00010000
00001000
00000100
00000010
00001000
00000001
00000010
00000010
,
00000100
00000000
00010000
00000000
00001000
00000000
01000000
00000000
00010000
00000000
10000000
00010000
00000000
10000000
00010000
00000000
,
01000000
00000000
00001000
00000000
00010000
00000000
00000100
00000000
00001000
00000000
00000001
00001000
00000000
00000001
00001000
00000000
,
00000010
00000000
00000000
00000100
00000000
00000000
00001000
00000000
00010000
00000000
00000000
01000000
00000000
00000000
00100000
00000000
,
00010000
00000000
01000000
00000000
00100000
10000000
00100000
10000000
00010000
00000000
00100000
00000000
00001000
00000000
00000000
00000000
,
00020020
00030030
00000010
00000100
,
00001000
00001000
00010000
00000000
01000000
00000000
00100000
00000000
,
00202000
00303000
00100000
01000000
,
00010000
00010000
00001000
00000000
00000100
00000100
00000010
00000010
,
00001000
00000000
00000000
00000001
00000000
00000000
00000010
00000000
00000100
00000000
00001000
00000100
00000000
00001000
00000100
00000000
,
00010000
00000000
00010000
00000000
00001000
00000000
01000000
00000000
00010000
00000000
00100000
00010000
00000000
00100000
00010000
00000000
,
10000000
00000000
00000000
00100000
00000000
00000000
00010000
00000000
00001000
00000000
00000000
00000010
00000000
00000000
00000001
00000000
,
00000100
00000000
00000010
00000000
00001000
00000001
00001000
00000001
00000010
00000000
00000100
00000000
00000110
00000000
00000000
00000000
,
00000010
00000000
00000001
00000000
00001000
00000000
00000010
00010000
00000000
00001000
00010000
00000000
00001000
00000000
00000000
00000000
,
00100000
00000000
00010000
00100000
00000000
01000000
00100000
00000000
01000000
00000000
01000000
00000000
10000000
00000000
00010000
00000000
,
01000000
00000000
00001000
00000000
00010000
00000000
00000010
00001000
00000000
00000010
00000100
00000000
00000010
00000000
00000000
00000000
,
00001000
00000000
00000001
00000010
00000000
00000100
00000010
00000000
00000100
00000000
00000100
00000000
00010000
00000000
00001000
00000000
,
01000000
00000000
00010000
00000000
00100000
00001000
00000000
01000000
00000000
00010000
00000000
00100000
00001000
00000000
00000000
00000000
,
01000000
00000000
00010000
00000000
00100000
00001000
00100000
00001000
00010000
00000000
00010000
00000000
00010000
00000000
00000000
00000000
,
00000100
00000000
00010000
00000000
00000010
00001000
00000000
00000100
00000000
00010000
00000000
00000010
00001000
00000000
00000000
00000000
,
00000001
00000000
00000010
00000000
00000100
00001000
00000100
00001000
00000010
00000000
00010000
00000000
00011000
00000000
00000000
00000000
,
00001000
00100000
01000000
00100000
00010000
01000000
10000000
00000000
,
01000000
00010000
00000000
00100000
00000000
00001000
00000000
00000000
00010000
00000000
00010000
00000000
00010000
00000000
00000000
00000000
,
00000010
00001000
00000100
00000001
00000100
00000010
00000001
00000000
,
00000100
00000010
00000000
00000100
00001000
00000000
00010000
00000000
01000000
00000000
00100000
00000000
01100000
00000000
00000000
00000000
,
00100000
10000000
00100000
00010000
00100000
00001000
00010000
00000000
,
00000010
00001000
00000000
00000100
00000000
00000010
00000000
00000000
00000001
00000000
00000100
00000000
00001000
00000000
00000000
00000000
,
00010000
00000000
00000000
00100000
00000000
00000000
00010000
00000000
00001000
00000000
00000000
00000010
00000000
00000000
00001000
00000000
,
00010000
00000000
01000000
00000000
00100000
00010000
00100000
00010000
10000000
00000000
00100000
00000000
01100000
00000000
00000000
00000000
,
01000000
01000000
00001000
00001000
,
00010000
00010000
00000100
00000100
,
00001000
00001000
00000010
00000010
,
00000100
00000100
00000002
00000010
,
00000103
00000000
00000000
00000000
00000001
00000000
00000000
00000000
00000010
00000000
00000100
00000010
00000000
00000100
00000010
00000000
,
00000100
00000000
00000000
00000000
00010000
00000000
00000000
00000000
00001000
00000000
01000000
00001000
00000000
01000000
00001000
00000000
,
00010000
00000000
00000000
00100000
00000000
00000000
00010000
00000000
00001000
00000000
00000000
00000010
00000000
00000000
00001000
00000000
,
00010000
00000000
00000000
01000000
00000000
00000000
00010000
00000000
00001000
00000000
00000000
00000100
00000000
00000000
00001000
00000000
,
00010000
00000000
00000000
00100000
00000000
00000000
10000000
00000000
01000000
00000000
00000000
00010000
00000000
00000000
00001000
00000000
,
00000010
00000010
00000100
00001000
00000002
00000203
00002300
00023000
,
00000000
00000000
00000000
00000000
00000000
00130000
01100000
00000000
,
01000000
00010000
01000000
00000000
00100000
00000000
10000000
00000000
00010000
00000000
00100000
00000000
01000000
00000000
00100000
00000000
,
00001000
00010000
00000010
00000100
00001000
00010000
00000100
00000010
,
00000001
00001000
00000001
00000000
00000100
00000000
00001000
00000000
00010000
00000000
01000000
00000000
00100000
00000000
00001000
00000000
,
01000000
00100000
10000000
01000000
00010000
00001000
00000010
00000100
,
00010000
00001000
00010000
00000000
00000010
00000000
00000100
00000000
00001000
00000000
00000100
00000000
00000001
00000000
00000010
00000000
,
00000100
00010000
00001000
00100000
01000000
00100000
00001000
00010000
,
00100000
00000000
00000000
00010000
00000000
00000000
00001000
00000000
00000010
00000000
00000000
00001000
00000000
00000000
00010000
00000000
,
01000000
10000000
00010000
10000000
00100000
01000000
01100000
00000000
,
00100000
00000000
10000000
00000000
01000000
00010000
00000000
00001000
00000000
00000100
00000000
00000001
00000010
00000000
00000000
00000000
,
00000100
00000000
00010000
00000000
00000010
00001000
00000010
00001000
00000100
00000000
00000100
00000000
00000100
00000000
00000000
00000000
,
00000010
00000000
00000001
00000000
00000100
00001000
00000000
00010000
00000000
01000000
00000000
10000000
00100000
00000000
00000000
00000000
,
01000000
00000000
00001000
00000000
00100000
00010000
00100000
00010000
01000000
00000000
01000000
00000000
01000000
00000000
01000000
00000000
,
00100000
00000000
10000000
00000000
01000000
00010000
00000000
00001000
00000000
00000100
00000000
00000001
00000010
00000000
00000000
00000000
,
00000100
00000000
00010000
00000000
00000010
00001000
00000010
00001000
00000100
00000000
00000100
00000000
00000100
00000000
00000000
00000000
,
00000010
00000000
00000001
00000000
00000100
00001000
00000000
00010000
00000000
01000000
00000000
10000000
00100000
00000000
00000000
00000000
,
01000000
00000000
00001000
00000000
00100000
00010000
00100000
00010000
01000000
00000000
00001000
00000000
00011000
00000000
00000000
00000000
,
00002200
00000000
00000000
00000000
,
00003300
00000000
00000000
00000000
;
