#VERSION:0.83;
#TITLE:Level 4;
#SUBTITLE:;
#ARTIST:Yamato;
#TITLETRANSLIT:;
#SUBTITLETRANSLIT:;
#ARTISTTRANSLIT:;
#GENRE:DnB;
#CREDIT:;
#MUSIC:Level 4.ogg;
#BANNER:Level 4.png;
#BACKGROUND:Level 4-bg.png;
#CDTITLE:./CDTitles/bm IIDX 30 RESIDENT.png;
#SAMPLESTART:33.385;
#SAMPLELENGTH:15.000;
#SELECTABLE:YES;
#OFFSET:-0.052;
#BPMS:0.000=180.000
,318.000=90.000
,319.500=180.000
;
#STOPS:288.000=0.333
,289.000=0.333
,319.500=0.167
;
#TIMESIGNATURES:0.000=4=4,
288.000=2=4,
290.000=4=4,
318.000=2=4,
320.000=4=4
;
#DISPLAYBPM:180.000;
#BGCHANGES:4.000=Level 4.mp4=1.000=0=0=0=StretchNoLoop====,
99999.000=-nosongbg-=1.000=0=0=0=StretchNoLoop====
;
#FGCHANGES:;

//--------------- dance-single - forcednature ----------------
#NOTEDATA:;
#STEPSTYPE:dance-single;
#DESCRIPTION:forcednature;
#CREDIT:forcednature;
#DIFFICULTY:Beginner;
#METER:6;
#RADARVALUES:0,0,0,0,0;
#NOTES:
0000
0000
0000
0000
,
0000
0000
0000
0000
,
0000
0000
0000
0000
,
0000
0000
0000
0000
,
0000
0000
0000
0000
,
0000
0000
0000
0000
,
1000
0000
0000
0000
,
0100
0000
0000
0000
,
0010
0000
0001
0000
,
1000
0001
0000
0000
,
1001
0000
0001
0000
,
0100
0000
0000
0000
,
0001
0000
0010
0000
,
0001
0000
0000
0000
,
1000
0000
1000
0000
,
0100
0000
0000
0000
,
1000
0000
0010
0000
,
1000
0000
0000
0000
,
0001
0000
0000
0000
,
0100
0000
0000
0000
,
0010
0000
0000
0000
,
1000
0000
0000
0000
,
0001
0000
0001
0000
,
0010
0000
0010
0000
,
0100
0000
1000
0000
,
0001
0000
0000
0000
,
1001
0000
0000
0000
,
1000
0000
0000
0000
,
0010
0000
0100
0000
,
0001
0000
0100
0000
,
0010
0000
0000
0000
,
1000
0000
0000
0000
,
0001
0000
1000
0000
,
0100
0000
1000
0000
,
0001
0000
0000
0000
,
0010
0000
0000
0000
,
0001
0000
0100
0000
,
0010
0000
0100
0000
,
0001
0000
0000
0000
,
1000
0000
0000
0000
,
0100
0000
0010
0000
,
0100
0000
1000
0000
,
1001
0000
0000
0000
,
0001
0000
0000
0000
,
0010
0000
0000
0000
,
0001
0000
0001
0000
,
0100
0000
0000
0000
,
0010
0000
0000
0000
,
1000
0000
1000
0000
,
0001
0000
0000
0000
,
1000
0000
1000
0000
,
0100
0000
0100
0000
,
0010
0000
0010
0000
,
0001
0000
0001
0000
,
0100
0000
0100
0000
,
0010
0000
0010
0000
,
1000
0000
1000
0000
,
0001
0000
0001
0000
,
0010
0010
0010
0000
,
0010
0010
0010
0000
,
0100
0100
0100
0000
,
0100
0100
0100
0000
,
1000
0001
1000
0000
,
0001
1000
0001
0000
,
0100
0010
0100
0000
,
0010
0100
0010
0000
,
1000
0001
1000
0001
,
0010
0100
0010
0100
,
1000
0001
1000
0001
,
0100
0010
0100
0010
,
1000
0100
1000
0100
,
0010
0001
0010
0001
,
0100
0010
1000
0001
,
0100
0000
1001
0000
,
0000
0000
0001
0000
,
0000
0000
0010
0000
,
0100
0000
1000
0000
,
0100
0000
0110
0000
,
0000
0000
0001
0001
,
0001
0000
1001
0000
,
1000
1000
1000
0010
,
1000
0000
0001
0000
,
0100
0000
0000
0000
,
0001
0000
0010
0000
,
0001
0001
0100
0000
,
1001
0000
1000
0000
,
0010
0000
1000
0000
,
0100
0100
1000
0000
,
0010
0000
0100
0000
,
1001
0000
0000
0000
;

//--------------- dance-single - forcednature ----------------
#NOTEDATA:;
#STEPSTYPE:dance-single;
#DESCRIPTION:forcednature;
#CREDIT:forcednature;
#DIFFICULTY:Easy;
#METER:9;
#RADARVALUES:0,0,0,0,0;
#NOTES:
0000
0000
0000
0000
,
0000
0000
0000
0000
,
0000
0000
0000
0000
,
0000
0000
0000
0000
,
0000
0000
0000
0000
,
0000
0000
0000
0000
,
1001
0000
0000
0000
,
0110
0000
0000
0000
,
1001
0000
0110
0000
,
1001
0110
1001
0000
,
1000
0100
1000
0010
,
1000
0001
1001
0000
,
0001
0100
0001
0010
,
0001
1000
1001
0000
,
1000
0010
0100
0010
,
1000
0001
0101
0000
,
0001
0010
0100
0010
,
0001
1000
1100
0000
,
1000
1000
0010
1000
,
0001
0001
0010
0001
,
1000
1000
0100
1000
,
0001
0001
0100
0001
,
0010
0100
1000
0010
,
0100
0001
0010
0100
,
2000
0001
0001
3001
,
0010
0000
0100
0010
,
1001
0000
0001
0100
,
0001
1000
0010
0000
,
1000
0100
0001
0100
,
1000
0001
0010
0000
,
0001
0100
0010
1000
,
0010
0100
0001
0000
,
0010
0010
0001
1000
,
0100
0001
0100
0000
,
1000
0010
1000
0010
,
0100
0001
0100
0001
,
0010
0100
0010
0100
,
1000
0001
1000
0001
,
0100
1000
0100
0001
,
0010
1000
0010
0001
,
0100
1000
0100
0001
,
0010
0100
0110
0000
,
1001
0000
2000
0000
,
3200
0000
0320
0000
,
0031
1000
0200
0000
,
2300
0000
3002
0000
,
0103
0010
2000
0000
,
3002
0000
0023
0000
,
0031
1000
0200
0000
,
1300
0001
0020
0000
,
0031
0001
0100
0001
,
0100
0100
0010
0100
,
0010
0010
1000
0010
,
1000
1000
0001
1000
,
0100
0100
1000
0100
,
0010
0010
0100
0010
,
0001
0001
0010
0001
,
1000
0001
1000
1001
,
0001
0100
1000
0100
,
0001
0010
1000
0010
,
0001
0100
1000
0100
,
0001
0010
1000
0010
,
0001
1000
0001
0000
1000
0000
0100
0000
,
1000
0001
1000
0000
0001
0000
0100
0000
,
0001
1000
0001
0000
1000
0000
0010
0000
,
1000
0001
1000
0000
0001
0000
0010
0000
,
0110
1000
0010
0100
,
0110
0001
0010
0100
,
0110
0001
1000
0100
,
0110
1000
0001
0100
,
0001
1000
0001
0000
1000
0000
0100
0000
,
1000
0001
1000
0000
0001
0000
0100
0000
,
0010
0100
0001
1000
,
0100
0000
0110
0000
1001
0000
0000
0001
,
0000
0000
0010
0000
0001
0000
0100
0001
,
0100
0010
1000
1100
,
0001
0101
1000
1100
,
0001
0000
0101
0000
1000
0000
0010
1000
,
0000
0000
0001
0000
0010
0000
0001
0010
,
0000
0000
0100
0000
0220
0000
0000
0330
,
1000
0001
1000
0000
0001
0000
1001
0000
,
1000
0000
0010
0000
1000
0100
1000
0000
,
0001
0000
0010
0000
0001
0100
0001
0000
,
0010
0000
0100
0010
0000
0000
0100
0010
,
0000
0000
0100
0010
0000
0000
1001
0000
,
1000
0000
0010
1000
0010
0000
0100
0000
,
0001
0000
0010
0001
0010
0000
0100
0000
,
1000
1000
1000
0000
0001
0000
0100
0000
,
0001
0001
0001
0000
1000
0000
0010
0000
,
2002
0000
0000
3003
;

//--------------- dance-single - forcednature ----------------
#NOTEDATA:;
#STEPSTYPE:dance-single;
#DESCRIPTION:forcednature;
#CREDIT:forcednature;
#DIFFICULTY:Medium;
#METER:14;
#RADARVALUES:0,0,0,0,0;
#NOTES:
0000
0000
0000
0000
,
0000
0000
0000
0000
,
0000
0000
0000
0000
,
0000
0000
0000
0000
,
0000
0000
0000
0000
,
0000
0000
0000
0000
,
1001
0100
0000
0100
,
1001
0010
0000
0010
,
1001
0000
0110
0000
,
1001
0110
0002
0003
,
1001
0000
1000
0100
1000
0010
1000
0000
,
0001
0000
0000
0001
0000
0000
0100
0000
0001
0000
0000
0000
0010
0000
0001
0000
,
0010
0000
0001
0100
0001
0010
0001
0000
,
1000
0000
0000
1000
0000
0000
0100
0000
2000
0000
0000
0000
3010
0000
0000
0000
,
0001
0100
0001
0100
0010
1000
0001
0000
,
1000
0000
0000
0100
0000
0000
1000
0000
0001
0000
0010
0000
0100
0000
0000
0000
,
0010
0001
0100
0001
1000
0100
1000
0000
,
0020
0000
0100
0100
0200
0000
0330
0000
,
0001
1000
0100
1000
0010
1000
0100
1000
,
0010
0001
0010
1000
0010
0001
0010
0100
,
0001
0010
0001
0100
0001
1000
0001
0010
,
0100
0001
0100
1000
0100
0010
0100
0001
,
0100
1000
0100
1000
0100
0000
1000
0010
1000
0010
1000
0000
,
0001
0010
0001
0010
0001
0000
0100
0001
0100
0001
0100
0000
,
0002
0010
0023
0100
0230
1000
2300
0001
,
3002
0000
0003
0000
0100
0010
0110
0000
,
1001
0000
1000
0100
0001
0100
1000
0000
,
0001
0010
0100
1000
0010
0100
0001
0000
,
0001
0100
1000
0100
0001
1000
0010
0000
,
1000
0100
0010
0001
0100
0010
1000
0000
,
0001
0001
0001
0100
1000
0100
0001
0000
,
1000
1000
0010
0010
1000
0100
0001
0000
,
0100
1000
0010
1000
0100
0001
0100
0000
,
0010
0000
0001
0000
0100
0000
0001
0000
1000
0000
0001
1000
0001
0000
0000
0000
,
0100
0010
1000
0100
0010
0001
0100
0000
,
0010
1000
0100
0001
0100
1000
1100
0000
,
0001
0010
1000
0010
0001
1000
0100
0000
,
0010
0001
0100
1000
0100
0001
0010
0000
,
0001
0000
1000
0001
1000
0000
0010
0000
0100
0000
0001
0000
0010
0000
0000
0000
,
0110
0000
0000
0000
1000
0000
0010
0000
0100
0000
0001
0100
0001
0000
0000
0000
,
1000
0100
1000
0010
1000
0100
0001
0000
,
0100
0000
0100
0000
1000
0100
1000
0000
0001
0000
0010
0000
0011
0000
0000
0000
,
1001
2000
3020
0032
,
0013
1000
0001
0100
0010
0000
0110
0000
,
1001
0002
0023
2030
,
3010
0001
1000
0100
1000
0001
0010
0000
,
0200
2300
3020
0032
,
0013
1000
0001
0100
1000
0100
0001
0000
,
0020
0000
0130
1000
0020
0000
0130
0001
,
0010
0000
0001
0010
0001
0000
0100
0000
0010
0000
1000
0000
0001
0000
0000
0000
,
0010
0000
0001
0000
0010
0001
0000
0000
0010
0000
0000
0001
0010
0000
0000
0000
,
0100
0000
1000
0000
0100
1000
0000
0000
0100
0000
0000
1000
0100
0000
0000
0000
,
1000
0000
0010
0000
1000
0010
0000
0000
1000
0000
0000
0010
1000
0000
0000
0000
,
0001
0000
0100
0000
0001
0100
0000
0000
0001
0000
0000
0100
0001
0000
0000
0000
,
0010
0000
0100
0000
0010
0100
0000
0000
1000
0000
0000
0001
0100
0000
0000
0000
,
0010
0000
0100
0000
0010
0100
0000
0000
0001
0000
0000
1000
0100
0000
0000
0000
,
0010
0000
0001
0000
0010
0001
0000
0000
0100
0000
0000
0001
1000
0000
0000
0000
,
0010
0000
1000
0010
1000
0000
0010
0000
0100
0000
0001
0000
0011
0000
0000
0000
,
0001
1000
0100
1000
0010
1000
0100
1000
,
0001
0100
0001
0010
0001
1000
0001
0100
,
0010
0001
0010
0100
0010
0001
0010
1000
,
0100
0000
0001
0000
0100
0000
1000
0000
0100
0000
0010
0100
0010
0000
0000
0000
,
0001
0010
0100
0010
0001
0000
1000
0010
0100
0010
1000
0000
,
0001
0100
0010
0100
0001
0000
1000
0100
0010
0100
1000
0000
,
0001
0010
0100
1000
0100
0000
1000
0010
0100
0001
0100
0000
,
0010
0000
0000
0000
1000
0000
0000
0000
0001
0000
0000
0000
1000
0000
0000
0000
0001
0000
0000
0000
0000
0000
0000
0000
0100
0000
0000
0000
0000
0000
0010
0000
0000
0100
0000
0000
0010
0000
0000
0000
0000
0000
0000
0000
0000
0000
0000
0000
,
2000
0100
3100
1000
0002
0100
0103
0001
,
2000
0010
3010
1000
0002
0010
0013
0001
,
0200
0010
0301
0100
0020
1000
0130
0010
,
2000
0001
3100
1000
0002
1000
0013
0001
,
0010
0000
0001
0000
0010
0001
0010
0000
0001
0000
0100
0000
0001
0100
0001
0000
,
1000
0000
0100
0000
1000
0100
1000
0000
0010
0000
1000
0000
0010
1000
0010
0000
,
0100
0010
1000
0001
,
1001
0000
0110
0000
0001
1000
0100
0001
,
0000
0100
1000
0001
0000
0010
0001
1000
,
0010
0000
0000
0010
0000
0000
0100
0000
0001
0000
0000
0010
0001
0000
0010
0000
,
0100
0000
0000
0000
0000
0000
0000
0000
0000
0010
0000
0000
0100
0000
0000
0000
0000
0000
1000
0000
0000
0000
0000
0000
0001
0000
0000
0000
0100
0000
0000
0000
0010
0000
0000
0000
1000
0000
0000
0000
0010
0000
0000
0000
0100
0000
0000
0000
,
0001
0000
1000
0001
1000
0000
0000
0000
0001
0000
0100
0000
1000
0000
0100
0000
,
0001
0000
1000
0000
0010
0000
0000
0000
1000
0000
0100
1000
0100
0000
0010
0001
,
0010
0000
0011
0000
2002
0000
0000
3003
,
0100
1000
0100
0001
0100
0010
1001
0000
,
0001
1000
0100
0001
0000
0100
1000
0001
,
0010
0000
0000
0010
0001
0000
0100
0000
0010
0000
1000
0000
1010
0000
0000
0000
,
0001
0000
0000
0010
0100
0000
1000
0000
0001
0000
0000
0100
0010
0000
1000
0000
,
0001
0010
0100
1000
0100
0010
0001
0000
0000
1001
0000
0000
,
1000
0100
0001
0100
0000
1000
0010
1000
,
0000
0001
0100
1000
0100
0001
0010
0000
,
0100
1000
1100
0000
0011
0000
0001
1000
,
0010
0000
1000
0010
1000
0000
0001
0000
0100
0000
0010
0000
1000
0001
1000
0001
,
0020
0000
0000
0030
;

//--------------- dance-single - forcednature ----------------
#NOTEDATA:;
#STEPSTYPE:dance-single;
#DESCRIPTION:forcednature;
#CREDIT:forcednature;
#DIFFICULTY:Hard;
#METER:17;
#RADARVALUES:0,0,0,0,0;
#NOTES:
0000
0000
0000
0000
,
0000
0000
0000
0000
,
0000
0000
0000
0000
,
0000
0000
0000
0000
,
0000
0000
0000
0000
,
0000
0000
0000
0000
,
1001
1000
0000
0100
,
1001
0001
0000
0010
,
0110
1000
0110
0001
,
0101
1010
0200
0300
,
1001
0000
1000
0100
0001
0100
1000
0001
,
0010
0000
0100
0010
0000
0001
0010
0000
1001
0000
0000
0000
1000
0000
0100
0000
,
1000
0000
0001
0100
1000
0100
0001
1000
,
0010
0000
0100
0010
0000
1000
0010
0000
0100
0001
0100
0001
1000
0000
0000
0000
,
0001
0001
0010
0001
1000
0100
0001
0100
,
1000
0000
0010
0100
0000
0001
0100
0000
0010
0000
0000
0000
1000
0000
0001
0000
,
1001
0000
0001
0100
1000
0100
0001
0000
,
0010
0000
0001
0010
0000
0100
0010
0000
0100
1000
0100
1000
0001
0000
0000
0000
,
0100
0010
0100
0000
0100
0001
0000
0100
0010
0000
1000
0100
0000
0010
0100
0000
,
1000
0010
1000
0000
1000
0100
0000
1000
0010
0000
0100
0001
0000
1000
0100
0000
,
0010
0001
0010
0000
0010
0100
0000
1000
0010
0000
0100
0001
0000
0001
0010
0000
,
0001
0100
0001
0000
0001
0010
0000
0001
1000
0100
1000
0100
0010
0000
0010
0000
,
0100
1000
0010
0100
0001
0010
0001
0100
0010
1000
0100
1000
,
0010
0100
0001
0010
0001
0100
0010
1000
0100
1000
0010
0100
,
0001
0010
0001
0010
0100
1000
0100
1000
0001
0010
0100
1000
0001
0100
0010
1000
,
0002
0000
0003
0000
0010
0010
0100
0010
,
1001
0000
0000
0001
0100
0000
0001
0000
1000
0000
0010
1000
0010
0000
0010
0000
,
0100
0001
1000
0000
0100
1000
0000
0100
0010
0000
0001
1000
0002
0000
0000
0000
,
0103
0000
0010
0000
1000
0010
1000
0000
0001
0000
1000
0100
0001
0000
0000
0000
,
0100
0000
0000
0000
1000
0000
0000
0000
0001
0000
0000
0000
0010
0000
0000
0000
0001
0000
0000
0000
1000
0000
0000
0000
0100
0000
0000
0010
0000
0000
0100
0000
0000
0010
0000
0000
0001
0000
0000
0000
0000
0000
0000
0000
0000
0000
0000
0000
,
1000
0010
0100
0010
1000
0000
0001
0000
0010
0000
0100
1000
0001
0000
0010
0000
,
0001
0100
0010
0100
0001
1000
0010
1000
0002
0000
0000
0013
1000
0000
0000
0000
,
0010
0001
0010
0000
0001
0100
0001
0000
1000
0100
1000
0100
0010
0000
0001
0000
,
1000
0010
1000
0010
1000
0000
1000
0001
1000
0100
0010
0001
1000
0000
0000
0000
,
0010
0100
0001
0100
0010
0000
1000
0000
0001
0000
0010
0100
1000
0000
0001
0000
,
0100
0001
0100
0000
0010
1000
0000
0100
1000
0001
0010
0001
1000
0000
0000
0000
,
0100
0000
0001
0000
0100
1000
0000
0001
0010
0000
0100
1000
0020
0000
0000
0000
,
0130
0000
0000
0000
0001
0000
0000
0000
0010
0000
0000
0000
0100
0000
0000
0000
1000
0000
0000
0000
0010
0000
0000
0000
0100
0000
0000
0001
0000
0000
0100
0000
0000
0001
0000
0000
1000
0000
0000
0000
0000
0000
0100
0000
0000
0000
0000
0000
,
1000
0010
1000
0000
0001
0010
0000
0100
0010
0000
0001
1000
0000
0100
1000
0000
,
0001
0000
0000
0000
0100
0000
0000
0000
0100
0000
0000
0000
0001
0000
0000
0000
0010
0000
0000
0000
0001
0000
0000
0000
1000
0000
0000
0100
0000
0000
1000
0000
0000
0010
0000
0000
0100
0000
0000
0000
0000
0000
0000
0000
0000
0000
0000
0000
,
0001
0010
0001
0000
1000
0010
1000
0000
0001
0010
0100
1000
0002
0000
0000
0000
,
0103
0000
0100
0000
0100
0010
1000
0001
0100
0000
0010
0000
1000
0100
0010
0001
,
1000
0000
0020
0100
0230
0001
0302
0010
,
0103
0000
0000
0000
0000
0000
0000
0000
0101
0000
0000
0000
0000
0000
0000
0000
0101
0000
0000
0000
0000
0000
0000
0000
1010
0000
0000
0000
0000
0000
0000
0000
0000
1000
0000
0000
0001
0000
0000
0000
0000
0000
0001
0000
0000
0000
0000
0000
,
0011
0000
2000
0100
3200
0010
0320
1000
,
0031
0000
0000
0000
0000
0000
0000
0000
0011
0000
0000
0000
0000
0000
0000
0000
0110
0000
0000
0000
1000
0000
0000
0000
0002
0000
0000
0003
0000
0000
0200
0000
0000
0300
0000
0000
0020
0000
0000
0030
0000
0000
2000
0000
0000
3000
0000
0000
,
0002
0010
0203
0010
0302
1000
0203
1000
,
0301
0000
0000
0000
0000
0000
0000
0000
0101
0000
0000
0000
0000
0000
0000
0000
0011
0000
0000
0000
0000
0000
0000
0000
1010
0000
0000
0000
0000
0000
0000
0000
0000
0001
0000
0000
0100
0000
0000
0000
0000
0000
0000
0000
0000
0000
0000
0000
,
0020
1000
0230
0001
0320
1000
0230
0001
,
0310
1000
0010
1000
0001
0100
0010
0100
0001
1000
0010
0100
0001
0000
0000
0000
,
1000
0000
0100
0000
1000
0010
0000
0100
0010
0000
1000
0001
0000
0001
0100
0000
,
0001
0000
0010
0000
0001
0100
0000
0010
0100
0000
0001
1000
0000
1000
0010
0000
,
1000
0000
0100
0000
0001
0100
0000
1000
0100
0000
0010
0001
0000
0001
1000
0000
,
0001
0000
0100
0010
1000
0000
0100
0010
0001
0000
0100
0000
1001
0000
0000
0000
,
1000
0000
0010
0000
0001
0010
0000
1000
0001
0000
0100
0010
0000
0010
1000
0000
,
0001
0000
0010
0000
1000
0010
0000
0001
1000
0000
0100
0010
0000
0010
0001
0000
,
1000
0000
0010
0000
0100
1000
0000
0100
0001
0000
1000
0010
0100
0010
0100
0000
,
0001
0010
0001
0010
0100
1000
0001
1000
0010
0100
0001
1000
0010
0000
0000
0000
,
1000
0100
1000
0000
1000
0010
1000
0001
1000
0000
1000
0100
1000
0010
1000
0000
,
0001
0100
0001
0000
0001
0010
0001
1000
0001
0000
0001
0100
0001
0010
0001
0000
,
0010
0100
0010
0000
0010
0001
0010
0100
0010
0000
0010
1000
0010
0001
0010
0000
,
0100
1000
0100
0000
0100
0010
0100
0001
0100
1000
0100
0010
0001
0000
0000
0000
,
0100
0010
1000
0100
0010
0001
1000
0100
0001
1000
0010
0001
,
1000
0010
0100
1000
0001
0010
0100
0001
1000
0100
0001
1000
,
0010
0001
0100
0001
1000
0100
1000
0010
0100
1000
0001
0010
,
0100
0000
0000
0000
0001
0000
0000
0000
0010
0000
0000
0000
1000
0000
0000
0000
0001
0000
0000
0000
0100
0000
0000
0000
1000
0000
0000
0001
0000
0000
0010
0000
0000
0100
0000
0000
1000
0000
0000
0000
0000
0000
0000
0000
0000
0000
0000
0000
,
0001
0100
0010
0100
0001
0100
0010
0100
0001
1000
0010
1000
0001
1000
0010
1000
,
0001
0010
0100
0010
0001
0010
0100
0010
0001
1000
0100
1000
0001
1000
0100
1000
,
0010
0100
0001
1000
0010
0100
0001
1000
0100
0010
0001
1000
0100
0010
0001
1000
,
0010
0100
0001
0010
0001
1000
0100
1000
0010
0100
0001
0010
0100
1000
0010
0100
,
0001
0010
0001
0010
0100
0010
0100
0010
0001
1000
0001
1000
0100
1000
0100
1000
,
0010
0100
0001
0010
0100
1000
0010
0100
0001
1000
0010
0100
1000
0100
0001
1000
,
0010
0110
1001
0110
,
0001
1000
0100
0010
0002
0000
0000
0000
1003
0000
0010
0000
0010
0000
0001
0010
,
1000
0000
0001
0000
0100
0010
1000
0000
0002
0000
0010
0000
2003
0000
3010
0000
,
1001
0000
0000
0110
0000
0000
1001
0000
1000
0100
0010
0100
1000
0000
0001
0000
,
1000
0000
0000
0010
0000
0000
0100
0000
0000
0001
0000
0000
1000
0000
0000
0000
0000
0000
0001
0000
0000
0000
0000
0000
0010
0000
0000
0000
0100
0000
0000
0000
1000
0000
0000
0000
0010
0000
0000
0000
0100
0000
0000
0000
0001
0000
0000
0000
,
0010
0100
1000
0100
0002
0000
0000
0000
0103
1000
0100
1000
0001
0010
0100
1000
,
0002
0000
0100
0000
1003
0000
0000
0000
0001
0100
0001
0100
0010
1000
0001
0100
,
0010
0000
1000
0001
0010
0000
0000
0000
0220
0000
0000
0000
0000
0000
0330
0000
,
1000
0100
0001
0100
1000
0010
0001
0010
1000
0100
0001
0100
0010
0000
0000
0000
,
0001
0000
1000
0001
1000
0000
1001
0000
0001
0010
0100
1000
0000
0100
0010
0000
,
0001
0000
1000
0010
1000
0000
0001
0000
0100
0010
1000
0001
0100
0000
0000
0000
,
0010
1000
0000
1000
0100
0000
0001
0000
0100
1000
0100
1000
0002
0000
0010
0000
,
0103
0000
0000
0000
0001
0000
0000
0000
1000
0000
0000
0000
0010
0000
0000
0000
1000
0000
0000
0000
0001
0000
0000
0000
0010
0000
0000
0100
0000
0000
1000
0000
0000
0001
0000
0000
0020
0000
0000
0000
0000
0000
0000
0000
0000
0000
0000
0000
,
0130
0001
0100
1000
0100
0000
0010
0001
1000
0000
0010
0000
0110
0000
0001
0000
,
1000
0000
0000
0000
0010
0000
0000
0000
0100
0000
0000
0000
0001
0000
0000
0000
0010
0000
0000
0000
0100
0000
0000
0000
1000
0000
0000
0000
0000
0000
0001
0000
0000
0100
0000
0000
0010
0000
0000
0000
0000
0000
0000
0000
0000
0000
0000
0000
,
1000
0100
0010
0100
1000
0100
0010
0000
0001
0100
0010
0000
1000
0100
0010
0000
,
0001
1000
0010
1000
0001
0100
0010
0100
0001
0010
0100
1000
0100
0010
0001
1000
,
0020
0000
0000
0030
;

//--------------- dance-double - forcednature ----------------
#NOTEDATA:;
#STEPSTYPE:dance-double;
#DESCRIPTION:forcednature;
#CREDIT:forcednature;
#DIFFICULTY:Easy;
#METER:9;
#RADARVALUES:0,0,0,0,0;
#NOTES:
00000000
00000000
00000000
00000000
,
00000000
00000000
00000000
00000000
,
00000000
00000000
00000000
00000000
,
00000000
00000000
00000000
00000000
,
00000000
00000000
00000000
00000000
,
00000000
00000000
00000000
00000000
,
00011000
00000000
00000000
00000000
,
00011000
00000000
00000000
00000000
,
00010000
00000000
00001000
00000000
,
00010000
00001000
00011000
00000000
,
01000000
00010000
01000000
00000000
,
00100000
00000000
10010000
00000000
,
00010000
00100000
00010000
00000000
,
00100000
00000000
00011000
00000000
,
00000010
00001000
00000010
00000000
,
00000100
00000000
00001001
00000000
,
00000001
00000010
00000001
00000000
,
00001000
00000100
00001000
00000000
,
00000001
00000001
00000100
00000000
,
00000001
00000001
00000010
00000000
,
00001000
00001000
00010000
00000000
,
00010000
00010000
00001000
00000000
,
01000000
01000000
00010000
00100000
,
01000000
01000000
10000000
00100000
,
20000000
00010000
00010000
30010000
,
00100000
00000000
01000000
00000000
,
10010000
00000000
00010000
00100000
,
00001000
00000000
00010000
00000000
,
00000010
00000000
00001000
00000001
,
00000100
00000010
00001000
00000000
,
00000001
00000010
00000001
00000000
,
00000010
00000100
00001000
00000000
,
00000100
00000100
00010000
00000000
,
00001000
00010000
00001000
00000000
,
00100000
00010000
00100000
00010000
,
10000000
01000000
10000000
00000000
,
00010000
01000000
00010000
01000000
,
00001000
00010000
00001000
00000000
,
00010000
00000100
00001000
00000000
,
00000001
00000100
00000010
00000000
,
00001000
00000100
00010000
00001000
,
00100000
00010000
01000000
00000000
,
10010000
00000000
20000000
00000000
,
32000000
00000000
03200000
00000000
,
00310000
00000000
02000000
00000000
,
03002000
00000000
00023000
00000000
,
00030010
00001000
00000020
00000000
,
00000230
00000000
00000302
00000000
,
00000013
00000100
00000020
00000000
,
00000130
00000000
00020000
00000000
,
00031000
00001000
00010000
00000000
,
00001000
00001000
00100000
00000000
,
00001000
00001000
00010000
00000000
,
00001000
00001000
01000000
00000000
,
00010000
00010000
10000000
00000000
,
00010000
00010000
00100000
00000000
,
00010000
00010000
01000000
00000000
,
00001000
00000000
00010000
00000000
,
00001000
00010000
00001000
00010000
,
00000100
00001000
00000100
00001000
,
00000010
00000100
00000010
00000100
,
00000001
00000010
00000001
00000010
,
00000100
00000100
00010000
00010000
,
00001000
00001000
00100000
00100000
,
00010000
00010000
01000000
01000000
,
00100000
00100000
10000000
00010000
,
00100000
00001000
00010000
00000100
,
00001000
00000010
00000100
00000001
,
00000010
00001000
00010000
01000000
,
00100000
00010000
10000000
00100000
,
10000000
01000000
00010000
00001000
,
00000100
00000001
00000010
00000100
,
00000010
00000100
00001000
00000001
,
00000100
00000110
00001001
00000000
,
00001000
00000100
00010000
00000000
,
00001000
00001000
01000000
00010000
,
00100000
00010000
10000000
00100000
,
00010000
00000000
00100000
00000000
10000000
00000000
01000000
10000000
,
00000000
00000000
01000000
00000000
00010000
00000000
00001000
00010000
,
00000000
00000000
00001000
00000000
00022000
00000000
00000000
00033000
,
00001000
00010000
00001000
00000000
00010000
00000000
00011000
00000000
,
00000100
00001000
00000100
00000010
,
00000001
00000000
00000100
00000000
00000001
00001000
00000001
00000000
,
00000010
00000000
00000100
00001000
00000000
00000000
00000100
00001000
,
00000000
00000000
00000100
00001000
00000000
00000000
00011000
00000000
,
01000000
00000000
00010000
01000000
00010000
00000000
10000000
00000000
,
00100000
00000000
10000000
00010000
10000000
00000000
01000000
00000000
,
00010000
00010000
00001000
00000010
,
00000001
00000001
00000001
00000000
00000100
00000000
00000010
00000000
,
00002002
00000000
00000000
00003003
;

//--------------- dance-double - forcednature ----------------
#NOTEDATA:;
#STEPSTYPE:dance-double;
#DESCRIPTION:forcednature;
#CREDIT:forcednature;
#DIFFICULTY:Medium;
#METER:14;
#RADARVALUES:0,0,0,0,0;
#NOTES:
00000000
00000000
00000000
00000000
,
00000000
00000000
00000000
00000000
,
00000000
00000000
00000000
00000000
,
00000000
00000000
00000000
00000000
,
00000000
00000000
00000000
00000000
,
00000000
00000000
00000000
00000000
,
00011000
00000010
00000000
00010000
,
00011000
00100000
00000000
00001000
,
00011000
00000000
01100000
00000000
,
10010000
01100000
00020000
00030000
,
10010000
00000000
10000000
01000000
10000000
00000000
00100000
00000000
,
00010000
00000000
00000000
00010000
00000000
00000000
00001000
00000000
00010000
00000000
00000000
00000000
00000100
00000000
00000000
00000000
,
00001000
00000000
00000010
00000100
00000010
00000000
00001000
00000000
,
00000001
00000000
00000000
00000001
00000000
00000000
00000010
00000000
00000002
00000000
00000000
00000000
00000103
00000000
00000000
00000000
,
00000010
00001000
00000010
00001000
00000100
00010000
00001000
00000000
,
00100000
00000000
00000000
00100000
00000000
00000000
00010000
00000000
01000000
00000000
00100000
00000000
10000000
00000000
00000000
00000000
,
00010000
00100000
01000000
00000000
00100000
00001000
00010000
00000000
,
00000200
00000000
00000000
00001000
00002000
00000000
00003300
00000000
,
00000001
00000010
00000100
00000010
00000001
00000010
00000100
00000000
,
00010000
00001000
00100000
00001000
00010000
00001000
00100000
00000000
,
00010000
01000000
00010000
10000000
00010000
01000000
00010000
00000000
,
10000000
00100000
01000000
00100000
10000000
00100000
01000000
00000000
,
00010000
00000000
00010000
00100000
00000000
00100000
01000000
00000000
01000000
10000000
00000000
10000000
,
01000000
00000000
01000000
00010000
00000000
00010000
00001000
00000000
00001000
00000010
00000000
00000010
,
00000002
00000203
00002300
00023000
,
00230000
00000000
00300000
00000000
01000000
00100000
01100000
00000000
,
10010000
00000000
10000000
01000000
00010000
00000000
00001000
00000000
,
00000010
00000100
00001000
00000000
00000010
00000100
00000001
00000000
,
00000010
00001000
00010000
00001000
00000010
00000000
00000110
00000000
,
00000100
00010000
00000010
00000000
00001000
00010000
01000000
00000000
,
00100000
00100000
00100000
00000000
10000000
01000000
00010000
00000000
,
00001000
00001000
00000010
00000010
00000002
00000000
00001003
00000000
,
00000001
00000100
00000000
00000100
00001000
00010000
00000000
00010000
,
00100000
10000000
00100000
10000000
00010000
00000000
10010000
00000000
,
10000000
01000000
00010000
00001000
00100000
00010000
01000000
00000000
,
00001000
00010000
00000010
00001000
00000001
00000100
00001000
00000000
,
00010000
01000000
10000000
00000000
01000000
00010000
00001000
00000000
,
00100000
00010000
00001000
00000100
00010000
00001000
00000010
00000000
,
00000100
00000100
00000100
00001000
00000001
00000010
00000001
00000000
,
00000110
00000000
00000100
00010000
00001000
00100000
00010000
00000000
,
01000000
10000000
01000000
00010000
10000000
00100000
10000000
00000000
,
01000000
01000000
00010000
00010000
00001000
00000000
00011000
00000000
,
00000010
00002000
00003200
00000302
,
00000103
00001000
00000010
00001000
00000100
00000000
00000110
00000000
,
00001001
00000002
00000203
00002300
,
00013000
00001000
00100000
00010000
00100000
00000000
01000000
00000000
,
20000000
30200000
00320000
00032000
,
01003000
00010000
01000000
00100000
10000000
00000000
10100000
00000000
,
00020000
00000000
00130000
00001000
00020000
00000000
00030100
00001000
,
00000010
00000010
00000100
00000001
00001000
00000010
00000100
00000000
,
00001000
00000000
00010000
00000000
00001000
00010000
00000000
00000000
00001000
00000000
00000000
00010000
00001000
00000000
00000000
00000000
,
00100000
00000000
00010000
00000000
00100000
00010000
00000000
00000000
00100000
00000000
00000000
00010000
00100000
00000000
00000000
00000000
,
01000000
00000000
10000000
00000000
01000000
10000000
00000000
00000000
01000000
00000000
00000000
10000000
01000000
00000000
00000000
00000000
,
00010000
00000000
00001000
00000000
00010000
00001000
00000000
00000000
00010000
00000000
00000000
00001000
00010000
00000000
00000000
00000000
,
00000010
00000000
00001000
00000000
00000010
00001000
00000000
00000000
00000001
00000000
00000000
00000100
00000001
00000000
00000000
00000000
,
00001000
00000000
00000100
00000000
00001000
00000100
00000000
00000000
00010000
00000000
00000000
00001000
00010000
00000000
00000000
00000000
,
00100000
00000000
10000000
00000000
00100000
10000000
00000000
00000000
00010000
00000000
00000000
01000000
00010000
00000000
00000000
00000000
,
00100000
00100000
00001000
00010000
00000100
00000000
00001100
00000000
,
00000001
00000010
00000100
00000010
00000001
00000010
00000100
00000000
,
00010000
00001000
00100000
00001000
00010000
00001000
00100000
00000000
,
00010000
01000000
10000000
01000000
00010000
01000000
10000000
00000000
,
01000000
00010000
00100000
00010000
01000000
00100000
01100000
00000000
,
10000000
00000000
10000000
01000000
00000000
01000000
00100000
00000000
00100000
00001000
00000000
00001000
,
00010000
00000000
00010000
00000100
00000000
00000100
00001000
00000000
00001000
00000001
00000000
00000001
,
00000100
00000000
00000100
00001000
00000000
00001000
00010000
00000000
00010000
00100000
00000000
00100000
,
10000000
00000000
00000000
00000000
10000000
00000000
00010000
00000000
00000000
00000000
00000000
00000000
00100000
00000000
00000000
00100000
00000000
00000000
00100000
00000000
00000000
00000000
00000000
00000000
,
01000000
10000000
01000000
10000000
00100000
00010000
00100000
00010000
,
00001000
00000100
00001000
00000100
00000001
00000010
00000001
00000010
,
00001000
00010000
00001000
00010000
01000000
10000000
01000000
10000000
,
00100000
00010000
00100000
00010000
00001000
00000010
00001000
00000010
,
00000001
00000100
00000010
00001000
00000100
00000010
00001000
00010000
,
00000010
00001000
00010000
01000000
00001000
00010000
00100000
10000000
,
01000000
00010000
00001000
00000010
,
00000110
00000000
00001001
00000000
00000001
00000100
00001000
00000100
,
00000000
00000001
00000010
00001000
00000000
00010000
01000000
10000000
,
00100000
00000000
00000000
00100000
00000000
00000000
10000000
00000000
01000000
00000000
00000000
00100000
00010000
00000000
00000000
00000000
,
01000000
00000000
00000000
00000000
00000000
00000000
00000000
00000000
00000000
00100000
00000000
00000000
10000000
00000000
00000000
00000000
00000000
00000000
00000000
00000000
00000000
00000000
00000000
00000000
01000000
00000000
00000000
00000000
00100000
00000000
00000000
00000000
00010000
00000000
00000000
00000000
00100000
00000000
00000000
00000000
00001000
00000000
00000000
00000000
00010000
00000000
00000000
00000000
,
00000100
00000000
00000110
00000000
00000001
00000100
00001000
00010000
,
00000000
00100000
01000000
00000000
00010000
00100000
10000000
00100000
,
00010000
00000000
01000000
00000000
00022000
00000000
00000000
00033000
,
00010000
00100000
00010000
00001000
00000010
00001000
00011000
00000000
,
00010000
01000000
10000000
01000000
00000000
00010000
00001000
00100000
,
00002000
00000000
00013000
00000100
00001000
00000010
00001010
00000000
,
00000001
00000000
00000000
00000100
00000010
00000000
00000000
00000000
00001000
00000000
00000000
00000100
00000010
00000000
00000000
00000000
,
00000001
00000010
00000001
00000010
00000100
00000010
00000100
00000000
00000000
00000110
00000000
00000000
,
00001000
00000100
00000001
00000100
00000000
00001000
00000010
00001000
,
00000000
00010000
01000000
10000000
01000000
00010000
00100000
00000000
,
01000000
01000000
01000000
00000000
10000000
00100000
00020000
00000000
,
00031000
00001000
00010000
00001000
00000010
00000001
00000100
00000010
,
00000220
00000000
00000000
00000330
;

//--------------- dance-double - forcednature ----------------
#NOTEDATA:;
#STEPSTYPE:dance-double;
#DESCRIPTION:forcednature;
#CREDIT:forcednature;
#DIFFICULTY:Hard;
#METER:17;
#RADARVALUES:0,0,0,0,0;
#NOTES:
00000000
00000000
00000000
00000000
,
00000000
00000000
00000000
00000000
,
00000000
00000000
00000000
00000000
,
00000000
00000000
00000000
00000000
,
00000000
00000000
00000000
00000000
,
00000000
00000000
00000000
00000000
,
00011000
00100000
00000000
00001000
,
00011000
00000010
00000000
00010000
,
00011000
01000000
00011000
00000100
,
00000110
00011000
02200000
03300000
,
10010000
00000000
10000000
01000000
00010000
00001000
00000100
00000001
,
00000010
00000000
00000100
00000010
00000000
00000100
00000010
00000000
00001001
00000000
00000000
00000000
00000001
00000000
00000001
00000000
,
00001000
00000000
00000001
00000100
00001000
00010000
01000000
10000000
,
00100000
00000000
01000000
00100000
00000000
01000000
00100000
00000000
20000000
00000000
00000000
00000000
30010000
00000000
00000000
00000000
,
10000000
10000000
01000000
10000000
00100000
00010000
00001000
00000010
,
00000001
00000000
00000100
00000010
00000000
00000100
00000010
00000000
00001000
00000000
00000000
00000000
00000001
00000000
00000001
00000000
,
00001000
00000000
00000001
00000010
00001000
00010000
00100000
10000000
,
01000000
00000000
00100000
01000000
00000000
00100000
01000000
00000000
20000000
00000000
00000000
00000000
30010000
00000000
00000000
00000000
,
10000000
00000000
01000000
00000000
00010000
00000000
00001000
00000000
00100000
00000000
00010000
00100000
00000000
00010000
00100000
00000000
,
00001000
00000000
00010000
00000000
00000010
00000000
00001000
00000000
00000100
00000000
00000010
00000001
00000000
00000010
00000001
00000000
,
00001000
00000000
00000010
00000000
00000001
00000000
00000010
00000000
00001000
00000000
00000001
00000100
00000000
00000001
00000100
00000000
,
00001000
00000000
00010000
00000000
00100000
00000000
10000000
00000000
00010000
01000000
00010000
01000000
00010000
00000000
00000000
00000000
,
10000000
01000000
10000000
01000000
00100000
01000000
00100000
00010000
00100000
00010000
00001000
00010000
,
00001000
00000100
00001000
00000100
00000010
00000100
00000010
00000001
00000010
00000001
00001000
00000001
,
00000100
00000000
00000100
00001000
00010000
00000000
00001000
00010000
00100000
00000000
00100000
01000000
00020000
00000000
00000000
00000000
,
10030000
00000000
00000000
00000000
01000000
00010000
00001000
00000010
,
00000110
00000000
00000000
00000100
00001000
00000000
00001000
00000000
00000001
00000000
00000100
00000000
00001000
00010000
00001000
00000000
,
00010000
00000000
00000000
00010000
00100000
00000000
10000000
00000000
00100000
00000000
01000000
00010000
02000000
00000000
00000000
00000000
,
03001000
00000000
00010000
00000000
00001000
00100000
00000000
00000000
00100000
00000000
00001000
00010000
00000200
00000000
00000000
00000000
,
00000310
00000001
00000100
00000010
00001000
00000100
00000020
00000000
00000000
00000031
00000000
00000000
,
00000100
00000001
00000100
00000001
00000100
00000000
00000001
00000000
00000010
00000000
00001000
00000000
00010000
00000000
00100000
00000000
,
10000000
01000000
10000000
01000000
00100000
00010000
00100000
00010000
20000000
00000000
00000000
00000000
30100000
00000000
00000000
00000000
,
10000000
00000000
01000000
00000000
00010000
00000000
00000100
00000000
00001000
00000000
00000100
00000010
00000001
00000000
00000100
00000000
,
00000020
00000000
00001000
00000000
00001030
00000000
00000010
00000000
00000100
00000001
00001000
00000010
00000100
00000000
00000000
00000000
,
00000001
00001000
00000100
00001000
00000001
00000000
00000010
00000000
00000001
00000000
00000100
00000010
00001000
00000000
00000100
00000000
,
00010000
00000000
00000000
00010000
00001000
00000000
00100000
00000000
00010000
10000000
01000000
10000000
00010000
00000000
00000000
00000000
,
00100000
00000000
01000000
00000000
10000000
01000000
00000000
00000000
00010000
00001000
00010000
00001000
00020000
00000000
00000000
00000000
,
00030010
00000000
00000000
00000000
00001000
00000000
00000000
00000000
00000100
00000000
00000000
00000000
00000010
00000000
00000000
00000000
00000001
00000000
00000000
00000000
00000100
00000000
00000000
00000000
00000010
00000000
00000000
00001000
00000000
00000000
00000010
00000000
00000000
00001000
00000000
00000000
00000001
00000000
00000000
00000000
00000000
00000000
00000000
00000000
00000000
00000000
00000000
00000000
,
00000010
00001000
00010000
00000000
00001000
00100000
00000000
00000000
00010000
00000000
01000000
00100000
10000000
00000000
00010000
00000000
,
10000000
01000000
00010000
00001000
00000010
00000001
00002000
00000000
00000000
00003010
00000000
00000000
,
00001000
00000001
00001000
00000000
00000001
00000100
00000001
00000000
00000010
00001000
00010000
00000000
00002000
00000000
00000000
00000000
,
00103000
00000000
00100000
00000000
00100000
00010000
10000000
01000000
00100000
00000000
01000000
00000000
01100000
00000000
00000000
00000000
,
10010000
20000000
30020000
00032000
,
00003010
00000000
00000000
00000000
00000000
00000000
00000000
00000000
00000110
00000000
00000000
00000000
00000000
00000000
00000000
00000000
00000110
00000000
00000000
00000000
00000000
00000000
00000000
00000000
00001001
00000000
00000000
00000000
00000000
00000000
00000000
00000000
00000000
00000001
00000000
00000000
00000010
00000000
00000000
00000000
00000000
00000000
00000100
00000000
00000000
00000000
00000000
00000000
,
00000110
00000002
00002003
00023000
,
00130000
00000000
00000000
00000000
00000000
00000000
00000000
00000000
01100000
00000000
00000000
00000000
00000000
00000000
00000000
00000000
01100000
00000000
00000000
00000000
00000000
00000000
00000000
00000000
00020000
00000000
00000000
00030000
00000000
00000000
00020000
00000000
00000000
00030000
00000000
00000000
20000000
00000000
00000000
30000000
00000000
00000000
00200000
00000000
00000000
00300000
00000000
00000000
,
20000000
30020000
00032000
00003002
,
00000013
00000000
00000000
00000000
00000000
00000000
00000000
00000000
00000110
00000000
00000000
00000000
00000000
00000000
00000000
00000000
00000110
00000000
00000000
00000000
00000000
00000000
00000000
00000000
00001001
00000000
00000000
00000000
00000000
00000000
00000000
00000000
00000000
00010000
00000000
00000000
00001000
00000000
00000000
00000000
00000000
00000000
00000000
00000000
00000000
00000000
00000000
00000000
,
00000020
00002030
00203000
00320000
,
00031000
00000100
00001000
00000100
00010000
00001000
00010000
00001000
00100000
00010000
10000000
01000000
00100000
00000000
00000000
00000000
,
01000000
00000000
10000000
00000000
01000000
00100000
00000000
00010000
00100000
00000000
00001000
00010000
00000000
00010000
00001000
00000000
,
00000010
00000000
00000001
00000000
00000100
00000001
00000000
00000100
00000010
00000000
00001000
00000001
00000000
00000001
00000010
00000000
,
00000100
00000000
00010000
00000000
00001000
00100000
00000000
00010000
00100000
00000000
01000000
10000000
00000000
10000000
00100000
00000000
,
01000000
00000000
00010000
00100000
00001000
00000000
00010000
00000100
00001000
00000000
00000010
00000000
00001001
00000000
00000000
00000000
,
00000001
00000000
00000100
00000000
00000010
00010000
00000000
00001000
00010000
00000000
00100000
01000000
00000000
01000000
00010000
00000000
,
10000000
00000000
01000000
00000000
00100000
01000000
00000000
10000000
01000000
00000000
00010000
00001000
00000000
00001000
00010000
00000000
,
00000010
00000000
00001000
00000000
00000001
00000100
00000000
00000010
00000100
00000000
00000001
00000010
00000000
00000010
00001000
00000000
,
00010000
00001000
00010000
00001000
00100000
00010000
00100000
00010000
10000000
01000000
00100000
00010000
01000000
00000000
00000000
00000000
,
00010000
01000000
00010000
00000000
00010000
00100000
00000000
00010000
00100000
00000000
00001000
00010000
00000000
00001000
00010000
00000000
,
00000010
00001000
00000010
00000000
00000010
00000100
00000000
00000010
00000100
00000000
00000001
00000010
00000000
00000001
00000010
00000000
,
00000100
00001000
00000100
00000000
00000100
00010000
00000000
00000100
00010000
00000000
00001000
00010000
00000000
00001000
00010000
00000000
,
00100000
10000000
00100000
00000000
00100000
01000000
00000000
00100000
01000000
00000000
00010000
10000000
00100000
00000000
00000000
00000000
,
10000000
01000000
10000000
01000000
00010000
01000000
00010000
00001000
00010000
00001000
00000010
00001000
,
00000010
00000001
00000010
00000001
00000100
00000001
00000100
00001000
00000100
00001000
00010000
00001000
,
00010000
00100000
00010000
00100000
10000000
00100000
10000000
01000000
10000000
01000000
00010000
01000000
,
00010000
00000000
00000000
00000000
00001000
00000000
00000000
00000000
00010000
00000000
00000000
00000000
00001000
00000000
00000000
00000000
00000010
00000000
00000000
00000000
00001000
00000000
00000000
00000000
00000010
00000000
00000000
00000001
00000000
00000000
00000010
00000000
00000000
00000001
00000000
00000000
00000000
00000000
00000000
00001000
00000000
00000000
00000000
00000000
00000000
00000000
00000000
00000000
,
00000001
00000100
00000001
00000100
00000010
00001000
00000010
00000000
00010000
00001000
00010000
00001000
00100000
00010000
00100000
00000000
,
01000000
10000000
01000000
10000000
00100000
01000000
00100000
00000000
10000000
00010000
10000000
00010000
00100000
01000000
00100000
00000000
,
00010000
01000000
00010000
01000000
00001000
00010000
00001000
00000000
00010000
00000100
00010000
00000100
00001000
00000010
00001000
00000000
,
00000001
00000010
00000001
00000010
00000100
00001000
00000100
00000000
00010000
00001000
00010000
00001000
00100000
00010000
00100000
00000000
,
01000000
10000000
01000000
10000000
00100000
01000000
00100000
01000000
00010000
00100000
00010000
00100000
00001000
00010000
00001000
00010000
,
00000100
00001000
00000100
00001000
00000010
00000100
00000010
00000100
00000001
00000010
00000001
00000010
00000100
00001000
00000001
00001000
,
00000010
00000110
00011000
00011000
,
01000000
00010000
10000000
00100000
02000000
00000000
00000000
00000000
13000000
00000000
01000000
00000000
00010000
00000000
00100000
00000000
,
01000000
00000000
00010000
00000000
00001000
00010000
00001000
00000000
00000020
00000000
00000100
00000000
00000032
00000000
00000103
00000000
,
00000110
00000000
00000000
00001001
00000000
00000000
00000110
00000000
00001000
00000000
00000100
00000010
00000001
00000000
00000100
00000000
,
00000001
00000000
00000000
00000010
00000000
00000000
00000001
00000000
00000000
00001000
00000000
00000000
00000100
00000000
00000000
00000000
00000000
00000000
00010000
00000000
00000000
00000000
00000000
00000000
00001000
00000000
00000000
00000000
00100000
00000000
00000000
00000000
00010000
00000000
00000000
00000000
01000000
00000000
00000000
00000000
00100000
00000000
00000000
00000000
10000000
00000000
00000000
00000000
,
01000000
00100000
00010000
00100000
00002000
00000000
00000000
00000000
00013000
00000010
00010000
00000010
00001000
00000000
00000001
00000100
,
00001000
00000000
00010000
00000000
00011000
00000000
00000000
00000000
00100000
00010000
00100000
00010000
10000000
01000000
10000000
01000000
,
00100000
00000000
01000000
00010000
00001000
00000000
00000000
00000000
00022000
00000000
00000000
00000000
00000000
00000000
00033000
00000000
,
00100000
00010000
00100000
00010000
00001000
00000100
00001000
00000100
00010000
00001000
00100000
00010000
00001000
00000000
00000000
00000000
,
00000100
00000000
00001000
00000100
00000010
00000000
00000001
00000000
00000100
00000000
00001000
00010000
00000000
00001000
00010000
00000000
,
00100000
00000000
10000000
00100000
10000000
00000000
00010000
00000000
00100000
01000000
10000000
01000000
00100000
00000000
00000000
00000000
,
00010000
00000000
10000000
01000000
00010000
00000000
00001000
00000000
00010000
00000100
00001000
00000100
00000020
00000000
00000000
00000000
,
00000031
00000000
00000000
00000000
00000100
00000000
00000000
00000000
00000001
00000000
00000000
00000000
00001000
00000000
00000000
00000000
00000010
00000000
00000000
00000000
00001000
00000000
00000000
00000000
00000001
00000000
00000000
00000010
00000000
00000000
00000100
00000000
00000000
00001000
00000000
00000000
00000020
00000000
00000000
00000000
00000000
00000000
00000000
00000000
00000000
00000000
00000000
00000000
,
00010030
00001000
00010000
00001000
00010000
00000000
00100000
01000000
00010000
00000000
10000000
00000000
00100000
00000000
00010000
00000000
,
00001000
00000000
00000000
00000000
00100000
00000000
00000000
00000000
00001000
00000000
00000000
00000000
00010000
00000000
00000000
00000000
00000100
00000000
00000000
00000000
00010000
00000000
00000000
00000000
00001000
00000000
00000000
00000000
00000000
00000000
00000010
00000000
00000000
00000100
00000000
00000000
00001000
00000000
00000000
00000000
00000000
00000000
00000000
00000000
00000000
00000000
00000000
00000000
,
00000001
00000100
00000010
00000100
00000001
00000100
00000010
00000000
00001000
00000100
00010000
00000000
00001000
00100000
00010000
00000000
,
01000000
00010000
01000000
00010000
10000000
00100000
10000000
00100000
10000000
00010000
01000000
00010000
00100000
00001000
00010000
00001000
,
00200000
00000000
00000000
00300000
;
