#VERSION:0.83;
#TITLE:Level 3;
#SUBTITLE:;
#ARTIST:Yamato;
#TITLETRANSLIT:;
#SUBTITLETRANSLIT:;
#ARTISTTRANSLIT:;
#GENRE:DRUMSTEP / DnB;
#CREDIT:;
#MUSIC:Level 3.ogg;
#BANNER:Level 3.png;
#BACKGROUND:Level 3-bg.png;
#CDTITLE:./CDTitles/bm IIDX 28 BISTROVER.png;
#SAMPLESTART:62.699;
#SAMPLELENGTH:15.000;
#SELECTABLE:YES;
#OFFSET:0.380;
#BPMS:0.000=175.000;
#STOPS:;
#TIMESIGNATURES:0.000=4=4;
#BGCHANGES:0.000=../BGAs/28bk.mp4=1.000=0=0=0=StretchNoLoop====,
99999.000=-nosongbg-=1.000=0=0=0=StretchNoLoop====
;
#FGCHANGES:;

//--------------- dance-single - forcednature ----------------
#NOTEDATA:;
#STEPSTYPE:dance-single;
#DESCRIPTION:forcednature;
#DIFFICULTY:Beginner;
#METER:3;
#RADARVALUES:0,0,0,0,0;
#CREDIT:forcednature;
#NOTES:
0000
0000
0000
0000
,
0000
0000
0000
0000
,
0000
0000
0000
0000
,
0000
0000
0000
0000
,
0000
0000
0000
0000
,
0000
0000
0000
0000
,
0001
0000
0000
0000
,
0000
0000
0000
0000
,
1000
0000
0000
0000
,
0000
0000
0000
0000
,
0100
0000
0000
0000
,
0010
0000
0000
0000
,
0001
0000
0000
0000
,
0010
0000
0000
0000
,
0100
0000
0000
0000
,
1000
0000
0000
0000
,
0001
0000
0000
0000
,
1000
0000
0000
0000
,
0000
0010
0000
0010
,
0000
0010
0000
0000
,
0000
0100
0000
0100
,
0000
0100
0000
0000
,
0000
0001
0000
0001
,
0000
0001
0000
0000
,
0000
1000
0000
1000
,
0000
0000
0000
0000
,
1001
0000
0000
0000
,
0001
0000
1000
0000
,
0100
0000
0100
0000
,
0010
0000
0000
0000
,
1001
0000
0000
0000
,
1000
0000
0000
0000
,
0001
0000
0000
0000
,
0100
0000
0010
0000
,
0100
0000
0000
0000
,
0001
0000
0000
0000
,
1000
0000
0000
0000
,
0200
0000
0300
0000
,
0000
0010
0000
0010
,
0000
0001
0000
0001
,
0000
1000
0000
1000
,
0000
0010
0000
0010
,
0000
0100
0000
0100
,
0000
0001
0000
0001
,
0000
1000
0000
1000
,
0100
0000
0100
0000
,
1001
0000
0000
0000
,
0000
0000
0000
0000
,
0001
0000
0000
0000
,
0100
0000
0000
0000
,
0001
0000
0000
0000
,
0000
0000
0000
0000
,
1000
0000
0000
0000
,
0100
0000
0000
0000
,
1000
0000
0000
0000
,
0010
0000
0000
0000
,
1000
0000
0000
0000
,
0100
0000
0000
0000
,
0010
0000
0000
0000
,
0001
0000
0000
0000
,
0100
0000
0000
0000
,
0001
0000
0000
0000
,
0010
0000
0000
0000
,
0100
0000
0000
0000
,
1000
0000
0000
0000
,
0001
0000
0001
0000
,
0001
0000
0000
0000
,
0100
0000
0000
0000
,
0010
0000
0010
0000
,
1000
0000
0000
0000
,
0000
0001
0000
0001
,
0000
0001
0000
0000
,
0000
0010
0000
0010
,
0000
0010
0000
0000
,
0000
0100
0000
0100
,
0000
0100
0000
0000
,
0000
1000
0000
1000
,
0000
0000
0010
0000
,
0000
0100
0000
0100
,
0000
0001
0000
0001
,
0000
1000
0000
1000
,
0000
0100
0000
0100
,
0000
0010
0000
0001
,
0000
0010
0000
0001
,
0000
1000
0000
0010
,
0000
0100
0100
0000
,
1001
0000
0000
0000
;

//--------------- dance-single - forcednature ----------------
#NOTEDATA:;
#STEPSTYPE:dance-single;
#DESCRIPTION:forcednature;
#DIFFICULTY:Easy;
#METER:7;
#RADARVALUES:0,0,0,0,0;
#CREDIT:forcednature;
#NOTES:
0000
0000
0000
0000
,
0000
0000
0000
0000
,
0000
0000
0000
0000
,
0000
0000
0000
0000
,
0000
0000
0000
0000
,
0000
0000
0000
0000
,
0001
0100
0001
1000
,
0010
1000
0001
0000
,
1000
0100
1000
0001
,
0010
0001
0100
0000
,
0110
0000
0010
1000
,
0100
0000
0010
0001
,
0100
0000
0010
1000
,
0001
0001
0001
0010
,
0100
1000
0100
1000
,
0001
0100
0001
0100
,
0010
0010
1000
1000
,
0002
0000
0000
0003
0000
0000
0000
0000
0010
0000
0000
0000
0000
0000
0000
0000
,
0010
0100
1000
0100
,
0010
0100
1000
0000
,
0001
0100
0010
0100
,
0001
0100
0010
0000
,
1000
0001
0010
0001
,
1000
0001
0010
0000
,
0100
1000
0001
1000
,
0200
0000
0000
0300
0000
0000
0000
0000
0020
0000
0000
0030
0000
0000
0000
0000
,
0001
0100
0001
0001
,
1000
0010
1000
1000
,
0100
0100
0010
0010
,
0002
0000
0000
0000
0000
0003
0000
0000
,
1001
0000
1000
0000
,
0010
0000
1000
0000
,
0001
0000
0010
0000
,
0001
0100
0001
0100
,
1001
0000
1000
0000
,
0100
0000
1000
0000
,
0001
0000
0010
0000
,
0002
0003
0200
0300
,
0010
1000
0001
1000
,
0100
1000
0001
0000
,
0010
0001
1000
0001
,
0100
0001
1000
0000
,
0010
0100
0001
1000
,
0010
0100
0001
0000
,
0010
0100
1000
0001
,
0010
0010
0010
0000
,
1001
0000
1000
0000
,
0001
0100
0001
0000
,
0010
0000
0100
0000
,
1000
0010
1000
0000
,
0001
0000
0010
0000
,
0100
1000
0100
0000
,
0010
0000
0001
0000
,
1000
0010
1000
0000
,
0001
0100
0001
0000
,
0010
0100
0010
0000
,
0001
1000
0001
0000
,
1000
0010
1000
0000
,
0100
0010
0100
0000
,
1000
0010
1000
0000
,
0001
0010
0001
0000
,
0100
0010
0100
0000
,
0001
0010
0001
0010
,
0100
1000
0100
1000
,
0001
0100
0001
0100
,
0010
0010
0010
1000
,
0001
0001
0010
0010
,
0100
0100
1000
1000
,
0010
0100
0010
0100
,
0002
0000
0000
0003
0000
0000
0000
0000
1000
0000
0000
0000
0000
0000
0000
0000
,
0001
0010
0100
0010
,
0001
0010
0100
0000
,
1000
0001
0100
0001
,
1000
0001
0100
0000
,
0010
1000
0001
1000
,
0010
1000
0001
0000
,
0010
0100
1000
0100
,
0020
0032
0013
0000
,
1001
0000
1000
0010
,
0100
0010
1000
0001
,
0010
0000
0100
1000
,
0001
0100
0010
1000
,
0001
0000
0010
0100
,
0010
0001
1000
0010
,
0200
0300
0001
1000
,
0100
0010
0001
0100
,
2002
3003
0000
0000
;

//--------------- dance-single - forcednature ----------------
#NOTEDATA:;
#STEPSTYPE:dance-single;
#DESCRIPTION:forcednature;
#DIFFICULTY:Medium;
#METER:12;
#RADARVALUES:0,0,0,0,0;
#CREDIT:forcednature;
#NOTES:
0000
0000
0000
0000
,
0000
0000
0000
0000
,
0000
0000
0000
0000
,
0000
0000
0000
0000
,
0000
0000
0000
0000
,
0000
0000
0000
0000
,
2000
0000
3200
0000
0320
0000
0031
0200
,
0000
0302
0000
1003
0020
0000
1030
0100
,
2000
0000
3002
0000
0023
0000
0130
2000
,
0000
3002
0000
0103
0020
0000
2030
0000
,
3001
0010
0001
0100
,
0010
1000
0100
1000
,
0001
0100
0001
0010
,
0110
0110
0110
1001
,
1000
0100
1000
0000
0001
0100
0001
0000
,
1000
0010
1000
0000
0001
0010
0001
0000
,
1000
0010
0100
0001
1000
0100
0010
0001
,
0200
0000
0000
0300
0000
0000
0000
0000
0010
0000
0000
0010
0000
0000
0010
0000
,
0100
0000
1001
0000
1000
0001
0100
0000
,
0001
1000
0010
0000
1000
0100
0010
0100
,
1000
0001
0010
0000
0001
1000
0010
0000
,
0100
0000
0001
0000
1000
0000
0000
0000
0100
0000
0000
0100
0000
0000
0100
0000
,
0010
0000
1001
0000
0001
0100
0010
0000
,
1000
0100
0010
0000
0100
1000
0001
0000
,
0100
0010
1000
0000
0100
0010
0001
0000
,
0200
0000
0000
0300
0000
0000
0000
0000
0020
0000
0000
0030
1000
0000
0001
0000
,
1000
0100
1000
0010
1000
0100
1000
0000
,
0001
0000
0000
0100
0000
0000
0001
0000
0000
0010
0000
0000
0001
0000
0000
0000
0001
0000
0000
0000
0001
0000
0000
0000
,
0100
0100
0010
0010
1000
1000
0001
0001
,
0020
0000
0000
0000
0000
0030
0000
0000
,
2002
0000
3003
0000
1000
0100
1000
0000
,
0001
0100
0001
0000
2002
0000
3003
0000
,
1000
0010
1000
0000
0001
0010
0001
0000
,
0101
0000
1010
0000
0001
0100
1000
0000
,
0110
0000
0001
0000
1000
0010
1000
0000
,
0001
0010
0001
0000
2002
0000
3003
0000
,
1000
0100
1000
0000
0001
0100
0001
0000
,
0220
0330
2002
3003
,
1000
0100
0010
0000
0100
1000
0001
0000
,
0100
0010
1000
0000
0001
0000
0010
0000
,
0100
0010
0001
0000
1000
0010
0100
0000
,
0001
1000
0100
0000
0010
0000
0001
0000
,
1000
0010
0100
0000
0001
1000
0100
0000
,
0010
0001
1000
0000
0010
0000
0100
0000
,
0001
0010
0100
0000
1000
0001
0100
0000
,
0010
1000
0010
1000
0001
0000
0110
0000
,
0002
0000
2003
0000
3200
0000
1300
0020
,
0000
0230
0000
0301
0020
0000
0130
1000
,
0200
0000
0320
0000
0032
0000
1003
0020
,
0000
0230
0000
0301
2000
0000
3100
0010
,
0002
0000
2003
0000
3020
0000
0130
0002
,
0000
0023
0000
0031
2000
0000
3010
0100
,
0002
0000
2003
0000
3200
0000
0310
0200
,
0000
2300
0000
3001
0200
0000
0310
1000
,
0001
0000
0001
0010
0001
0100
0001
1000
,
0010
0000
1000
0010
1000
0100
1000
0001
,
0010
0000
0001
0100
0001
0010
0001
1000
,
0100
0000
1000
0100
1000
0010
1000
0001
,
0100
0000
0010
1000
0100
1000
0001
0010
,
0100
0000
0010
0001
0100
0001
1000
0010
,
0100
0000
0010
1000
0001
1000
0100
1000
,
0010
0010
0100
0100
0001
1000
0100
0000
,
0010
0000
0010
0001
0100
0001
0010
0001
,
0100
0000
0010
1000
0100
1000
0010
1000
,
0100
0000
0010
0001
0100
0001
0010
0001
,
0100
0110
0110
1001
,
0001
0100
0001
0100
0010
1000
0010
1000
,
0001
0010
0001
0010
0100
1000
0100
1000
,
0010
0010
0100
0100
0001
0001
1000
1000
,
0200
0000
0000
0300
0000
0000
0000
0000
0010
0000
0000
0010
0000
0000
0010
0000
,
0100
0000
1001
0000
1000
0010
0100
0000
,
0001
1000
0100
0000
0010
0001
0100
0001
,
0010
0100
1000
0000
0001
0100
1000
0000
,
0100
0000
0000
0001
0000
0000
0010
0000
0000
0000
0000
0000
0100
0000
0000
0000
0100
0000
0000
0000
1000
0000
0000
0000
,
0001
0100
0010
0000
1000
0001
0010
0000
,
0100
1000
0001
0000
0100
0010
1000
0010
,
0100
0001
1000
0000
0100
0010
0001
0000
,
0200
0000
0000
0320
0000
0000
2030
0000
3000
0001
0000
0000
,
1001
0000
1000
0100
1000
0001
0100
0001
,
0010
0100
0010
0001
1000
0010
0100
0001
,
1000
0000
0010
0100
0010
1000
0001
1000
,
0100
0010
0001
0010
0100
1000
0001
0100
,
0010
0000
1000
0100
1000
0001
0100
0001
,
0010
0100
1000
0001
0100
0010
1000
0001
,
0020
0000
0130
0000
1000
0001
0100
0000
,
0010
0010
1000
1000
0001
0001
0010
0000
,
2002
3003
0000
0000
;

//--------------- dance-single - forcednature ----------------
#NOTEDATA:;
#STEPSTYPE:dance-single;
#DESCRIPTION:forcednature;
#DIFFICULTY:Hard;
#METER:16;
#RADARVALUES:0,0,0,0,0;
#CREDIT:forcednature;
#NOTES:
0000
0000
0000
0000
,
0000
0000
0000
0000
,
0000
0000
0000
0000
,
0000
0000
0000
0000
,
0000
0000
0000
0000
,
0000
0000
0000
0000
,
0002
0000
0203
0000
0320
0000
1030
0200
,
0000
2300
0000
3001
0200
0000
0310
1000
,
0020
0000
0230
0000
0302
0000
0013
0100
,
1000
0000
0001
0100
1000
0100
0010
0000
,
1010
0000
1000
0100
1000
0001
0010
0001
,
0100
0000
0001
0100
0001
1000
0010
1000
,
0100
0000
0010
0001
0010
0100
1000
0100
,
0010
1000
0010
0001
0010
0100
1001
0000
,
0001
0100
0001
0100
0010
1000
0010
1000
,
0001
0010
0001
0010
0100
1000
0100
1000
,
0010
1000
0010
0000
1000
0100
1000
0000
0001
0100
0001
0000
0010
0001
0010
0000
,
0200
0000
0000
0300
0000
0000
0000
0000
0110
0000
0000
0110
0000
0000
0110
0000
,
1000
0000
0001
0100
0010
0000
0100
0000
0001
0000
1000
0100
0010
0000
0100
0000
,
1000
0000
0001
0100
0010
0000
0100
0000
0001
0000
0010
0000
1000
0000
0010
0000
,
0001
0000
1000
0100
0010
0000
0100
0000
1000
0000
0001
0100
0010
0000
0100
0000
,
0001
0000
0000
0000
0000
0000
1000
0000
0000
0100
0000
0000
0010
0000
0000
0000
0000
0000
0100
0000
0000
0000
0000
0000
0110
0000
0000
0000
0000
0000
0000
0000
1001
0000
0000
0000
0000
0000
0000
0000
0001
0000
0000
0000
0000
0000
0000
0000
,
1000
0000
0001
0010
0100
0000
0010
0000
0001
0000
1000
0010
0100
0000
0010
0000
,
1000
0000
0001
0010
0100
0000
0010
0000
0001
0000
0100
0000
1000
0000
0100
0000
,
0001
0000
1000
0010
0100
0000
0010
0000
1000
0000
0001
0010
0100
0000
0010
0000
,
0002
0000
0000
0003
0000
0000
0000
0000
0200
0000
0000
0300
0010
0000
0010
0000
,
1000
0000
0000
1000
0000
0000
0100
0000
0000
0100
0000
0000
0010
0000
0000
0010
0000
0000
0001
0000
1000
0000
0001
0000
,
0100
0000
0000
0100
0000
0000
0010
0000
0000
0010
0000
0000
1000
0000
0100
0000
1000
0000
0001
0000
0100
0000
0001
0000
,
0010
0001
0010
0000
0001
0100
0001
0000
1000
0100
1000
0000
0010
1000
0010
0000
,
0200
0000
0000
0000
0000
0300
0000
0000
,
1001
0000
1000
0010
0100
1000
0100
0001
,
0010
0000
0000
1000
0000
0000
0010
0000
0000
0001
0000
0000
0100
0000
0000
0000
0000
0000
0020
0000
0030
0000
0000
0000
,
1000
0100
0001
0000
1000
0010
0001
0000
,
1001
0000
0100
0000
1001
0000
0010
0000
1001
0000
0100
0010
0100
0000
0000
0000
,
1001
0000
1000
0010
0001
0010
1000
0010
,
0001
0000
0000
0010
0000
0000
1000
0000
0000
0010
0000
0000
0100
0000
0000
0000
0000
0000
0002
0000
0000
0000
0003
0000
,
0010
0100
0001
0000
1000
0010
0100
0000
,
2100
0000
0000
0000
3010
0000
0100
0000
0001
0010
0001
0000
1000
0000
0010
0000
,
0100
0000
0001
0010
0001
0000
0100
0001
0100
0000
0010
1000
0001
0000
0010
0000
,
0100
0000
1000
0010
1000
0000
0100
0010
0100
0000
1000
0001
0100
0000
0010
0000
,
1000
0000
0001
0010
0001
0000
1000
0010
1000
0000
0100
0010
0001
0000
1000
0000
,
0010
0100
0010
0100
0001
0000
1000
0100
0010
0000
0001
0000
0101
0000
0000
0000
,
1000
0000
0001
0100
0001
0000
0010
0100
0010
0000
0001
1000
0010
0000
0100
0000
,
0001
0000
1000
0100
1000
0000
0010
0100
0010
0000
1000
0001
0010
0000
0100
0000
,
1000
0000
0001
0100
0001
0000
0010
0100
0010
0000
0001
1000
0010
0000
0100
0000
,
0001
0000
0001
0000
0001
0000
0001
0010
0100
0000
0000
0000
1000
0010
1000
0010
,
0200
0000
0302
0000
2003
0000
3100
0020
,
0000
0032
0000
1003
0020
0000
0130
0001
,
2000
0000
3200
0000
0320
0000
0130
2000
,
0000
3002
0000
0103
0020
0000
1030
0001
,
0200
0000
0320
0000
0032
0000
0013
2000
,
0000
3002
0000
0013
0200
0000
1300
0001
,
0200
0000
2300
0000
3200
0000
0310
2000
,
0000
3200
0000
0310
0002
0000
1003
0010
,
0100
0000
0100
0001
0010
0001
1000
0010
,
1000
0000
0100
0010
0001
1000
0010
0100
,
0001
0000
0001
0010
0100
1000
0010
0100
,
0001
0000
1000
0100
1000
0001
0100
0010
,
1000
0000
1000
0100
0010
0001
0100
0010
,
0100
0000
0001
0010
0001
1000
0010
0100
,
0001
0010
0001
0010
0100
1000
0001
0100
,
0010
0000
1000
0000
0001
0000
1000
0000
0100
0000
0010
0001
1000
0000
0000
0000
,
0001
0010
0100
0010
1000
0010
0100
0010
,
0001
0100
0010
0100
1000
0100
0010
0100
,
0001
0010
1000
0010
0001
0100
1000
0100
,
1001
0000
0010
0000
1001
0000
0100
0000
1001
0000
0010
0100
0010
0000
0000
0000
,
1000
1000
0100
0100
0010
0010
0001
0001
,
1000
1000
0010
0010
0100
0100
0001
0001
,
0010
0001
0010
0000
0001
0100
0001
0000
1000
0100
1000
0000
0010
1000
0010
0000
,
0200
0000
0000
0300
0000
0000
0000
0000
0110
0000
0000
0110
0000
0000
0110
0000
,
1000
0000
0001
0100
1000
0000
0100
0000
0010
0000
1000
0100
0001
0000
0100
0000
,
0010
0000
0001
0100
1000
0000
0100
0000
0010
0000
1000
0000
0100
0000
0010
0000
,
0001
0000
1000
0100
0001
0000
0100
0000
0010
0000
0001
0100
1000
0000
0100
0000
,
0010
0000
0000
0000
0000
0000
1000
0000
0000
0100
0000
0000
0001
0000
0000
0000
0000
0000
0100
0000
0000
0000
0000
0000
0110
0000
0000
0000
0000
0000
0000
0000
0110
0000
0000
0000
0000
0000
0000
0000
0001
0000
0000
0000
1000
0000
0000
0000
,
0001
0000
1000
0010
0001
0000
0010
0000
0100
0000
0001
0010
1000
0000
0010
0000
,
0100
0000
1000
0010
0001
0000
0010
0000
0100
0000
1000
0000
0100
0000
0001
0000
,
0010
0000
0100
0001
0100
0000
1000
0000
0010
0000
0100
1000
0100
0000
0001
0000
,
0010
0000
0000
0001
0000
0000
1000
0000
0000
0000
0000
0000
0010
0000
0000
1000
0000
0000
0001
0000
0000
0000
0000
0000
0200
0000
0000
0000
0000
0000
0000
0000
0000
0300
0000
0000
0020
0000
0000
0000
0000
0000
0000
0000
0030
0000
0000
0000
,
1000
0100
1000
0100
0010
0000
0001
1000
0010
0000
0100
0000
0001
0000
0100
0000
,
0010
1000
0010
1000
0001
0000
0010
0100
1000
0000
0100
0010
0001
0000
1000
0000
,
0010
0100
0010
0100
0001
0000
1000
0100
0010
0000
0100
0000
1000
0000
0001
0000
,
0100
0001
0100
0001
1000
0000
0100
0010
0001
0000
0100
0000
1001
0000
0000
0000
,
0001
0100
0010
0100
0001
0000
1000
0100
0010
0000
0100
0000
1000
0000
0001
0000
,
0100
0010
1000
0010
0100
0000
0001
1000
0100
0000
0010
0001
1000
0000
0010
0000
,
0100
0001
0010
0001
0100
0000
0010
1000
0001
0000
0010
0100
1000
0000
0001
0000
,
0100
0001
1000
0000
0100
1000
0001
0000
0100
0010
0100
0010
1000
0000
0000
0000
,
2002
3003
0000
0000
;

//--------------- dance-double - forcednature ----------------
#NOTEDATA:;
#STEPSTYPE:dance-double;
#DESCRIPTION:forcednature;
#DIFFICULTY:Easy;
#METER:7;
#RADARVALUES:0,0,0,0,0;
#CREDIT:forcednature;
#NOTES:
00000000
00000000
00000000
00000000
,
00000000
00000000
00000000
00000000
,
00000000
00000000
00000000
00000000
,
00000000
00000000
00000000
00000000
,
00000000
00000000
00000000
00000000
,
00000000
00000000
00000000
00000000
,
00001000
00010000
00001000
01000000
,
00010000
01000000
00100000
00000000
,
10000000
01000000
10000000
01000000
,
00100000
00001000
00010000
00000000
,
00011000
00000000
00001000
00010000
,
00000010
00000000
00001000
00000010
,
00000100
00000000
00000001
00000100
,
00000001
00000001
00000001
00000010
,
00000100
00001000
00000100
00010000
,
00001000
01000000
00010000
01000000
,
00100000
00100000
10000000
10000000
,
02000000
00000000
00000000
03000000
00000000
00000000
00000000
00000000
00100000
00000000
00000000
00000000
00000000
00000000
00000000
00000000
,
00001000
00010000
00000010
00010000
,
00001000
00010000
00000010
00000000
,
00010000
00001000
00100000
00001000
,
00010000
00001000
01000000
00000000
,
00100000
10000000
00010000
10000000
,
00100000
10000000
00010000
00000000
,
00100000
00001000
00010000
00001000
,
02000000
00000000
00000000
03000000
00000000
00000000
00000000
00000000
00020000
00000000
00000000
00030000
00000000
00000000
00000000
00000000
,
00100000
01000000
10000000
10000000
,
00010000
01000000
00001000
00001000
,
00010000
00010000
00000100
00000100
,
00002000
00000000
00000000
00000000
00000000
00003000
00000000
00000000
,
00001001
00000000
00000001
00000000
,
00000100
00000000
00000001
00000000
,
00000010
00000000
00000100
00000000
,
00010000
00001000
00010000
00001000
,
01000000
00000000
00010000
00000000
,
00100000
00000000
00010000
00000000
,
10000000
00000000
00100000
00000000
,
20000000
30000000
02000000
03000000
,
00100000
00001000
00010000
00000000
,
00000100
00010000
00001000
00000000
,
00010000
00000010
00001000
00000010
,
00010000
00000010
00001000
00000000
,
00000100
00000010
00000001
00000000
,
00000010
00000100
00001000
00000000
,
00000100
00010000
00001000
00010000
,
00001000
00001000
00001000
00000000
,
00011000
00000000
00010000
00000000
,
00001000
01000000
00001000
00000000
,
01000000
00000000
00010000
00000000
,
10000000
00100000
10000000
00000000
,
01000000
00000000
00100000
00000000
,
00010000
00100000
00010000
00000000
,
00100000
00000000
00001000
00000000
,
00010000
00001000
00010000
00000000
,
00000010
00001000
00000010
00000000
,
00001000
00000100
00001000
00000000
,
00000001
00000100
00000001
00000000
,
00000010
00000001
00000010
00000000
,
00000100
00001000
00000100
00000000
,
00010000
00001000
00010000
00000000
,
00001000
01000000
00001000
00000000
,
01000000
00010000
01000000
00000000
,
00100000
00000000
00100000
10000000
,
01000000
00000000
01000000
00100000
,
00010000
00000000
00010000
01000000
,
00001000
00001000
00001000
00010000
,
00000100
00000100
00001000
00001000
,
00000001
00000001
00000100
00000100
,
00000010
00001000
00000010
00001000
,
00000200
00000000
00000000
00000300
00000000
00000000
00000000
00000000
00010000
00000000
00000000
00000000
00000000
00000000
00000000
00000000
,
00001000
01000000
00010000
01000000
,
00001000
01000000
00010000
00000000
,
10000000
00100000
10000000
01000000
,
10000000
00100000
10000000
00000000
,
01000000
00010000
00001000
00010000
,
01000000
00010000
00001000
00000000
,
00010000
00000010
00001000
00000010
,
00000200
00000302
00000103
00000000
,
00001001
00000000
00001000
00000100
,
00010000
00001000
00100000
00010000
,
10000000
00000000
00100000
10000000
,
00010000
01000000
00001000
00010000
,
00000010
00000000
00001000
00000100
,
00010000
00001000
00100000
00010000
,
02000000
03000000
00001000
00010000
,
00000010
00001000
00000100
00000010
,
00002002
00003003
00000000
00000000
;

//--------------- dance-double - forcednature ----------------
#NOTEDATA:;
#STEPSTYPE:dance-double;
#DESCRIPTION:forcednature;
#DIFFICULTY:Medium;
#METER:13;
#RADARVALUES:0,0,0,0,0;
#CREDIT:forcednature;
#NOTES:
00000000
00000000
00000000
00000000
,
00000000
00000000
00000000
00000000
,
00000000
00000000
00000000
00000000
,
00000000
00000000
00000000
00000000
,
00000000
00000000
00000000
00000000
,
00000000
00000000
00000000
00000000
,
00020000
00000000
00032000
00000000
00003020
00000000
00000130
00002000
,
00000000
00003002
00000000
00000013
00000200
00000000
00010300
00001000
,
00020000
00000000
00230000
00000000
02300000
00000000
03010000
20000000
,
00000000
30200000
00000000
01300000
00020000
00000000
20030000
00000000
,
31000000
00010000
00001000
00010000
,
00001000
00000010
00000001
00000010
,
00000001
00000100
00001000
00000100
,
00000110
00000110
00000110
00001001
,
00001000
00000100
00001000
00000000
00000100
00010000
00000100
00000000
,
01000000
00001000
01000000
00000000
00010000
01000000
00010000
00000000
,
00100000
01000000
10000000
01000000
00100000
00001000
00010000
00001000
,
02000000
00000000
00000000
03000000
00000000
00000000
00000000
00000000
00100000
00000000
00000000
00100000
00000000
00000000
00100000
00000000
,
01000000
00000000
10010000
00000000
10000000
01000000
00010000
00000000
,
01000000
00010000
00001000
00000000
00010000
00001000
00000010
00000000
,
00000100
00001000
00000001
00000000
00001000
00000001
00000100
00000000
,
00000001
00000000
00000100
00000000
00001000
00000000
00000000
00000000
00010000
00000000
00000000
00010000
00000000
00000000
00010000
00000000
,
00100000
01000000
00010000
00000000
01000000
00010000
00100000
00000000
,
00010000
00100000
01000000
00000000
00010000
00000000
00001000
00000000
,
00000010
00000100
00010000
00000000
00000100
00010000
00001000
00000000
,
00000200
00000000
00000000
00000300
00000000
00000000
00000000
00000000
00000002
00000000
00000000
00000003
00000010
00000000
00000010
00000000
,
00000100
00001000
00000100
00001000
00000100
00001000
00000020
00000000
,
00010030
00000000
00000000
00001000
00000000
00000000
00010000
00000000
00000000
00001000
00000000
00000000
00100000
00000000
00000000
00000000
00100000
00000000
00000000
00000000
00100000
00000000
00000000
00000000
,
01000000
01000000
10000000
10000000
00010000
00010000
01000000
01000000
,
00002000
00000000
00000000
00000000
00000000
00003000
00000000
00000000
,
00022000
00000000
00033000
00000000
00001000
01000000
00010000
01000000
,
00001000
01000000
00010000
01000000
00002000
00000000
00003000
00000000
,
00010000
00000100
00001000
00000000
00010000
00100000
00001000
00000000
,
00011000
00000000
00011000
00000000
00001000
00010000
00001000
00000000
,
00011000
00000000
00001000
00000000
00010000
00000100
00001000
00000100
,
00010000
00000100
00001000
00000100
00020000
00000000
00030000
00000000
,
00001000
01000000
00010000
00000000
00001000
00000010
00010000
00000000
,
00020200
00030300
02002000
03003000
,
01000000
00010000
00100000
00000000
01000000
10000000
00100000
00000000
,
01000000
00001000
00010000
00000000
00000100
00000000
00001000
00000000
,
00000010
00000100
00000001
00000000
00000010
00000100
00010000
00000000
,
00001000
00100000
01000000
00000000
00100000
00000000
00001000
00000000
,
00010000
00100000
10000000
00000000
00100000
10000000
01000000
00000000
,
10000000
01000000
00010000
00000000
00001000
00000000
00000010
00000000
,
00000100
00010000
00000010
00000000
00001000
00000001
00000010
00000000
,
00000100
00010000
00000100
00010000
00010000
00000000
00011000
00000000
,
00020000
00000000
00230000
00000000
20300000
00000000
31000000
00200000
,
00000000
02300000
00000000
03010000
00002000
00000000
00003010
00000100
,
00000020
00000000
00000032
00000000
00002003
00000000
00003010
00020000
,
00000000
00032000
00000000
01003000
00020000
00000000
00130000
01000000
,
20000000
00000000
30020000
00000000
20030000
00000000
30100000
00020000
,
00000000
00230000
00000000
00310000
00002000
00000000
00013000
00001000
,
00000020
00000000
00000230
00000000
00000320
00000000
00000031
00000200
,
00000000
00000302
00000000
00000103
00002000
00000000
00013000
00001000
,
00100000
00000000
00100000
01000000
10000000
01000000
00100000
00010000
,
00100000
00000000
00001000
00010000
00000010
00001000
00000010
00010000
,
00001000
00000000
00000010
00000100
00001000
00000100
00000010
00000100
,
00010000
00000000
00001000
01000000
00100000
01000000
00010000
01000000
,
00100000
00000000
10000000
00100000
10000000
01000000
00010000
01000000
,
00010000
00000000
00001000
00010000
00001000
00010000
00000010
00001000
,
00000010
00000000
00000100
00001000
00000100
00000001
00000010
00000001
,
00000100
00000100
00001000
00001000
00010000
00100000
10000000
00000000
,
01000000
00000000
01000000
00010000
00001000
00000000
00010000
00001000
,
00000010
00000000
00001000
00000010
00000001
00000000
00000010
00000001
,
00000100
00000000
00000001
00000100
00001000
00000000
00000100
00001000
,
00010000
00011000
00011000
00101000
,
00100000
01000000
00100000
01000000
10000000
01000000
10000000
01000000
,
00100000
00001000
00100000
00001000
00010000
00000100
00010000
00000100
,
00001000
00001000
00000010
00000010
00000100
00000100
00000001
00000001
,
00000020
00000000
00000000
00000030
00000000
00000000
00000000
00000000
00000100
00000000
00000000
00000100
00000000
00000000
00000100
00000000
,
00010000
00001000
00100000
00000000
00001000
01000000
00010000
00000000
,
10000000
01000000
00010000
00000000
00001000
00010000
00001000
00000010
,
00000100
00001000
00000001
00000000
00000100
00001000
00010000
00000000
,
00001000
00000000
00000000
00010000
00000000
00000000
00100000
00000000
00000000
00000000
00000000
00000000
01000000
00000000
00000000
00000000
01000000
00000000
00000000
00000000
00010000
00000000
00000000
00000000
,
10000000
01000000
00010000
00000000
01000000
00100000
00001000
00000000
,
00010000
00000100
00000010
00000000
00000001
00000100
00001000
00000100
,
00000010
00010000
00001000
00000000
00100000
01000000
10000000
00000000
,
00200000
00000000
00000000
00320000
00000000
00000000
00032000
00000000
00003000
00000100
00000000
00000000
,
00000110
00000000
00000010
00001000
00000010
00000100
00001000
00000100
,
00000001
00000000
00000010
00000100
00010000
00001000
01000000
00010000
,
00100000
00000000
01000000
10000000
01000000
00010000
00001000
00010000
,
00000010
00001000
00000010
00000100
00001000
00000100
00000001
00000010
,
00000001
00000000
00000100
00001000
00010000
00100000
01000000
00100000
,
10000000
00000000
01000000
00010000
01000000
00100000
00001000
00010000
,
00000200
00000000
00001300
00000010
00000100
00001000
00000100
00000001
,
00000010
00000010
00000100
00000100
00010000
00010000
00001000
00000000
,
00022000
00033000
00000000
00000000
;

//--------------- dance-double - forcednature ----------------
#NOTEDATA:;
#STEPSTYPE:dance-double;
#DESCRIPTION:forcednature;
#DIFFICULTY:Hard;
#METER:16;
#RADARVALUES:0,0,0,0,0;
#CREDIT:forcednature;
#NOTES:
00000000
00000000
00000000
00000000
,
00000000
00000000
00000000
00000000
,
00000000
00000000
00000000
00000000
,
00000000
00000000
00000000
00000000
,
00000000
00000000
00000000
00000000
,
00000000
00000000
00000000
00000000
,
00002000
00000000
00023000
00000000
00230000
00000000
10300000
00020000
,
00000000
00230000
00000000
01300000
00200000
00000000
00301000
00010000
,
00002000
00000000
00003020
00000000
00000230
00000000
00001300
00000010
,
00000100
00000000
00001000
00000100
00000001
00000100
00000010
00000000
,
00010010
00000000
00010000
00001000
00010000
00001000
00100000
00010000
,
01000000
00000000
00100000
10000000
00100000
10000000
01000000
00010000
,
00001000
00000000
00100000
00010000
00100000
00010000
00001000
00000100
,
00010000
00000010
00010000
00000100
00010000
00000010
00001001
00000000
,
00000001
00000010
00000001
00000010
00001000
00010000
00001000
00010000
,
00100000
10000000
00100000
10000000
01000000
00010000
01000000
00010000
,
00001000
00010000
00001000
00000000
00010000
00000100
00010000
00000000
00000100
00001000
00000100
00000000
00000010
00000100
00000010
00000000
,
00000002
00000000
00000000
00000003
00000000
00000000
00000000
00000000
00001001
00000000
00000000
00001001
00000000
00000000
00001001
00000000
,
00001000
00000000
00000010
00010000
00001000
00000000
01000000
00000000
00010000
00000000
00100000
01000000
10000000
00000000
01000000
00000000
,
00100000
00000000
00010000
00100000
00001000
00000000
00010000
00000000
00000010
00000000
00000100
00000000
00001000
00000000
00000100
00000000
,
00000001
00000000
00000010
00000100
00001000
00000000
00000100
00000000
00010000
00000000
00001000
00100000
00010000
00000000
00100000
00000000
,
01000000
00000000
00000000
00000000
00000000
00000000
10000000
00000000
00000000
00010000
00000000
00000000
01000000
00000000
00000000
00000000
00000000
00000000
00100000
00000000
00000000
00000000
00000000
00000000
01100000
00000000
00000000
00000000
00000000
00000000
00000000
00000000
10010000
00000000
00000000
00000000
00000000
00000000
00000000
00000000
00001000
00000000
00000000
00000000
00000000
00000000
00000000
00000000
,
00010000
00000000
00000100
00001000
00000010
00000000
00001000
00000000
00000010
00000000
00000100
00000001
00001000
00000000
00000001
00000000
,
00001000
00000000
00000100
00010000
00001000
00000000
00010000
00000000
00001000
00000000
00100000
00000000
01000000
00000000
00100000
00000000
,
00001000
00000000
00010000
00001000
01000000
00000000
00010000
00000000
01000000
00000000
00100000
10000000
00010000
00000000
10000000
00000000
,
00020000
00000000
00000000
00030000
00000000
00000000
00000000
00000000
00200000
00000000
00000000
00300000
00001000
00000000
00010000
00000000
,
00001000
00000000
00000000
00001000
00000000
00000000
00000010
00000000
00000000
00000010
00000000
00000000
00000100
00000000
00000000
00000100
00000000
00000000
00001000
00000000
00000001
00000000
00001000
00000000
,
00000010
00000000
00000000
00000010
00000000
00000000
00010000
00000000
00000000
00010000
00000000
00000000
00001000
00000000
01000000
00000000
00001000
00000000
00100000
00000000
00010000
00000000
00100000
00000000
,
01000000
10000000
01000000
00000000
10000000
00100000
10000000
00000000
00100000
00010000
00100000
00000000
00010000
00001000
00010000
00000000
,
00000200
00000000
00000000
00000000
00000000
00000300
00000000
00000000
,
00000110
00000000
00000010
00000001
00000100
00001000
00010000
00001000
,
00100000
00000000
00000000
00001000
00000000
00000000
00010000
00000000
00000000
00001000
00000000
00000000
00000010
00000000
00000000
00000000
00000000
00000000
00000200
00000000
00000300
00000000
00000000
00000000
,
00000010
00001000
00010000
00000000
01000000
00010000
00001000
00000000
,
00011000
00000000
01000000
00000000
00011000
00000000
00100000
00000000
00011000
00000000
00000100
00001000
00000010
00000000
00000000
00000000
,
00001001
00000000
00000001
00000010
00001000
00000010
00000100
00010000
,
00001000
00000000
00000000
00010000
00000000
00000000
00100000
00000000
00000000
10000000
00000000
00000000
01000000
00000000
00000000
00000000
00000000
00000000
00200000
00000000
00000000
00000000
00300000
00000000
,
01000000
00010000
00001000
00000000
00000100
00001000
00010000
00000000
,
00022000
00000000
00033000
00000000
00001000
00010000
00100000
01000000
,
00010000
00000000
00100000
00010000
00100000
00000000
01000000
10000000
01000000
00000000
10000000
00010000
00100000
00000000
00001000
00000000
,
00010000
00000000
00000010
00001000
00000010
00000000
00001000
00000100
00001000
00000000
00000001
00000010
00000100
00000000
00001000
00000000
,
00000010
00000000
00010000
00001000
00010000
00000000
00001000
00100000
00001000
00000000
00100000
00010000
10000000
00000000
00100000
00000000
,
01000000
00001000
01000000
00001000
00010000
00000000
00000010
00010000
00001000
00000000
00000010
00000000
00000110
00000000
00000000
00000000
,
00000100
00000000
00001000
00000100
00001000
00000000
00000100
00010000
00000100
00000000
00010000
00001000
00100000
00000000
00010000
00000000
,
00100000
00000000
01000000
10000000
01000000
00000000
10000000
00100000
10000000
00000000
00100000
01000000
00010000
00000000
00100000
00000000
,
00001000
00000000
00010000
00001000
00010000
00000000
00000010
00001000
00000010
00000000
00000100
00000001
00001000
00000000
00000100
00000000
,
00010000
00000000
00010000
00000000
00010000
00000000
00010000
00001000
00100000
00000000
00000000
00000000
01000000
10000000
01000000
10000000
,
02000000
00000000
03020000
00000000
00032000
00000000
00003010
00000200
,
00000000
00000320
00000000
00000031
00002000
00000000
00003010
00010000
,
00002000
00000000
02003000
00000000
03020000
00000000
00130000
02000000
,
00000000
23000000
00000000
31000000
00020000
00000000
00031000
00000010
,
00000200
00000000
00000320
00000000
00000032
00000000
00000103
00002000
,
00000000
00003200
00000000
00000310
00002000
00000000
00013000
01000000
,
00020000
00000000
00230000
00000000
20300000
00000000
30100000
02000000
,
00000000
23000000
00000000
30010000
00200000
00000000
00301000
00010000
,
00000010
00000000
00000010
00000100
00001000
00000100
00000001
00000010
,
00000001
00000000
00000010
00000100
00010000
00001000
00100000
01000000
,
10000000
00000000
10000000
00100000
00010000
00100000
01000000
00001000
,
00010000
00000000
00000010
00010000
00001000
00000010
00000100
00001000
,
00000001
00000000
00000001
00000100
00001000
00010000
01000000
10000000
,
00100000
00000000
01000000
00001000
00100000
00010000
01000000
00001000
,
00010000
00000100
00010000
00000100
00001000
00000010
00010000
00100000
,
01000000
00000000
00010000
00000000
10000000
00000000
00010000
00000000
00100000
00000000
01000000
10000000
00010000
00000000
00000000
00000000
,
00100000
01000000
00010000
01000000
00100000
00001000
00010000
00001000
,
00000100
00000001
00000010
00000001
00000100
00001000
00010000
00001000
,
00100000
01000000
00010000
01000000
00100000
00001000
00010000
00001000
,
00011000
00000000
00000010
00000000
00011000
00000000
00000100
00000000
00011000
00000000
00100000
00010000
01000000
00000000
00000000
00000000
,
00100000
00100000
10000000
10000000
01000000
01000000
00010000
00010000
,
00001000
00001000
00000100
00000100
00000001
00000001
00000010
00000010
,
00000100
00001000
00000100
00000000
00010000
00001000
00010000
00000000
00001000
01000000
00001000
00000000
01000000
00010000
01000000
00000000
,
00200000
00000000
00000000
00300000
00000000
00000000
00000000
00000000
10010000
00000000
00000000
10010000
00000000
00000000
10010000
00000000
,
10000000
00000000
01000000
00010000
00001000
00000000
00010000
00000000
01000000
00000000
00010000
00001000
00000010
00000000
00001000
00000000
,
00010000
00000000
00001000
00000010
00000001
00000000
00000010
00000000
00000001
00000000
00000100
00000000
00000001
00000000
00000000
00000000
,
00000001
00000000
00000100
00001000
00010000
00000000
00001000
00000000
00000100
00000000
00001000
00010000
00100000
00000000
00010000
00000000
,
00001000
00000000
00000000
00000000
00000000
00000000
00010000
00000000
00000000
00100000
00000000
00000000
10000000
00000000
00000000
00000000
00000000
00000000
00100000
00000000
00000000
00000000
00000000
00000000
01100000
00000000
00000000
00000000
00000000
00000000
00000000
00000000
01100000
00000000
00000000
00000000
00000000
00000000
00000000
00000000
10000000
00000000
00000000
00000000
00010000
00000000
00000000
00000000
,
10000000
00000000
00100000
00010000
00001000
00000000
00010000
00000000
00100000
00000000
00010000
00001000
00000100
00000000
00001000
00000000
,
00010000
00000000
00001000
00000100
00000001
00000000
00000100
00000000
00000001
00000000
00000000
00000000
00000001
00000000
00000000
00000000
,
00000001
00000000
00000010
00001000
00010000
00000000
00001000
00000000
00000010
00000000
00001000
00010000
01000000
00000000
00010000
00000000
,
00001000
00000000
00000000
00010000
00000000
00000000
00001000
00000000
00000000
00000000
00000000
00000000
01000000
00000000
00000000
00010000
00000000
00000000
01000000
00000000
00000000
00000000
00000000
00000000
00200000
00000000
00000000
00000000
00000000
00000000
00000000
00000000
00000000
00300000
00000000
00000000
20000000
00000000
00000000
00000000
00000000
00000000
00000000
00000000
30000000
00000000
00000000
00000000
,
01000000
00100000
01000000
00100000
00010000
00000000
01000000
00001000
00010000
00000000
00000010
00000000
00001000
00000000
00000010
00000000
,
00000100
00000001
00000100
00000001
00001000
00000000
00000100
00010000
00001000
00000000
00100000
00001000
00010000
00000000
00100000
00000000
,
01000000
00010000
01000000
00010000
00100000
00000000
01000000
10000000
00010000
00000000
01000000
00000000
10000000
00000000
01000000
00000000
,
00010000
00100000
00010000
00100000
01000000
00000000
00100000
00001000
00010000
00000000
00000010
00000000
00000110
00000000
00000000
00000000
,
00000100
00000001
00000010
00000001
00000100
00000000
00000010
00001000
00000001
00000000
00000010
00000000
00000100
00000000
00000010
00000000
,
00000100
00010000
00001000
00010000
00000100
00000000
00001000
00000010
00010000
00000000
00001000
01000000
00010000
00000000
00100000
00000000
,
01000000
10000000
00100000
10000000
01000000
00000000
00100000
00001000
00010000
00000000
00000010
00010000
00001000
00000000
00000010
00000000
,
00000100
00010000
00001000
00000000
01000000
00001000
00010000
00000000
00100000
01000000
00100000
01000000
00010000
00000000
00000000
00000000
,
20020000
30030000
00000000
00000000
;
