#VERSION:0.83;
#TITLE:ラピストリアの約束;
#SUBTITLE:;
#ARTIST:positive MAD-crew;
#TITLETRANSLIT:Lapistoria no yakusoku;
#SUBTITLETRANSLIT:;
#ARTISTTRANSLIT:;
#GENRE:;
#CREDIT:;
#MUSIC:Lapistoria no yakusoku.ogg;
#BANNER:Lapistoria no yakusoku.png;
#BACKGROUND:Lapistoria no yakusoku-bg.png;
#CDTITLE:./CDTitles/pnm Lapistoria.png;
#SAMPLESTART:55.820;
#SAMPLELENGTH:15.000;
#SELECTABLE:YES;
#OFFSET:0.289;
#BPMS:0.000=186.000;
#STOPS:;
#BGCHANGES:0.000=../BGAs/19cy.mp4=1.000=0=0=0=StretchNoLoop====,
99999.000=-nosongbg-=1.000=0=0=0=StretchNoLoop====
;
#FGCHANGES:;

//--------------- dance-single - forcednature ----------------
#NOTEDATA:;
#STEPSTYPE:dance-single;
#DESCRIPTION:forcednature;
#DIFFICULTY:Beginner;
#METER:1;
#RADARVALUES:0,0,0,0,0;
#CREDIT:forcednature;
#NOTES:
0000
0000
0000
0000
,
0000
0000
0000
0000
,
0000
0000
0000
0000
,
0000
0000
0000
0000
,
0000
0000
0000
0000
,
0000
0000
0000
0000
,
0000
0000
0000
0000
,
0000
0000
0000
0000
,
0001
0000
0000
0000
,
0000
0000
0000
0000
,
1000
0000
0000
0000
,
0000
0000
0000
0000
,
0010
0000
0000
0000
,
0000
0000
0000
0000
,
0000
0000
0000
0000
,
0000
0000
0000
0000
,
0100
0000
0000
0000
,
0000
0000
0000
0000
,
0000
0000
0000
0000
,
0000
0000
0000
0000
,
0001
0000
0000
0000
,
0000
0000
0000
0000
,
0000
0000
0000
0000
,
0000
0000
0000
0000
,
1000
0000
0000
0000
,
0000
0000
0000
0000
,
0000
0000
0000
0000
,
0000
0000
0000
0000
,
0100
0000
0000
0000
,
0000
0000
0000
0000
,
0000
0000
0000
0000
,
0000
0000
0000
0000
,
0010
0000
0000
0000
,
0000
0000
0000
0000
,
0000
0000
0000
0000
,
0000
0000
0000
0000
,
0001
0000
0000
0000
,
0000
0000
0000
0000
,
0000
0000
0000
0000
,
0000
0000
0000
0000
,
0100
0000
0000
0000
,
0000
0000
0000
0000
,
0010
0000
0000
0000
,
0000
0000
0000
0000
,
1000
0000
0000
0000
,
0000
0000
0000
0000
,
0000
0000
0000
0000
,
0000
0000
0000
0000
,
0001
0000
0000
0000
,
0000
0000
0000
0000
,
0010
0000
0000
0000
,
0000
0000
0000
0000
,
0001
0000
0000
0000
,
0000
0000
0000
0000
,
0000
0000
0000
0000
,
0000
0000
0000
0000
,
0100
0000
0000
0000
,
0000
0000
0000
0000
,
0000
0000
0000
0000
,
0000
0000
0000
0000
,
0010
0000
0000
0000
,
0000
0000
0000
0000
,
1000
0000
0000
0000
,
0000
0000
0000
0000
,
0001
0000
0000
0000
,
0000
0000
0000
0000
,
0010
0000
0000
0000
,
0000
0000
0000
0000
,
0100
0000
0000
0000
,
0000
0000
0000
0000
,
0000
0000
0000
0000
,
0000
0000
0000
0000
,
1000
0000
0000
0000
,
0000
0000
0000
0000
,
0001
0000
0000
0000
,
0000
0000
0000
0000
,
0100
0000
0000
0000
,
0000
0000
0000
0000
,
0000
0000
0000
0000
,
0000
0000
0000
0000
,
0010
0000
0000
0000
,
0000
0000
0000
0000
,
1000
0000
0000
0000
,
0000
0000
0000
0000
,
0001
0000
0000
0000
;

//--------------- dance-single - forcednature ----------------
#NOTEDATA:;
#STEPSTYPE:dance-single;
#DESCRIPTION:forcednature;
#DIFFICULTY:Easy;
#METER:6;
#RADARVALUES:0,0,0,0,0;
#CREDIT:forcednature;
#NOTES:
0000
0000
0000
0000
,
0000
0000
0000
0000
,
0000
0000
0000
0000
,
0000
0000
0000
0000
,
0000
0000
0000
0000
,
0000
0000
0000
0000
,
0000
0000
0000
0000
,
0000
0000
0000
0000
,
1000
0000
0000
0000
,
0001
0000
0000
0000
,
0100
0000
0000
0000
,
0010
0000
0010
0000
,
1000
0000
0000
0000
,
0001
0000
0000
0000
,
1000
0000
0000
0000
,
0100
0000
0000
0000
,
0010
0000
0000
0000
,
0001
0000
0000
0000
,
1000
0000
0000
0000
,
0001
0000
0001
0000
,
0001
0000
0000
0000
,
0100
0000
0000
0000
,
0010
0000
0000
0000
,
1000
0000
0001
0000
,
1001
0000
0000
0000
,
1000
0000
0100
0000
,
1000
0000
0001
0000
,
1000
0000
0010
0000
,
0100
0000
0000
0000
,
0001
0000
1000
0000
,
0001
0000
0010
0000
,
0100
0000
1000
0000
,
1001
0000
0000
0000
,
0001
0000
0100
0000
,
0010
0000
0100
0000
,
0001
0000
1000
0000
,
1001
0000
0000
0000
,
1000
0000
0100
0000
,
0010
0100
0010
0000
,
0001
0000
0000
0000
,
1000
1000
1000
0000
,
0001
0001
0001
0000
,
0100
0000
0000
0000
0100
0000
0000
0000
0100
0000
0000
0000
,
0100
0000
0000
0000
0100
0000
0000
0000
0000
0000
0000
0000
,
1001
0000
1000
0100
,
1000
0000
0001
1000
,
0001
0000
1000
0010
,
1000
0000
0001
0000
,
1001
0000
0001
0100
,
0001
0000
1000
0001
,
1000
0000
0001
0010
,
0001
0000
1000
0000
,
0110
0000
0000
1000
,
0100
0000
0010
0000
,
0001
0000
1000
0001
,
1000
0000
0010
0000
,
0110
0000
0001
1000
,
0001
0000
0010
0000
,
0100
0000
1000
0001
,
1000
0000
0010
0000
,
1001
0000
0001
0000
,
0100
0000
0001
0000
,
1000
0000
0001
0000
,
0010
0000
1001
0000
,
1000
0000
0000
0000
1000
0000
0000
0000
1000
0000
0000
0000
,
0001
0000
0000
0000
0001
0000
0000
0000
0001
0000
0000
0000
,
0100
0000
0000
0000
0100
0000
0000
0000
0100
0000
0000
0000
,
0010
0010
0010
0000
,
2000
0000
3000
0000
,
0002
0000
0003
0000
,
0020
0000
0030
0000
,
0100
0000
1000
0000
,
0002
0000
0003
0000
,
0200
0000
0300
0000
,
0010
0000
0010
0000
,
1000
0001
1000
0000
,
1001
0000
0001
0010
,
0001
0000
0010
0000
,
0100
0000
1000
0100
,
1000
0000
0001
0000
,
0100
0001
0100
0000
,
0010
0100
0010
0000
,
1000
0010
1000
0000
,
0001
0000
0010
0000
,
2002
0000
0000
0000
,
3003
0000
0000
0000
;

//--------------- dance-single - forcednature ----------------
#NOTEDATA:;
#STEPSTYPE:dance-single;
#DESCRIPTION:forcednature;
#DIFFICULTY:Medium;
#METER:11;
#RADARVALUES:0,0,0,0,0;
#CREDIT:forcednature;
#NOTES:
0000
0000
0000
0000
,
0000
0000
0000
0000
,
0000
0000
0000
0000
,
0000
0000
0000
0000
,
0000
0000
0000
0000
,
0000
0000
0000
0000
,
0000
0000
0000
0000
,
0000
0000
0000
0000
,
1001
0000
0000
1000
0010
0000
1000
0000
,
1001
0000
0000
0001
0010
0000
0001
0000
,
0110
0000
0000
0100
0010
0000
0100
0000
,
1001
0000
1000
0100
1000
0000
0001
0100
,
0002
0003
0020
0000
,
0230
0300
1000
0001
,
0200
0000
0310
1000
,
0001
0000
1000
0000
0100
1000
0100
0000
,
0020
0000
0032
0003
,
2000
0000
0000
3020
0000
0000
0130
0000
,
0001
0000
0011
0000
0000
0110
0000
0000
,
1100
0000
0000
1000
0001
0000
0100
0000
,
0010
0000
1001
0000
0000
1000
0001
0000
,
0200
0320
2030
3002
,
0203
0000
0000
0300
,
0002
0023
0230
2300
,
3002
0000
0000
0003
,
2000
3020
0230
0302
,
1003
0000
1100
0000
0000
0110
0000
0000
,
0011
0000
0001
1000
0001
0000
0100
0000
,
0220
0000
0000
0330
,
0010
1000
0001
1000
,
0200
0000
0000
0300
0020
0000
0000
0030
,
0002
0000
0000
0003
2000
0000
0000
3000
,
1001
0001
0100
0001
,
1000
0000
0010
0000
1000
0001
1000
0000
,
0100
0010
0100
1000
,
0001
0010
0001
0000
1000
0001
1000
0000
,
1010
0010
0110
0100
,
0101
0000
0001
1000
0001
0000
1000
0000
,
0100
0010
0001
0000
1000
0000
0010
0100
,
0001
0000
1000
0100
1000
0000
0001
0000
,
1000
1000
1000
0000
1000
0010
1000
0000
,
0001
0001
0001
0010
0001
0000
0000
0000
,
0100
0000
0100
0000
0100
0000
0010
0000
0010
0000
0010
0000
,
1000
0000
0001
0000
1000
0000
1001
0000
0000
0000
0000
0000
,
0110
0000
0000
0001
0000
0010
0100
0000
,
1000
0000
0000
0001
0000
0100
0010
0000
,
1000
0000
0000
0100
0000
0010
0001
0000
,
1000
0010
1000
0000
0010
0100
0010
0000
,
1001
0000
0000
0001
0000
0010
0100
0000
,
1000
0000
0000
0001
0000
0100
0010
0000
,
1001
0000
0000
1000
0000
0100
0010
0000
,
0100
0000
1000
0010
1000
0000
0010
0100
,
0010
0000
0100
0001
0000
0010
0001
0000
,
0010
0000
0100
1000
0000
0001
1000
0000
,
0010
0000
0100
0001
0000
1000
0100
0000
,
0010
0000
0100
1000
0000
0001
0100
0000
,
0010
0110
0100
0101
,
0001
1001
1000
1100
,
1001
0000
0001
0010
,
0100
1000
0100
0000
1000
0010
1000
0000
,
0110
0000
0001
1000
0010
0000
1000
0000
,
0001
0010
0000
0100
1000
0000
0001
0000
,
0110
0000
1000
0100
0010
0000
0100
0000
,
1000
0010
0000
0100
0001
0000
0000
0000
,
1000
0000
1000
0000
1000
0000
0001
0000
0001
0000
0001
0000
,
0010
0000
0010
0000
0010
0000
0100
0000
0100
0000
0100
0000
,
1000
0000
0001
0000
1000
0000
0010
0000
0100
0000
0010
0000
,
1000
0000
0001
1000
0001
0000
0010
0000
0000
0000
0000
0000
,
0200
0000
0300
0000
,
2002
0000
3003
0000
,
0020
0000
0030
0000
,
2000
0000
3002
0000
,
0203
0000
0300
0000
,
0220
0000
0330
0000
,
1000
1000
0001
0001
,
0010
0000
0100
0000
1000
0000
0001
1000
,
0001
0000
0000
0110
0000
0000
1000
0000
,
0010
0000
1000
0001
1000
0000
0100
0000
,
0010
0000
0001
1000
0001
0000
0100
0000
,
0010
1000
0001
0100
0000
0001
0010
0000
,
0100
1100
1000
1010
,
0001
0011
0100
0110
,
1001
0000
0000
0000
0001
0000
0010
0100
,
1000
0000
0010
0100
0001
0000
1000
0000
,
2002
0000
0000
0000
,
3003
0000
0000
0000
;

//--------------- dance-single - forcednature ----------------
#NOTEDATA:;
#STEPSTYPE:dance-single;
#DESCRIPTION:forcednature;
#DIFFICULTY:Hard;
#METER:15;
#RADARVALUES:0,0,0,0,0;
#CREDIT:forcednature;
#NOTES:
0000
0000
0000
0000
,
0000
0000
0000
0000
,
0000
0000
0000
0000
,
0000
0000
0000
0000
,
0000
0000
0000
0000
,
0000
0000
0000
0000
,
0000
0000
0000
0000
,
0000
0000
0000
0000
,
1100
0000
0001
1000
0010
1000
0001
0000
,
0101
0000
1000
0001
0010
0001
1000
0000
,
0110
0000
0001
0100
0010
1000
0001
0000
,
0010
1000
0010
0000
1000
0000
0001
0000
1000
0100
1000
0100
0010
0000
0000
0000
,
0002
0000
0100
0000
1003
0001
0010
0000
,
0100
1000
0001
0001
0100
0010
1000
0000
,
0200
0001
0010
1300
,
0100
0010
0001
0001
0100
0010
1000
0000
,
0201
1000
0010
0301
,
0100
0010
1000
0001
0001
0010
0100
0000
,
1000
0000
0101
0001
0000
1100
1000
0000
,
0110
0000
0000
0000
1001
0000
0000
0000
0001
0000
0100
0001
0100
0000
0010
0000
,
1000
0011
0001
0100
,
0010
0100
1000
0100
0001
1000
0010
1000
,
1200
0001
0010
1300
,
1000
0100
0001
0100
1000
0001
0010
0001
,
0201
1000
0010
0301
,
0001
0100
1000
0100
0001
0010
0100
1000
,
1010
0000
0101
0001
0000
1100
1000
0000
,
0001
0000
0001
0000
0100
0000
0100
0000
0010
0000
1000
0000
0010
1000
0010
0000
,
2000
0000
0000
0001
0001
0000
3100
0000
,
0100
0010
0001
0100
,
1020
0031
0021
1030
,
0001
0100
0100
0010
1000
0000
0100
0000
,
1001
0000
0001
0010
0100
0000
1000
0100
,
0010
0000
0001
0100
0010
1000
0001
1000
,
0100
0100
0110
0000
0001
0000
1000
0001
,
0200
0000
0310
0000
1001
0000
0100
0010
,
1002
0000
0010
0010
2003
0000
0010
0010
,
3002
0000
0100
0100
1003
0000
0101
0001
,
0100
0000
0000
0000
0020
0000
0000
0000
1030
0000
0001
0000
0010
0100
0000
0000
,
0110
0000
0000
0000
0001
0000
0000
0001
0100
0000
0010
0000
1000
0000
0000
0000
,
0100
0000
0100
0000
0001
0000
0000
0100
0001
0000
0100
0000
1000
0000
0000
0000
,
0010
0000
1000
0000
0010
0000
0100
0001
0100
0000
0000
0000
0000
0000
0000
0000
,
0101
0000
0101
0000
0101
0000
1010
0000
1010
0000
1010
0000
,
1001
0000
1001
0000
1001
0000
0220
0000
0000
0330
0000
0000
,
1001
0000
0001
0010
0100
1000
0010
0100
,
1100
0000
0100
0001
0010
0100
0001
0100
,
0110
0000
0001
1000
0010
0001
0010
1000
,
1010
0000
1000
0100
0110
0000
0010
0001
,
1001
0000
1000
0010
0001
0010
0100
0001
,
0011
0000
0010
1000
0010
0001
0100
0010
,
0110
0000
0010
1000
0001
0010
0100
0001
,
0100
1000
0100
1000
0020
0230
0302
2003
,
3200
0000
0000
0000
0010
0000
0010
0000
0000
0000
1300
0000
0100
0000
0000
0010
,
0002
0000
0000
0000
0103
0000
0010
1000
0020
0000
0000
0000
0130
0000
0001
1000
,
0002
0000
0013
0001
0100
0010
1000
0000
,
0100
0000
0001
0000
0100
0000
1000
0000
0000
0000
0010
1000
0010
0000
0000
0000
,
0100
0000
0000
0100
0001
0000
0000
0001
0010
0000
0000
0010
0100
0000
0000
0100
,
1000
0000
0000
1000
0010
0000
0000
0010
0100
0000
0000
0100
0001
0000
0000
0001
,
2000
0000
0000
0000
3100
0000
0010
0000
0001
0000
0000
0001
0100
0000
0000
0000
,
1010
0000
1000
0000
0000
0000
0001
0010
0001
0000
0000
0000
0100
0000
0010
0000
,
0110
0000
0000
0000
0100
0000
0001
0000
0100
0000
1000
0000
0100
0000
0000
0100
,
0001
0000
0010
0000
0000
0000
1000
0000
0020
0000
0000
0000
0031
0000
1000
0001
,
2000
0000
0000
0000
3010
0000
0001
0000
0010
0000
1000
0000
0010
0000
0000
0010
,
0100
0000
0000
0000
0010
0000
1000
0001
0020
0000
0100
0000
0130
0000
0000
0000
,
0011
0000
0011
0000
1100
0000
1010
0000
1010
0000
0101
0000
,
0011
0000
1001
0000
1100
0000
1010
0000
1001
0000
0101
0000
,
0011
0000
0110
0000
1100
0000
1010
0000
0110
0000
0101
0000
,
1001
0000
0010
0100
0010
0000
0220
0000
0000
0330
0000
0000
,
0002
0000
0000
0100
0000
0000
0013
0000
,
2001
0000
0000
0100
0000
0000
3010
0000
,
0200
0000
0000
0001
0000
0000
1300
0000
,
0220
0330
2002
3003
,
2000
0000
0000
0001
0000
0000
3010
0000
,
1002
0000
0000
1000
0000
0000
0013
0000
,
0001
0000
0001
0000
0100
0000
0010
0000
1000
0010
1000
0000
0010
1000
0010
0000
,
2000
0000
0000
0000
0000
0000
0000
0000
3100
0000
0010
0100
0010
0000
0001
0010
,
0001
0000
0000
0000
1000
0000
1100
0000
0000
0000
0001
0000
0100
0001
0100
0000
,
1001
0000
0001
0100
0010
1000
1010
0000
,
0001
0100
1000
0100
0010
1000
0001
0010
,
0110
0000
0000
0000
0010
0000
1000
0000
0010
0000
0001
1000
0001
0000
0000
0000
,
0001
0000
0000
0001
0100
0000
0000
0100
1000
0000
0000
1000
0100
0000
0000
0100
,
0001
0000
0000
0001
0010
0000
0000
0010
1000
0000
0000
1000
0010
0000
0000
0010
,
0002
0000
1003
0001
0100
0010
1000
0001
,
0011
0000
0000
0000
1000
0000
0010
1000
0010
0000
0100
0001
0100
0000
0010
0000
,
2002
0000
0000
0000
,
3003
0000
0000
0000
;

//--------------- dance-double - forcednature ----------------
#NOTEDATA:;
#STEPSTYPE:dance-double;
#DESCRIPTION:forcednature;
#DIFFICULTY:Easy;
#METER:5;
#RADARVALUES:0,0,0,0,0;
#CREDIT:forcednature;
#NOTES:
00000000
00000000
00000000
00000000
,
00000000
00000000
00000000
00000000
,
00000000
00000000
00000000
00000000
,
00000000
00000000
00000000
00000000
,
00000000
00000000
00000000
00000000
,
00000000
00000000
00000000
00000000
,
00000000
00000000
00000000
00000000
,
00000000
00000000
00000000
00000000
,
00001000
00000000
00000000
00000000
,
00010000
00000000
00000000
00000000
,
00000100
00000000
00000000
00000000
,
00000010
00000000
00000000
00000000
,
00001001
00000000
00000000
00000000
,
00001000
00000000
00000000
00000000
,
00000100
00000000
00000000
00000000
,
00010000
00000000
00000000
00000000
,
00011000
00000000
00000000
00000000
,
00001000
00000000
00000000
00000000
,
01000000
00000000
00000000
00000000
,
00010000
00000000
00000000
00000000
,
10010000
00000000
00000000
00000000
,
10000000
00000000
00000000
00000000
,
01000000
00000000
00000000
00000000
,
00100000
00000000
00000000
00000000
,
01100000
00000000
00000000
00000000
,
01000000
00000000
00000000
00000000
,
00100000
00000000
00000000
00000000
,
00001000
00000000
00010000
00000000
,
00011000
00000000
00000000
00000000
,
00000010
00000000
00000010
00000000
,
00001000
00000000
00000000
00000000
,
00000001
00000000
00000001
00000000
,
00000000
00001000
00000000
00001000
,
00000000
00000100
00000000
00000100
,
00000000
00010000
00000000
00010000
,
00000000
00001000
00000000
00001000
,
00000000
00000000
01000000
00000000
,
00010000
00000000
01000000
00000000
,
00010000
00000000
00000000
00000000
,
00100000
00000000
00000000
00000000
,
01000000
00000000
01000000
00000000
,
01000000
00000000
00000000
00000000
,
10000000
10000000
10000000
10000000
,
10000000
10000000
10000000
00000000
,
10010000
00000000
00010000
00000000
,
01000000
00000000
00000000
00000000
,
00001000
00000000
00010000
00000000
,
00001000
00000000
00000000
00000000
,
00010000
00000000
00000100
00000000
,
00001000
00000000
00000000
00000000
,
00000001
00000000
00001000
00000000
,
00000001
00000000
00000000
00000000
,
00001001
00000000
00000000
00000000
,
00001000
00000000
00000100
00000000
,
00010000
00001000
00010000
00000000
,
00001000
00000000
01000000
00000000
,
00010000
10000000
00010000
00000000
,
00100000
00000000
01000000
00000000
,
10000000
00000000
00010000
00000000
,
01000000
00000000
00001000
00000000
,
00011000
00000000
00010000
00000100
,
00010000
00000000
00001000
00000000
,
00011000
00000000
00001000
01000000
,
00001000
00000000
00011000
00000000
,
00010000
00010000
00001000
00001000
,
00010000
00010000
00001000
00001000
,
00010000
00010000
00001000
00001000
,
00010000
00001000
00011000
00000000
,
00000000
00000000
00000000
00000000
,
00000000
00000000
00000000
00000000
,
00000000
00000000
00000000
00000000
,
00010000
00000000
00000100
00000000
,
00001000
00000000
00000000
00000000
,
00001001
00000000
00000000
00000000
,
00000001
00000000
00000100
00000000
,
00000010
00000010
00000010
00000000
,
00001001
00000000
00001000
00000000
,
00000100
00000000
00010000
00000000
,
00001000
01000000
00001000
00000000
,
00010000
00000000
00001000
00000000
,
01000000
00010000
01000000
00000000
,
00001000
00000000
00010000
00000000
,
00011000
00000000
00000000
00000000
,
00000100
00001000
00000100
00000000
,
00002002
00000000
00000000
00000000
,
00003003
00000000
00000000
00000000
;

//--------------- dance-double - forcednature ----------------
#NOTEDATA:;
#STEPSTYPE:dance-double;
#DESCRIPTION:forcednature;
#DIFFICULTY:Medium;
#METER:11;
#RADARVALUES:0,0,0,0,0;
#CREDIT:forcednature;
#NOTES:
00000000
00000000
00000000
00000000
,
00000000
00000000
00000000
00000000
,
00000000
00000000
00000000
00000000
,
00000000
00000000
00000000
00000000
,
00000000
00000000
00000000
00000000
,
00000000
00000000
00000000
00000000
,
00000000
00000000
00000000
00000000
,
00000000
00000000
00000000
00000000
,
00011000
00010000
00001000
01000000
,
01010000
00010000
00100000
01000000
,
11000000
00000000
10000000
00000000
00100000
00000000
01000000
00010000
,
01000000
00000000
00001000
00010000
00000100
00001000
00000100
00000000
,
00000110
00000010
00000001
00000100
,
00000010
00001000
00000001
00000000
00000010
00000001
00001000
00000000
,
00000100
00010000
00001000
01000000
,
00010000
10000000
00100000
00000000
10000000
00010000
00100000
00000000
,
01100000
01000000
10000000
00010000
,
01000000
00001000
00010000
00000000
00001000
01000000
00010000
00000000
,
00100000
00000000
01000000
00000000
00010000
00001000
00000000
00010000
,
00000100
00000000
00001000
00000010
00000000
00000100
00000010
00000000
,
00002002
00000000
00003003
00000000
,
00000001
00000100
00001000
00010000
,
00022000
00000000
00000000
00033000
,
00001000
00010000
01000000
10000000
,
20020000
00000000
00000000
30030000
,
10000000
00100000
00010000
00001000
,
00000010
00000000
00000110
00000000
00000100
00001000
00000001
00000000
,
00000100
00000010
00000100
00000010
00000100
00000000
00001000
00000000
,
00022000
00000000
00000000
00000000
,
00033000
00001000
00010000
00100000
,
02200000
03300000
02020000
03030000
,
00220000
00330000
02200000
03300000
,
01000000
10000000
01000000
00010000
,
00001000
00000000
00000010
00000000
00000100
00001000
00000100
00000000
,
00000010
00000001
00000100
00001000
,
00022000
00033000
02002000
03003000
,
01000000
00000000
00010000
10000000
00010000
00000000
00100000
00000000
,
01000000
00000000
10000000
00010000
10000000
00000000
00100000
00000000
,
00010000
00001000
00000100
00000001
,
00000010
00000000
00000100
00001000
00000100
00000000
00010000
00000000
,
00001000
00001000
00001000
00000000
01000000
00000000
00011000
00000000
,
00010000
00000100
00010000
00000000
00001000
00000000
00000010
00000000
,
00000100
00000000
00000010
00000000
00000100
00000000
00000010
00000000
00000001
00000000
00000010
00000000
,
00000001
00000000
00000100
00000000
00000001
00000000
00001000
00000000
00000000
00000000
00000000
00000000
,
00001001
00000000
00000001
00000010
00000100
00000000
00001100
00000000
,
00010100
00000000
00010000
00001000
01000000
00000000
01010000
00000000
,
00110000
00000000
00100000
01000000
10000000
00000000
10100000
00000000
,
02200000
03300000
02020000
03030000
,
00110000
00000000
00100000
00001000
00010000
00000000
00011000
00000000
,
00010010
00000000
00000010
00001000
00000100
00000000
00000110
00000000
,
00000011
00000000
00000001
00000100
00001000
00000000
00011000
00000000
,
00010100
00000000
00000100
00001000
00000010
00000000
00001000
00000100
,
00020000
00001000
00030000
00010000
,
00011000
00001000
01001000
01000000
,
01010000
00000000
00010000
00100000
00000000
01000000
00100000
00000000
,
01100000
00000000
01000000
10000000
00000000
00100000
10000000
00000000
,
11000000
01100000
00110000
00101000
,
00011000
00010010
00001010
00000110
,
00000202
00000303
00000001
00000010
,
00000100
00000010
00000100
00001000
00000000
00000100
00010000
00000000
,
00011000
00000000
00001000
01000000
00001000
00000000
01000000
00010000
,
01000000
00000000
00010000
00100000
01000000
00000000
00100000
00000000
,
01100000
00000000
01000000
10000000
01000000
00000000
10000000
00100000
,
10000000
00000000
00100000
01000000
00010000
00000000
00000000
00000000
,
10000000
00000000
01000000
00000000
10000000
00000000
01000000
00000000
00010000
00000000
01000000
00000000
,
00010000
00000000
00001000
00000000
00010000
00000000
00001000
00000000
00000100
00000000
00001000
00000000
,
00000100
00000000
00000001
00000000
00000100
00000000
00000001
00000000
00000010
00000000
00000001
00000000
,
00000010
00000000
00000100
00000010
00000100
00000000
00002000
00000000
00000000
00003000
00000000
00000000
,
00000001
00000000
00000000
00000001
00000000
00000000
00000100
00000000
,
00001000
00000000
00000000
00001000
00000000
00000000
00010000
00000000
,
01000000
00000000
00000000
01000000
00000000
00000000
10000000
00000000
,
00200000
00300000
20020000
30030000
,
10000000
00000000
00000000
10000000
00000000
00000000
01000000
00000000
,
00010000
00000000
00000000
00010000
00000000
00000000
00001000
00000000
,
00000100
00000000
00000001
00000000
00000010
00000001
00000010
00000000
,
00000100
00000000
00001000
00000000
00000010
00001000
00000010
00000000
,
00000110
00000000
00000000
00011000
00000000
00000000
01000000
00000000
,
10010000
00000000
10000000
01000000
00100000
00000000
01000000
00100000
,
00010000
00000000
01000000
00001000
00000000
00001000
00010000
00000000
,
00000100
00000000
00001000
00000001
00000000
00000001
00000100
00000000
,
00000110
00000101
00000011
00000110
,
00001100
00010100
00011000
00101000
,
00110000
00000000
00010000
01000000
00100000
00000000
01100000
00000000
,
01000000
00010000
10000000
00000000
01000000
00010000
00001000
00000000
,
00022000
00000000
00000000
00000000
,
00033000
00000000
00000000
00000000
;

//--------------- dance-double - forcednature ----------------
#NOTEDATA:;
#STEPSTYPE:dance-double;
#DESCRIPTION:forcednature;
#DIFFICULTY:Hard;
#METER:15;
#RADARVALUES:0,0,0,0,0;
#CREDIT:forcednature;
#NOTES:
00000000
00000000
00000000
00000000
,
00000000
00000000
00000000
00000000
,
00000000
00000000
00000000
00000000
,
00000000
00000000
00000000
00000000
,
00000000
00000000
00000000
00000000
,
00000000
00000000
00000000
00000000
,
00000000
00000000
00000000
00000000
,
00000000
00000000
00000000
00000000
,
00011000
00000000
00001000
01000000
00010000
00000000
00100000
01000000
,
00010000
00000000
00001000
00000010
00000100
00000000
00001000
00000001
,
00000100
00000000
00001000
00010000
00100000
01000000
00100000
10000000
,
00010000
00100000
01000000
00010000
01000000
00100000
00002000
00000000
,
00013000
00000000
00000010
00001000
00000100
00000000
00000110
00000000
,
00000011
00000000
00000001
00000100
00001000
00000000
00010000
00000000
,
00100000
01000000
00010000
01000000
00100000
10000000
00010000
00000000
,
00110000
00000000
00100000
01000000
00000000
01000000
00010000
00000000
,
00011000
00000000
00001000
00000010
00000001
00000000
00000101
00000000
,
00000100
00000010
00001000
00000001
00000000
00000010
00000100
00000000
,
00010000
00000000
00101000
00000000
00001000
00010000
00100000
00000000
,
01100000
00000000
01000000
00010000
00100000
01000000
00010000
00001000
,
00000000
00000000
00000110
00000000
00000001
00001000
00000010
00000000
,
00000100
00001000
00000000
00000000
00001000
00010000
00000000
00000000
00010000
00100000
00000000
00000000
00100000
01000000
00000000
00000000
,
01020000
10000000
00100000
00031000
,
01000000
00010000
00000000
00000000
00010000
00100000
00000000
00000000
00100000
01000000
00000000
00000000
01000000
00010000
00000000
00000000
,
00012000
00000010
00010000
01003000
,
00001000
00010000
00000000
00000000
00010000
00000010
00000000
00000000
00000010
00001000
00000000
00000000
00001000
00000100
00000000
00000000
,
00000010
00000000
00011000
00000000
00100000
00001000
00010000
00000000
,
00100000
00000000
00100000
00000000
10000000
00000000
10000000
00000000
01000000
00000000
10000000
00000000
01000000
00000000
00100000
00010000
,
20000000
00000000
00000000
00100000
00000000
00000000
30100000
00000000
,
10000000
01000000
00010000
00000000
00001000
00000000
00100000
00001000
,
00020000
00000000
00030010
00010000
00002000
00000000
00003010
00000100
,
00002000
00000001
00000000
00003001
00001000
00000000
00000010
00000000
,
00011000
00000000
00100000
00001000
00010000
00100000
01000000
00010000
,
00000000
10000000
01000000
00010000
00002000
00000000
00100000
00000000
,
01003000
01000000
00001000
00000000
00011000
00000000
00010000
00000010
,
00000100
00000000
00001000
00000100
00000001
00001000
00000010
00000000
,
00000120
00000000
00000130
00001000
00020000
00000000
00031000
00010000
,
00200000
00000000
01300000
00010000
10000000
00010000
00100000
01000000
,
00010000
00000000
00011000
00000000
00001000
00000010
00000100
00000010
,
00000001
00000000
00000100
00000010
00000100
00001000
00010000
00000000
,
00001000
00100000
00001000
00000000
00100000
00000000
00001000
00000000
00100000
00001000
00100000
00000000
00010000
00000000
00000000
00000000
,
01000000
00010000
01000000
00000000
00010000
00000000
01000000
00010000
01000000
00000000
00000000
00000000
00100000
00000000
00000000
00000000
,
10000000
00000000
01000000
00000000
00010000
00000000
00001000
00000000
00000100
00000000
00000001
00000000
,
00000010
00000000
00000100
00000000
00000110
00000000
00002002
00000000
00000000
00003003
00000000
00000000
,
00001000
00000000
00000100
00000000
00010000
00000000
00001000
00010000
00001000
00000000
01000000
00000000
00010000
00000000
01000000
00000000
,
00100000
00000000
10000000
00000000
00010000
00000000
00100000
00010000
00100000
00000000
01000000
00000000
00010000
00000000
00001000
00000000
,
00010000
00000000
00000010
00000000
00001000
00000000
00000100
00001000
00000100
00000000
00000010
00000000
00000001
00000000
00001000
00000000
,
00001020
00000000
00000130
00000001
00000021
00000000
00000130
00010000
,
00001000
00000000
00100000
00000000
00010000
00000000
01000000
00010000
01000000
00000000
00100000
00000000
10000000
00000000
00010000
00000000
,
00100000
00000000
01000000
00000000
00010000
00000000
00001000
00010000
00001000
00000000
00100000
00000000
00010000
00000000
01000000
00000000
,
01100000
00000000
00100000
10000000
01000000
00010000
00001000
00000100
,
00000001
00000000
00000010
00000000
00000000
00000000
00000010
00000000
00000100
00000000
00001000
00000100
00001000
00000000
00000100
00010000
,
00002000
00000000
01000000
01000000
00000000
00010000
00013000
00000000
,
00001000
00100000
01000000
00000000
00010000
01000000
10000000
00000000
,
10100000
00000000
00100000
01000000
10000000
01000000
00010000
00000000
,
00110000
00000000
00100000
01000000
00010000
00001000
00000010
00000000
,
00000100
00000000
00000000
00000100
00010000
00000000
00000000
00010000
00001000
00000000
00000000
00001000
00100000
00000000
00000000
00100000
,
01000000
00000000
00000000
01000000
00010000
00000000
00000000
00010000
00001000
00000000
00000000
00001000
00000010
00000000
00000000
00000010
,
00000200
00000000
00001000
00000000
00000310
00000100
00010000
00000000
,
00011000
00000000
00001000
01000000
00100000
00000000
01100000
00000000
,
10000000
01000000
00010000
01000000
10000000
00100000
00010000
00000000
,
00001000
00000100
00000001
00000010
00000110
00000000
00001000
00000000
,
00000001
00000100
00001000
00000100
00000001
00000010
00001000
00000000
,
00010000
01000000
10000000
00100000
01100000
00000000
00000000
00000000
,
10000000
00000000
01000000
00000000
00010000
00000000
00001000
00000000
00000100
00000000
00000001
00000000
,
00000010
00000000
00001000
00000000
00010000
00000000
01000000
00000000
00010000
00000000
00001000
00000000
,
00000100
00000000
00001000
00000000
00010000
00000000
00100000
00000000
10000000
00000000
01000000
00000000
,
00010000
00000000
00001000
00000010
00000001
00000000
00001001
00000000
00000000
00000000
00000000
00000000
,
00000002
00000000
00000000
00000203
00000000
00000000
00002300
00000000
,
00023000
00000000
00000000
02030000
00000000
00000000
23000000
00000000
,
30200000
00000000
00000000
02300000
00000000
00000000
03010000
00000000
,
20020000
30030000
02200000
03300000
,
20000000
00000000
00000000
32000000
00000000
00000000
03020000
00000000
,
00032000
00000000
00000000
00003200
00000000
00000000
00000302
00000000
,
00000013
00000000
00000010
00000000
00000001
00000000
00000001
00000000
00000100
00000000
00000001
00000100
00000001
00000000
00000100
00000010
,
00001000
00000000
00000000
00000000
00000100
00000000
00010000
00000000
00001000
00100000
00001000
00100000
00010000
00100000
00010000
00100000
,
00001000
00000000
00010000
00010010
00000000
00001000
01001000
00000000
,
00011000
00000000
00010000
00100000
01000000
00100000
10000000
00000000
,
01000000
00010000
00001000
00100000
00001000
00010000
00000010
00010000
,
00001000
00000000
00000010
00000000
00000100
00000000
00001000
00000000
00000001
00000000
00000100
00000001
00000100
00000000
00000000
00000000
,
00000010
00000000
00001000
00000010
00001000
00000000
00000100
00000000
00010000
00000000
00001000
00010000
00001000
00000000
01000000
00000000
,
00010000
00000000
00100000
00010000
00100000
00000000
01000000
00000000
10000000
00000000
00100000
10000000
00100000
00000000
01000000
00000000
,
01020000
00000000
00000000
00000000
00130000
00000000
01000000
00000000
00010000
00000000
00001000
00010000
00001000
00000000
00100000
00000000
,
00010000
00000000
01000000
00000000
00001000
00000000
00010000
00000000
00000010
00000000
00001000
00000010
00001000
00000000
00000010
00001000
,
00000002
00000000
00000000
00000000
,
00000003
00000000
00000000
00000000
;
