#VERSION:0.83;
#TITLE:LUV CAN SAVE U;
#SUBTITLE:;
#ARTIST:HIDEKI NAGANUMA;
#TITLETRANSLIT:;
#SUBTITLETRANSLIT:;
#ARTISTTRANSLIT:;
#GENRE:NEO 80's EURO ELECTRO;
#CREDIT:;
#MUSIC:LUV CAN SAVE U.ogg;
#BANNER:LUV CAN SAVE U.png;
#BACKGROUND:LUV CAN SAVE U-bg.png;
#CDTITLE:./CDTitles/bm IIDX 20 tricoro.png;
#SAMPLESTART:40.595;
#SAMPLELENGTH:15.000;
#SELECTABLE:YES;
#OFFSET:1.619;
#BPMS:0.000=140.000;
#STOPS:;
#BGCHANGES:1.000=LUV CAN SAVE U.mp4=1.000=0=0=0=StretchNoLoop====,
99999.000=-nosongbg-=1.000=0=0=0=StretchNoLoop====
;
#FGCHANGES:;

//--------------- dance-single - forcednature ----------------
#NOTEDATA:;
#STEPSTYPE:dance-single;
#DESCRIPTION:forcednature;
#DIFFICULTY:Beginner;
#METER:1;
#RADARVALUES:0,0,0,0,0;
#CREDIT:forcednature;
#NOTES:
0000
0000
0000
0000
,
0000
0000
0000
0000
,
0000
0000
0000
0000
,
0000
0000
0000
0000
,
0000
0000
0000
0000
,
0001
0000
0000
0000
,
0000
0000
0000
0000
,
0000
0000
0000
0000
,
0000
0000
0000
0000
,
1000
0000
0000
0000
,
0000
0000
0000
0000
,
0000
0000
0000
0000
,
0000
0000
0000
0000
,
0010
0000
0000
0000
,
0000
0000
0000
0000
,
0000
0000
0000
0000
,
0000
0000
0000
0000
,
0100
0000
0000
0000
,
0000
0000
0000
0000
,
0000
0000
0000
0000
,
0000
0000
0000
0000
,
0001
0000
0000
0000
,
0000
0000
0000
0000
,
0000
0000
0000
0000
,
0000
0000
0000
0000
,
1000
0000
0000
0000
,
0000
0000
0000
0000
,
0000
0000
0000
0000
,
0000
0000
0000
0000
,
0100
0000
0000
0000
,
0000
0000
0000
0000
,
0000
0000
0000
0000
,
0000
0000
0000
0000
,
0010
0000
0000
0000
,
0000
0000
0000
0000
,
0000
0000
0000
0000
,
0000
0000
0000
0000
,
0001
0000
0000
0000
,
0000
0000
0000
0000
,
0000
0000
0000
0000
,
0000
0000
0000
0000
,
1000
0000
0000
0000
,
0000
0000
0000
0000
,
0000
0000
0000
0000
,
0000
0000
0000
0000
,
0010
0000
0000
0000
,
0000
0000
0000
0000
,
0000
0000
0000
0000
,
0000
0000
0000
0000
,
0001
0000
0000
0000
,
0000
0000
0000
0000
,
0000
0000
0000
0000
,
0000
0000
0000
0000
,
0000
0000
0000
0000
,
0010
0000
0000
0000
,
0000
0000
0000
0000
,
0000
0000
0000
0000
,
0000
0000
0000
0000
,
0100
0000
0000
0000
,
0000
0000
0000
0000
,
0000
0000
0000
0000
,
0000
0000
0000
0000
,
1000
0000
0000
0000
,
0000
0000
0000
0000
,
0000
0000
0000
0000
,
0000
0000
0000
0000
,
0001
0000
0000
0000
,
0000
0000
0000
0000
,
0000
0000
0000
0000
,
0000
0000
0000
0000
,
1001
0000
0000
0000
;

//--------------- dance-single - forcednature ----------------
#NOTEDATA:;
#STEPSTYPE:dance-single;
#DESCRIPTION:forcednature;
#DIFFICULTY:Easy;
#METER:3;
#RADARVALUES:0,0,0,0,0;
#CREDIT:forcednature;
#NOTES:
0000
0000
0000
0000
,
0000
0000
0000
0000
,
0000
0000
0000
0000
,
0000
0000
0000
0000
,
0000
0000
0000
0000
,
1000
0000
0000
0000
,
0100
0000
0000
0000
,
0010
0000
0000
0000
,
0001
0000
0000
0000
,
1000
0000
0000
0000
,
0010
0000
0000
0000
,
0100
0000
0100
0000
,
0100
0000
0000
0000
,
0001
0000
0000
0000
,
0010
0000
0000
0000
,
0001
0000
0000
0000
,
0100
0000
0000
0000
,
0010
0000
0000
0000
,
1000
0000
0000
0000
,
0100
0000
0000
0000
,
1000
0000
0000
0000
,
0001
0000
0000
0000
,
0000
0000
0000
0000
,
1000
0000
0000
0000
,
0020
0000
0030
0000
,
1001
0000
0000
0000
,
1000
0000
0000
0000
,
0100
0000
0000
0000
,
1000
0000
1000
0000
,
0001
0000
0000
0000
,
0100
0000
0000
0000
,
0010
0000
0010
0000
,
0010
0000
0000
0000
,
1000
0000
0000
0000
,
0100
0000
0000
0000
,
0010
0000
0000
0000
,
0001
0000
0000
0000
,
1000
0000
0000
0000
,
0010
0000
0000
0000
,
0100
0000
0000
0000
,
0001
0000
0000
0000
,
1001
0000
0000
0000
,
0000
0000
0000
0000
,
1000
0000
0000
0000
,
0000
0000
0000
0000
,
1001
0000
0000
0000
,
0001
0000
0000
0000
,
0100
0000
0000
0000
,
0001
0000
0000
0000
,
0010
0000
0000
0000
,
0000
0000
0000
0000
,
0100
0000
0000
0000
,
0000
0000
0000
0000
,
2000
0000
3000
0000
,
1001
0000
0000
0000
,
0001
0000
0000
0000
,
0100
0000
0000
0000
,
0010
0000
0000
0000
,
1000
0000
1000
0000
,
1000
0000
0000
0000
,
0001
0000
0000
0000
,
0010
0000
0000
0000
,
1001
0000
0000
0000
,
1000
0000
0000
0000
,
0100
0000
0000
0000
,
1000
0000
0000
0000
,
0001
0000
0001
0000
,
0001
0000
0000
0000
,
0100
0000
0000
0000
,
0010
0000
0000
0000
,
2002
0000
0000
0000
,
0000
0000
0000
0000
,
3003
0000
0000
0000
;

//--------------- dance-single - forcednature ----------------
#NOTEDATA:;
#STEPSTYPE:dance-single;
#DESCRIPTION:forcednature;
#DIFFICULTY:Medium;
#METER:9;
#RADARVALUES:0,0,0,0,0;
#CREDIT:forcednature;
#NOTES:
0000
0000
0000
0000
,
0000
0000
0000
0000
,
0000
0000
0000
0000
,
0000
0000
0000
0000
,
0000
0000
0000
0000
,
1000
0000
1100
0000
1000
0001
0010
0000
,
0001
0000
0101
0000
0001
1000
0010
0000
,
0100
0000
0110
0000
0100
0001
0010
0000
,
0100
0000
0110
0000
0100
1000
0010
0000
,
1000
0000
1100
0000
1000
0001
0010
0000
,
0001
0000
0101
0000
0001
1000
0010
0000
,
0110
0000
0000
0110
0000
0000
0110
0000
0000
0000
0001
0000
1000
0000
0000
0000
,
0100
0000
0110
0000
0010
0010
0001
0000
,
0000
0000
1000
0000
0010
0000
0010
0000
2000
0000
0000
0000
3002
0000
0000
0003
,
0000
0000
0001
0000
0010
0000
0010
0000
0002
0000
0000
0000
2003
0000
0000
3000
,
0000
0010
0100
0010
0000
1000
0001
2000
,
0000
0000
3100
0000
0010
0000
0000
0000
0110
0000
0000
0000
2002
0000
0000
3003
,
0000
0000
1000
0000
0100
0000
0100
0000
2000
0000
0000
0000
3002
0000
0000
0003
,
0000
0000
0001
0000
0100
0000
0100
0000
0002
0000
0000
0000
2003
0000
0000
3000
,
0000
0100
0010
0100
0000
1000
0001
0000
,
0100
0000
0010
0000
0100
0000
0000
0000
0110
0000
0000
0000
2002
0000
0000
3003
,
0000
0000
1000
0000
0100
0000
0000
0000
1000
0000
0000
1000
0000
0000
1000
0000
,
0000
0000
0001
0000
0100
0000
0000
0000
0001
0000
0000
0001
0000
0000
0001
0000
,
0000
0000
1000
0000
0001
0000
0000
0000
0010
0000
0000
0010
0000
0000
0010
0000
,
0000
0000
0220
0000
0000
0330
0000
0000
,
0001
0100
1000
0000
0100
0000
0101
0000
,
1000
0100
0001
0000
0100
0000
1100
0000
,
0001
0010
1000
0000
0010
0000
0011
0000
,
1000
0010
0001
0000
0010
0000
1010
0000
,
1000
0100
0001
0000
0100
0000
1010
0000
,
0001
0100
1000
0000
0100
0000
0011
0000
,
1001
0000
0000
1001
0000
0000
1001
0000
0000
0000
1000
0000
0100
0000
0000
0000
,
0110
0000
0010
0000
0001
1000
0010
0000
,
0200
0001
0001
0001
,
0010
0010
0001
0300
,
0020
1000
1000
1000
,
0100
0100
1000
0030
,
2000
0100
0001
3000
,
0002
0100
1000
0003
,
2000
0010
0001
3000
,
0002
0010
1000
0003
,
0000
1000
0100
0000
1000
0000
0010
0000
,
0000
0000
0100
0000
0000
0100
0000
0000
0001
0000
0000
0000
1000
0000
0000
0000
,
0000
0000
0000
0000
0001
0000
0000
0000
0010
0000
0000
0010
0000
0000
0100
0000
,
0000
1000
0001
0100
,
0110
0000
0000
0000
0010
0000
0000
1000
0000
0000
1001
0000
0000
1001
0000
0000
,
0000
0000
0001
0000
0000
0010
0000
0000
0000
0000
0110
0000
0000
0110
0000
0000
,
0000
0100
1000
0001
0000
0100
0001
1000
,
0000
0010
0010
0000
0100
0000
0110
0000
,
0000
0000
0001
0000
0100
0000
0000
0000
0001
0000
0000
0001
0000
0000
0001
0000
,
0000
0000
1000
0000
0100
0000
0000
0000
1000
0000
0000
1000
0000
0000
1000
0000
,
0000
0000
0010
0000
0100
0000
0000
0000
0010
0000
0000
0010
0000
0000
0010
0000
,
0000
0000
1000
0000
0001
0000
0000
0000
1000
0000
0000
1000
0000
0000
1000
0000
,
0000
0000
0220
0000
0000
0330
0000
0000
,
0001
0100
1000
0000
0100
0000
0011
0000
,
1000
0100
0001
0000
0100
0000
1010
0000
,
0001
0010
1000
0000
0010
0000
0101
0000
,
1000
0010
0001
0000
0010
0000
1100
0000
,
1000
0100
0001
0000
0001
0100
1000
0000
,
1000
0010
0001
0000
0010
0000
1001
0000
,
0110
0000
0000
0110
0000
0000
0110
0000
0000
0000
0000
0000
0001
0000
0000
0000
,
0100
0010
0100
0000
0001
1000
0010
0000
,
0110
0100
0001
0100
,
0000
0010
1000
0010
,
0000
0100
0001
0100
,
0000
0010
1000
0010
,
0100
0100
0001
0000
,
1000
1000
0010
0000
,
1001
0000
1000
0100
,
0010
0220
0330
0100
,
2002
0000
0000
0000
,
3003
0000
0000
0000
;

//--------------- dance-single - forcednature ----------------
#NOTEDATA:;
#STEPSTYPE:dance-single;
#DESCRIPTION:forcednature;
#DIFFICULTY:Hard;
#METER:14;
#RADARVALUES:0,0,0,0,0;
#CREDIT:forcednature;
#NOTES:
0000
0000
0000
0000
,
0000
0000
0000
0000
,
0000
0000
0000
0000
,
0000
0000
0000
0000
,
0000
0000
0000
0000
,
1000
0000
0100
0010
0100
0000
2000
0000
3001
0000
0010
0000
0001
1000
0000
0000
,
0001
0000
0100
0010
0100
0000
0002
0000
1003
0000
0010
0000
1000
0001
0000
0000
,
1000
0000
0100
0010
0100
0000
2000
0000
3001
0000
0010
0000
0001
1000
0000
0000
,
0001
0000
0100
0001
1000
0000
0020
0000
0130
0000
0001
0000
1000
0000
1000
0000
,
0001
0000
0010
0100
0010
0000
0002
0000
1003
0000
0010
0000
1000
0001
0000
0000
,
1000
0000
0100
0010
0100
0000
2000
0000
3001
0000
0010
0000
0001
1000
0000
0000
,
1010
0000
0000
0110
0000
0000
0102
0000
0000
0000
1003
0000
0001
1000
0000
0000
,
0001
0000
0010
0001
0010
0000
0100
0000
1000
0100
0000
1000
0010
0000
0010
0000
,
0000
0000
0100
0000
0001
0100
0001
0000
1000
0000
0010
0000
0110
0000
0000
0000
,
1000
0000
0100
0000
1000
0100
1000
0000
0001
0000
0010
0000
0110
0000
0000
0000
,
0100
0000
1000
0000
0001
0100
0000
0001
1000
0000
0010
0000
1000
0100
0000
1000
,
0001
0100
0010
1000
1001
0000
0110
0000
,
1000
0000
0100
0000
0010
0100
0010
0000
0001
0000
1000
0000
1100
0000
0000
0000
,
0001
0000
0100
0000
0010
0100
0010
0000
1000
0000
0001
0000
0101
0000
0000
0000
,
1000
0000
0100
0000
0010
0100
0000
0010
0001
0000
0100
0000
0010
0100
0000
0010
,
1000
0000
0001
0000
0020
0000
0000
0000
0031
1000
0000
1000
0001
0000
0100
0001
,
0000
0000
1000
0000
1000
0000
0100
1000
0000
0100
1000
0000
0001
0000
0010
0000
,
0000
0000
0001
0000
0001
0000
0100
0001
0000
0100
0001
0000
1000
0000
0010
0000
,
0000
0000
0100
0000
0100
0000
0001
1000
0000
0001
1000
0000
0100
0000
0010
0000
,
0000
0000
0100
0000
2002
0000
0000
0000
3003
0000
1000
0000
0000
0010
0000
0000
,
1000
0100
0000
0010
0100
0000
0010
0001
1000
0000
0020
0000
0000
0130
0000
0000
,
0001
0010
0000
0100
0010
0000
0100
1000
0001
0000
0200
0000
0000
0310
0000
0000
,
1000
0001
0000
0010
0001
0000
1000
0100
1000
0000
0002
0000
0000
0203
0000
0000
,
2300
0000
0000
3200
0000
0000
0301
0000
0000
0000
0001
0000
0010
0001
0010
0000
,
0100
0010
0000
0100
1000
0000
0001
0010
0001
0000
2000
0000
0000
3010
0000
0000
,
0100
0010
0000
0100
0001
0000
1000
0010
1000
0000
0002
0000
0000
0013
0000
0000
,
1100
0000
0000
0011
0000
0000
1002
0000
0000
0000
0103
0000
0010
0100
0000
0000
,
0010
1000
0000
0001
0100
0000
0001
0000
1000
0100
0000
0010
0100
0000
0010
0001
,
1000
0000
1000
0000
0010
1000
0000
0010
0000
1000
0001
0000
0100
0000
0000
0000
,
0001
0000
0001
0000
0010
0001
0000
1000
0000
0100
1000
0000
0010
0000
0100
0000
,
0010
0000
0010
0000
1000
0001
0000
0100
0000
0001
0010
0000
0001
0000
0000
0000
,
0100
0000
0100
0000
0010
1000
0000
0100
0000
1000
0001
0000
0010
0000
0010
0000
,
0100
0000
1000
0000
0100
0010
0000
0010
0000
0000
0001
0000
0100
0000
0001
0000
,
1000
0000
0100
0000
1000
0010
0000
0010
0000
0000
0100
0000
0001
0000
0010
0000
,
0001
0000
0100
0000
0010
1000
0000
1000
0000
0000
0001
0000
0010
0000
0100
0000
,
1000
0000
0001
0000
0100
0010
0000
0000
1000
0001
0000
0001
1000
0000
0100
0000
,
0120
0031
2000
3020
,
0030
0000
0110
0000
0000
0101
0000
0000
0021
0000
0000
0000
0130
0000
0000
0000
,
0010
0000
0000
0000
0001
0000
0100
0000
1000
0000
0000
0100
0000
0000
0001
0000
,
0000
1000
0010
1000
0001
0000
0101
0000
,
1000
0000
0100
0000
1000
0001
0000
0010
0000
0000
0110
0000
0000
1100
0000
0000
,
0001
0000
0100
0000
0001
1000
0000
0010
0000
0000
0110
0000
0000
0101
0000
0000
,
1000
0000
0100
0000
1000
0001
0000
0100
0000
0000
0110
0000
0000
1001
0000
0000
,
0001
0000
0100
0000
0001
1000
0000
0000
0010
0100
0010
0000
0100
0001
1000
0000
,
0000
0000
0010
0000
0010
0000
0000
0100
0000
0010
0000
0000
0100
0000
0100
0000
,
0000
0000
0001
0000
0001
0000
0000
1000
0000
0001
0000
0000
1000
0000
1000
0000
,
0000
0000
0100
0000
0100
0000
0000
0010
0000
0100
0000
0000
0010
0000
0010
0000
,
0000
0000
0001
0000
0001
0000
0000
1000
0000
0001
0000
0000
1000
0000
1000
0000
,
0000
0000
0010
0000
0220
0000
0000
0000
0330
0000
0001
0000
1000
0001
1000
0000
,
0010
0100
0000
0001
0100
0000
0010
1000
0010
0000
0100
0000
0001
1000
0100
0000
,
0010
0100
0000
1000
0100
0000
0010
0001
0010
0000
0100
0000
1000
0001
0100
0000
,
0010
1000
0000
0001
1000
0000
0010
0100
0010
0000
1000
0000
0100
0010
0100
0000
,
0010
0001
0000
1000
0001
0000
0010
0100
0010
0000
0001
0000
0100
0010
0100
0010
,
2000
0000
0000
0000
3100
0000
1000
0100
1000
0000
0100
0010
0100
0000
0010
0001
,
1000
0000
0010
0100
0000
0001
0100
0000
0010
1000
0001
0000
0010
0100
0000
0000
,
0110
0000
0000
1100
0000
0000
0012
0000
0000
0000
0103
0000
0001
1000
0010
0000
,
0100
0000
0001
1000
0001
0000
0010
0000
0100
1000
0100
1000
0001
0000
0010
0001
,
1000
0000
0000
1000
0010
0000
1000
0000
0001
0000
0100
0000
0010
0000
1000
0000
,
0001
0000
0000
0001
0010
0000
0001
0000
1000
0000
0100
0000
0010
0000
0001
0000
,
0100
0000
0000
0100
0010
0000
1000
0000
0001
0000
0010
0000
0100
0000
1000
0000
,
0010
0000
0000
0010
0100
0000
0001
0000
1000
0000
0100
0000
0010
0000
0001
0000
,
0100
0000
0000
0100
0000
0000
0001
0000
0000
0000
0010
0000
0000
0010
0000
0000
,
0100
0000
0000
0100
0000
0000
1000
0000
0000
0000
0010
0000
0000
0010
0000
0000
,
0110
0000
0000
0000
0001
0000
1000
0000
0010
0000
0000
0010
0000
0000
0100
0000
,
0001
0022
0033
0100
,
2002
0000
0000
0000
,
3003
0000
0000
0000
;

//--------------- dance-double - forcednature ----------------
#NOTEDATA:;
#STEPSTYPE:dance-double;
#DESCRIPTION:forcednature;
#DIFFICULTY:Easy;
#METER:2;
#RADARVALUES:0,0,0,0,0;
#CREDIT:forcednature;
#NOTES:
00000000
00000000
00000000
00000000
,
00000000
00000000
00000000
00000000
,
00000000
00000000
00000000
00000000
,
00000000
00000000
00000000
00000000
,
00000000
00000000
00000000
00000000
,
00001000
00000000
00000000
00000000
,
00000000
00000000
00000000
00000000
,
00010000
00000000
00000000
00000000
,
00001000
00000000
00000000
00000000
,
00010000
00000000
00000000
00000000
,
00000000
00000000
00000000
00000000
,
00000100
00000000
00000000
00000000
,
00000100
00000000
00000000
00000000
,
00001000
00000000
00000000
00000000
,
00000000
00000000
00000000
00000000
,
00000001
00000000
00000000
00000000
,
00000000
00000000
00000000
00000000
,
00000100
00000000
00000000
00000000
,
00000000
00000000
00000000
00000000
,
00000010
00000000
00000000
00000000
,
00000000
00000000
00000000
00000000
,
00001000
00000000
00000000
00000000
,
00001000
00000000
00000000
00000000
,
00000100
00000000
00000000
00000000
,
00010000
00000000
00000000
00000000
,
00011000
00000000
00000000
00000000
,
00001000
00000000
00000000
00000000
,
01000000
00000000
00000000
00000000
,
00010000
00000000
00000000
00000000
,
01000000
00000000
00000000
00000000
,
01000000
00000000
00000000
00000000
,
00100000
00000000
00000000
00000000
,
10000000
00000000
00000000
00000000
,
10010000
00000000
00000000
00000000
,
00000000
00000000
00000000
00000000
,
00010000
00000000
00000000
00000000
,
00010000
00000000
00000000
00000000
,
00100000
00000000
00000000
00000000
,
00001000
00000000
00000000
00000000
,
00001000
00000000
00000000
00000000
,
00010000
00000000
00000000
00000000
,
00011000
00000000
00000000
00000000
,
00000000
00000000
00000000
00000000
,
00000100
00000000
00000000
00000000
,
00000000
00000000
00000000
00000000
,
00001000
00000000
00000000
00000000
,
00001000
00000000
00000000
00000000
,
00000001
00000000
00000000
00000000
,
00000001
00000000
00000000
00000000
,
00000100
00000000
00000000
00000000
,
00000000
00000000
00000000
00000000
,
00000010
00000000
00000000
00000000
,
00000000
00000000
00000000
00000000
,
00000000
00001001
00000000
00000000
,
00001000
00000000
00000000
00000000
,
00000100
00000000
00000000
00000000
,
00001000
00000000
00000000
00000000
,
00000010
00000000
00000000
00000000
,
00010000
00000000
00000000
00000000
,
00010000
00000000
00000000
00000000
,
00001000
00000000
00001000
00000000
,
00001000
00000000
00000000
00000000
,
00010000
00000000
00000000
00000000
,
00001000
00000000
00000000
00000000
,
01000000
00000000
00000000
00000000
,
00010000
00000000
00000000
00000000
,
10000000
00000000
00000000
00000000
,
10000000
00000000
00000000
00000000
,
00010000
00000000
00000000
00000000
,
00100000
00000000
00000000
00000000
,
10010000
00000000
00000000
00000000
;

//--------------- dance-double - forcednature ----------------
#NOTEDATA:;
#STEPSTYPE:dance-double;
#DESCRIPTION:forcednature;
#DIFFICULTY:Medium;
#METER:8;
#RADARVALUES:0,0,0,0,0;
#CREDIT:forcednature;
#NOTES:
00000000
00000000
00000000
00000000
,
00000000
00000000
00000000
00000000
,
00000000
00000000
00000000
00000000
,
00000000
00000000
00000000
00000000
,
00000000
00000000
00000000
00000000
,
00001000
00010000
00000100
00000000
,
00001000
00000100
00010000
00000000
,
00001000
00001000
00100000
00100000
,
00010000
01000000
00010000
00000000
,
10000000
00100000
10000000
00000000
,
00010000
01000000
00010000
00000000
,
00100000
00000000
00000000
00100000
00000000
00000000
00200000
00000000
00000000
00000000
00300000
00000000
01000000
00000000
00000000
00000000
,
00010000
00001000
00010000
00001000
,
00000000
00000000
00010000
00000000
00001000
00000000
00000000
00000000
00020000
00000000
00000000
00000000
00030200
00000000
00000000
00000300
,
00000000
00000000
00001000
00000000
00000100
00000000
00000000
00000000
00000020
00000000
00000000
00000000
00000032
00000000
00000000
00000003
,
00000000
00000100
00000001
00000000
00000100
00000000
00001000
00000000
,
00010000
00000000
00000000
00000000
00001000
00000000
00000000
00000000
00010000
00000000
00000000
00000000
00022000
00000000
00000000
00033000
,
00000000
00000000
01000000
00000000
00010000
00000000
00000000
00000000
02000000
00000000
00000000
00000000
03200000
00000000
00000000
00300000
,
00000000
00000000
10000000
00000000
01000000
00000000
00000000
00000000
00200000
00000000
00000000
00000000
02300000
00000000
00000000
03000000
,
00000000
00100000
00010000
00000000
00100000
00000000
00001000
00000000
,
00010000
00000000
00000000
00000000
00000100
00000000
00000000
00000000
00001000
00000000
00000001
00000000
00002000
00000000
00000000
00003000
,
00000000
00000100
00000010
00000000
00000100
00000000
00001000
00000000
,
00000000
00000010
00000100
00000000
00000001
00000000
00000100
00000000
,
00000000
00001000
00010000
00000000
00001000
00000000
00100000
00000000
,
00000000
00000000
20020000
00000000
00000000
30030000
00000000
00000000
,
10000000
01000000
00010000
00000000
00001000
00000000
00010000
00000000
,
00001000
00000010
00000001
00000000
00000100
00000000
00000000
00000000
,
00000001
00000100
00001000
00000000
00010000
00000000
00001000
00000000
,
00010000
00100000
10000000
00000000
01000000
00000000
00000000
00000000
,
10000000
01000000
00010000
00000000
00001000
00000000
00010000
00000000
,
00001000
00000010
00000001
00000000
00000100
00000000
00000000
00000000
,
00000001
00000000
00000000
00001000
00000000
00000000
00001001
00000000
00000000
00000000
00000000
00000000
00001000
00000000
00000000
00000000
,
00000100
00000000
00010000
00000000
00001000
00010000
00001000
00000000
,
02000000
00000000
00010000
00000000
,
00100000
00100000
00100000
03000000
,
00200000
00000000
10000000
00000000
,
01000000
01000000
01000000
00300000
,
00020000
00000000
01030000
00000000
,
00002000
00000000
00013000
00000000
,
00000020
00000000
00001030
00000000
,
00000002
00000000
00000100
00000103
,
00000000
00000001
00000010
00000100
,
00000000
00000000
00001000
00000000
00000000
00001000
00000000
00000000
00000100
00000000
00000000
00000000
00010000
00000000
00000000
00000000
,
00000000
00001000
01000000
00010000
,
01000000
00100000
10000000
00010000
,
00000000
00000000
00000000
00000000
10000000
00000000
00000000
00000000
01000000
00000000
00100000
00000000
00000000
00100000
00000000
00000000
,
00000000
00000000
00000000
00000000
00010000
00000000
00000000
00000000
00100000
00000000
00001000
00000000
00000000
00001000
00000000
00000000
,
00000000
00000000
00010000
00000000
00000100
00001000
00000100
00000000
,
00010000
00001000
00011000
00011000
,
00000000
01000000
00010000
00000000
01000000
00000000
00100000
00000000
,
00000000
10000000
00100000
00000000
10000000
00000000
00010000
00000000
,
00000000
00100000
00010000
00000000
00100000
00000000
00001000
00000000
,
00000000
00010000
00000100
00000000
00001000
00000000
00000001
00000000
,
00000000
00000000
00002002
00000000
00000000
00003003
00000000
00000000
,
00000001
00000100
00001000
00000000
00010000
00001000
00010000
00000000
,
00001000
00010000
00100000
00000000
10000000
00000000
00010000
00000000
,
10000000
01000000
00010000
00000000
00001000
00010000
00001000
00000000
,
00010000
00001000
00000010
00000000
00000001
00000000
00001000
00000000
,
00000001
00000100
00001000
00000000
00010000
00001000
00010000
00000000
,
00001000
00010000
00100000
00000000
10000000
00000000
00010000
00000000
,
10010000
00000000
00000000
10010000
00000000
00000000
10010000
00000000
00000000
00000000
00000000
00000000
10000000
00000000
00000000
00000000
,
01000000
00000000
00100000
00000000
01000000
00100000
00010000
00000000
,
00000000
00100000
00001000
00010000
,
00000000
00000100
00010000
00001000
,
00000000
01000000
00001000
00010000
,
00000000
00000010
00010000
00001000
,
00010000
00000000
00010000
00000100
,
00001000
00000000
00001000
00000001
,
00000000
00000100
00000001
00001000
,
00000010
00000220
00000330
00000100
,
00002002
00000000
00000000
00000000
,
00003003
00000000
00000000
00000000
;

//--------------- dance-double - forcednature ----------------
#NOTEDATA:;
#STEPSTYPE:dance-double;
#DESCRIPTION:forcednature;
#DIFFICULTY:Hard;
#METER:14;
#RADARVALUES:0,0,0,0,0;
#CREDIT:forcednature;
#NOTES:
00000000
00000000
00000000
00000000
,
00000000
00000000
00000000
00000000
,
00000000
00000000
00000000
00000000
,
00000000
00000000
00000000
00000000
,
00000000
00000000
00000000
00000000
,
00001000
00000000
00010000
00001000
00010000
00000000
00000200
00000000
00001300
00000000
00000001
00000000
00000011
00000000
00000000
00000000
,
00000010
00000000
00000100
00001000
00000100
00000000
00020000
00000000
00031000
00000000
01000000
00000000
01010000
00000000
00000000
00000000
,
00010000
00000000
10000000
00100000
10000000
00000000
00020000
00000000
00130000
00000000
01000000
00000000
11000000
00000000
00000000
00000000
,
00010000
00000000
00100000
00010000
00100000
00000000
00002000
00000000
00013000
00000000
00000010
00000000
00001000
00000000
00001000
00000000
,
00000001
00000000
00000010
00000100
00000010
00000000
00000200
00000000
00010300
00000000
00001000
00000000
00011000
00000000
00000000
00000000
,
01000000
00000000
00010000
01000000
00010000
00000000
20000000
00000000
30100000
00000000
01000000
00000000
10010000
00000000
00000000
00000000
,
11000000
00000000
00000000
01100000
00000000
00000000
00102000
00000000
00000000
00000000
00013000
00000000
00011000
00000000
00000000
00000000
,
00000100
00000000
00001000
00000100
00001000
00000000
00000001
00000000
00000100
00000010
00000000
00000100
00000010
00000000
00000010
00000000
,
00001000
00000000
00000100
00000000
00000001
00000000
00000100
00001000
00000100
00000000
00010000
00000000
00011000
00000000
00000000
00000000
,
01000000
00000000
00010000
00000000
00100000
00010000
00000000
00100000
01000000
00000000
10000000
00000000
10100000
00000000
00000000
00000000
,
00100000
00000000
01000000
00000000
10000000
00000000
01000000
00010000
01000000
00000000
00010000
00000000
00100000
00000000
00001000
00000000
,
00010000
00000000
00000100
00000000
00001000
00000100
00000010
00000000
00000001
00000000
00001000
00000000
00001001
00000000
00000000
00000000
,
00001000
00000000
00000010
00000000
00000100
00000000
00000001
00001000
00000010
00000000
00010000
00000000
00011000
00000000
00000000
00000000
,
00001000
00000000
00100000
00000000
00010000
01000000
00000000
00100000
01000000
00000000
00010000
00000000
10100000
00000000
00000000
00000000
,
10000000
00000000
01000000
00000000
00010000
01000000
00000000
00010000
00001000
00000000
00100000
00000000
00001000
00000000
00010000
00000000
,
00011000
00000000
00001000
00000000
00000020
00000000
00000000
00000000
00000031
00001000
00000000
00001000
00000001
00000000
00000001
00001000
,
00000000
00000000
00000010
00000000
00000100
00000000
00001000
00000000
00010000
00001000
00010000
00000000
00100000
00000000
10000000
00000000
,
00000000
00000000
01000000
00000000
00010000
00000000
00001000
00000000
00010000
00001000
00010000
00000000
00001000
00000000
00000010
00000000
,
00000000
00000000
00000001
00000000
00000100
00000000
00001000
00000000
00010000
00001000
00010000
00000000
00100000
00000000
10000000
00000000
,
00000000
01000000
20020000
00000000
00000000
30030000
00000000
00000000
,
10000000
01000000
00000000
00100000
01000000
00000000
00100000
00010000
00000000
00100000
00001000
00000000
00010000
00001000
00010000
00000000
,
00000010
00001000
00000000
00000010
00000100
00000000
00000001
00000100
00000000
00000010
00001000
00000000
00000001
00001000
00000001
00000000
,
00001000
00000100
00000000
00010000
00001000
00000000
00100000
00010000
00000000
10000000
00100000
00000000
10000000
01000000
10000000
00000000
,
01100000
00000000
00000000
00101000
00000000
00000000
00011000
00000000
00000000
00001000
00010000
00000000
00000100
00001000
00000100
00000000
,
00000010
00000001
00000000
00000100
00000001
00000000
00000010
00000100
00000000
00001000
00000100
00000000
00010000
00001000
00010000
00000000
,
00001000
01000000
00000000
00010000
01000000
00000000
00100000
10000000
00000000
00010000
00100000
00000000
01000000
00100000
01000000
00000000
,
11000000
00000000
00000000
01100000
00000000
00000000
00102000
00000000
00000000
00000000
00013000
00000000
00001000
00010000
00001000
00000000
,
00010000
00000100
00000000
00001000
00000100
00000000
00000010
00000000
00000001
00000100
00000000
00000010
00000100
00000000
00001000
00000000
,
00010000
00000000
00010000
00000000
00001000
00010000
00000000
00001000
00000000
00010000
00001000
00000000
01000000
00000000
00010000
00000000
,
00100000
00000000
00100000
00000000
01000000
00100000
00000000
01000000
00000000
00100000
01000000
00000000
10000000
00000000
00010000
00000000
,
00100000
00000000
00100000
00000000
00001000
00100000
00000000
00001000
00000000
00100000
00001000
00000000
00010000
00000000
00000100
00000000
,
00001000
00000000
00001000
00000000
00000010
00001000
00000000
00000010
00000000
00001000
00000010
00000000
00000100
00000000
00000100
00000000
,
00000001
00000000
00000001
00000000
00000010
00000001
00000000
00000010
00000000
00000001
00000010
00000000
00000100
00000000
00010000
00000000
,
00001000
00000000
00001000
00000000
00100000
00010000
00000000
00100000
00000000
00001000
00010000
00000000
00001000
00000000
01000000
00000000
,
00010000
00000000
00010000
00000000
10000000
00100000
00000000
10000000
00000000
00010000
00100000
00000000
01000000
00000000
00100000
00000000
,
00001000
00000000
00010000
00000000
00000100
00001000
00000000
00000000
00000001
00001000
00000000
00001000
00000001
00000000
00000100
00000000
,
00000120
00001030
00000002
00000023
,
00000030
00000000
00000110
00000000
00000000
00010100
00000000
00000000
00012000
00000000
00000000
00000000
00103000
00000000
00000000
00000000
,
00001000
00000000
00010000
00000000
01000000
00000000
10000000
00000000
01000000
00000000
00000000
00010000
00000000
00000000
00001000
00000000
,
00000000
00100000
00010000
00100000
00001000
00000000
00011000
00000000
,
00010000
00000000
00000100
00000000
00001000
00000100
00000000
00000010
00000000
00000100
00001000
00000000
00000001
00000010
00000000
00000000
,
00000100
00000000
00001000
00000000
00000100
00010000
00000000
00001000
00000000
00010000
00001000
00000000
01000000
00010000
00000000
00000000
,
10000000
00000000
00100000
00000000
10000000
00010000
00000000
01000000
00000000
00010000
00100000
00000000
01000000
00100000
00000000
00000000
,
01000000
00000000
10000000
00000000
01000000
00010000
00000000
00000000
00001000
00010000
00001000
00000000
00010000
00001000
01000000
00000000
,
00020000
01000000
10000000
00100000
,
00031000
00000100
00000001
00000000
00000100
00001000
00000010
00000000
,
00002000
00000100
00000001
00000010
,
00013000
01000000
10000000
00000000
01000000
00010000
00100000
00000000
,
01000000
00000000
00000000
00000000
20020000
00000000
00000000
00000000
30030000
00000000
00010000
00000000
10000000
00010000
10000000
00000000
,
01000000
00100000
00000000
00010000
00100000
00000000
00001000
00010000
00001000
00000000
00010000
00000000
00000100
00001000
00000100
00000000
,
00000010
00000001
00000000
00001000
00000001
00000000
00001000
00000010
00001000
00000000
00000001
00000000
00000100
00000010
00000100
00000000
,
00000010
00001000
00000000
00000010
00010000
00000000
00001000
00010000
00001000
00000000
01000000
00000000
00010000
10000000
00010000
00000000
,
00100000
01000000
00000000
10000000
01000000
00000000
00100000
00010000
00100000
00000000
00001000
00000000
00010000
00001000
00010000
00001000
,
00020000
00000000
00000000
00000000
00030100
00000000
00001000
00000100
00001000
00000000
00000100
00000010
00000100
00000000
00000010
00000001
,
00001000
00000000
00000100
00001000
00000001
00000000
00000100
00000000
00001000
00000000
00010000
00000000
00001000
00010000
00001000
00000000
,
00011000
00000000
00000000
01010000
00000000
00000000
20100000
00000000
00000000
00000000
31000000
00000000
10000000
00010000
00100000
00000000
,
01000000
00000000
00010000
00001000
00010000
00000000
00001000
00000000
00010000
00000100
00001000
00000100
00000010
00000000
00000100
00001000
,
00000001
00000000
00000000
00000001
00000100
00000000
00001000
00000000
00010000
00000000
01000000
00000000
10000000
00000000
00100000
00000000
,
10000000
00000000
00000000
10000000
01000000
00000000
00010000
00000000
00001000
00000000
00000100
00000000
00000001
00000000
00000010
00000000
,
00000001
00000000
00000000
00000001
00000100
00000000
00001000
00000000
00010000
00000000
01000000
00000000
10000000
00000000
00100000
00000000
,
10000000
00000000
00000000
10000000
01000000
00000000
00010000
00000000
00001000
00000000
00000100
00000000
00000001
00000000
00000010
00000000
,
00000100
00000000
00000000
00000100
00000000
00000000
00010000
00000000
00000000
00000000
00001000
00000000
00000000
00001000
00000000
00000000
,
00100000
00000000
00000000
00100000
00000000
00000000
00010000
00000000
00000000
00000000
01000000
00000000
00000000
00001000
00000000
00000000
,
00011000
00000000
00000000
00000000
00010000
00000000
00000010
00000000
00001000
00000000
00000000
00001000
00000000
00000000
00000100
00000000
,
00000010
00000220
00000330
00000100
,
00002002
00000000
00000000
00000000
,
00003003
00000000
00000000
00000000
;
