#VERSION:0.83;
#TITLE:LEAD Gravity(M);
#SUBTITLE:;
#ARTIST:Des-ROW;
#TITLETRANSLIT:;
#SUBTITLETRANSLIT:;
#ARTISTTRANSLIT:;
#GENRE:;
#CREDIT:;
#MUSIC:LEAD Gravity(M).ogg;
#BANNER:LEAD Gravity(M).png;
#BACKGROUND:LEAD Gravity(M)-bg.png;
#CDTITLE:./CDTitles/pnm Usaneko.png;
#SAMPLESTART:77.170;
#SAMPLELENGTH:15.000;
#SELECTABLE:YES;
#OFFSET:0.689;
#BPMS:0.000=188.000;
#STOPS:;
#TIMESIGNATURES:0.000=4=4;
#BGCHANGES:0.000=../BGAs/14te.mp4=1.000=0=0=0=StretchNoLoop====,
99999.000=-nosongbg-=1.000=0=0=0=StretchNoLoop====
;
#FGCHANGES:;

//--------------- dance-single - forcednature ----------------
#NOTEDATA:;
#STEPSTYPE:dance-single;
#DESCRIPTION:forcednature;
#DIFFICULTY:Beginner;
#METER:3;
#RADARVALUES:0,0,0,0,0;
#CREDIT:forcednature;
#NOTES:
0000
0000
0000
0000
,
0000
0000
0000
0000
,
0000
0000
0000
0000
,
0000
0000
0000
0000
,
0000
0000
0000
0000
,
0000
0000
0000
0000
,
0000
0000
0000
0000
,
0000
0000
0000
0000
,
0000
0000
0000
0000
,
0001
0000
0000
0000
,
0000
0000
0000
0000
,
0100
0000
0000
0000
,
0000
0000
0000
0000
,
0010
0000
0000
0000
,
0000
0000
0000
0000
,
1000
0000
0000
0000
,
0000
0000
0000
0000
,
0001
0000
0000
0000
,
0010
0000
0000
0000
,
0001
0000
0000
0000
,
0000
0000
0000
0000
,
1000
0000
0000
0000
,
0010
0000
0000
0000
,
1000
0000
0000
0000
,
0001
0000
0000
0000
,
1000
0000
0000
0000
,
0100
0000
0000
0000
,
1000
0000
0000
0000
,
0000
0000
0000
0000
,
0001
0000
0000
0000
,
0100
0000
0000
0000
,
0001
0000
0000
0000
,
1000
0000
0000
0000
,
0100
0000
0000
0000
,
0100
0000
0000
0000
,
0010
0000
0000
0000
,
0010
0000
0000
0000
,
0100
0000
0000
0000
,
0010
0000
0000
0000
,
0100
0000
0000
0000
,
0010
0000
0000
0000
,
0001
0000
0000
0000
,
0100
0000
0000
0000
,
0010
0000
0000
0000
,
1000
0000
0000
0000
,
2002
0000
0000
0000
,
0000
0000
0000
0000
,
0000
0000
0000
0000
,
0000
0000
0000
0000
,
0000
0000
0000
0000
,
0000
0000
0000
0000
,
0000
0000
0000
0000
,
3003
0000
0000
0000
,
0001
0000
0000
0000
,
0001
0000
0000
0000
,
1000
0000
0000
0000
,
1000
0000
0000
0000
,
0100
0000
0000
0000
,
0010
0000
0000
0000
,
0001
0000
0000
0000
,
1000
0000
0000
0000
,
0010
0000
0000
0000
,
0100
0000
0000
0000
,
0010
0000
0000
0000
,
1000
0000
0000
0000
,
0001
0000
0000
0000
,
0010
0000
0000
0000
,
0100
0000
0000
0000
,
0010
0000
0000
0000
,
0001
0000
0000
0000
,
1000
0000
0000
0000
,
0100
0000
0000
0000
,
1000
0000
0000
0000
,
0001
0000
0000
0000
,
0100
0000
0000
0000
,
0010
0000
0000
0000
,
1000
0000
0000
0000
,
0001
0000
0000
0000
,
0010
0000
0000
0000
,
0100
0000
0000
0000
,
1000
0000
0000
0000
,
0001
0000
0000
0000
,
0100
0000
0000
0000
,
0010
0000
0000
0000
,
1000
0000
0000
0000
,
1001
0000
0000
0000
;

//--------------- dance-single - forcednature ----------------
#NOTEDATA:;
#STEPSTYPE:dance-single;
#DESCRIPTION:forcednature;
#DIFFICULTY:Easy;
#METER:7;
#RADARVALUES:0,0,0,0,0;
#CREDIT:forcednature;
#NOTES:
0000
0000
0000
0000
,
0000
0000
0000
0000
,
0000
0000
0000
0000
,
0000
0000
0000
0000
,
0000
0000
0000
0000
,
0000
0000
0000
0000
,
0000
0000
0000
0000
,
0000
0000
0000
0000
,
0000
0000
0000
0000
,
1001
0000
0000
0000
,
0001
0000
0000
0000
,
0110
0000
0000
0000
,
1000
0000
0000
0000
,
0100
0000
0100
0000
,
0010
0000
0010
0000
,
0001
1000
0001
1000
,
0010
0100
0010
0000
,
1000
0000
0000
0000
0000
1000
0000
0000
,
1000
0000
0000
0000
,
0001
0000
0000
0000
0000
0001
0000
0000
,
0001
0000
0000
0000
,
0100
0000
0000
0000
0000
0100
0000
0000
,
0010
0000
0000
0000
0000
0010
0000
0000
,
1000
0000
0000
0000
0000
1000
0000
0000
,
0001
0000
0010
0000
,
0100
0000
0000
0000
0000
0100
0000
0000
,
0100
0000
0000
0000
,
1000
0000
0000
0000
0000
1000
0000
0000
,
1000
0000
0000
0000
,
0010
0000
0000
0000
0000
0010
0000
0000
,
0100
0000
0000
0000
0000
0100
0000
0000
,
0001
0000
0000
0000
0000
0001
0000
0000
,
0010
0000
0100
0000
,
1000
1000
1000
0000
,
0100
1000
0000
0000
,
0001
0001
0001
0000
,
0100
0001
0000
0000
,
1000
0010
1000
0000
,
0001
0010
0001
0000
,
1000
0100
1000
0000
,
0001
0100
0001
0000
,
0010
0000
0100
1000
,
0001
0000
0100
0001
,
1000
0000
0001
0010
,
0100
1000
0010
0000
,
2000
0000
0000
0000
,
0000
0000
0000
3000
,
0200
0000
0000
0000
,
0000
0000
0000
0300
,
0020
0000
0000
0030
,
0002
0000
0000
0003
,
1001
0000
1000
0010
,
0100
0001
1000
0000
,
0001
0010
0001
0010
,
0001
0010
0001
0000
,
1000
0010
1000
0010
,
1000
0010
1000
0000
,
0001
0100
0001
0100
,
0001
0100
0001
0000
,
1000
0100
1000
0100
,
1000
0100
1000
0000
,
0010
0100
0010
0100
,
0001
1000
0001
1000
,
0100
0010
0100
0010
,
0001
1000
0001
1000
,
0010
0100
0001
1000
,
0100
0010
0001
1000
,
0010
0100
0001
1000
,
0100
0010
0001
1000
,
0010
0100
0001
0100
,
0010
1000
0001
1000
,
0100
0010
0001
0010
,
0100
1000
0001
1000
,
0010
0010
0100
0100
,
0010
0100
0010
0000
,
1000
0100
0010
0001
,
0100
0010
1000
0001
,
0010
0100
1000
0001
,
0100
0010
1000
0001
,
0010
0100
0010
0001
,
1000
0010
0100
0010
,
1000
0100
0010
0001
,
0100
0010
1000
0001
,
0010
0100
1000
0001
,
0100
0010
0100
0010
,
1001
0000
0000
0000
;

//--------------- dance-single - forcednature ----------------
#NOTEDATA:;
#STEPSTYPE:dance-single;
#DESCRIPTION:forcednature;
#DIFFICULTY:Medium;
#METER:12;
#RADARVALUES:0,0,0,0,0;
#CREDIT:forcednature;
#NOTES:
0000
0000
0000
0000
,
0000
0000
0000
0000
,
0000
0000
0000
0000
,
0000
0000
0000
0000
,
0000
0000
0000
0000
,
0000
0000
0000
0000
,
0000
0000
0000
0000
,
0000
0000
0000
0000
,
0000
0000
0000
0000
,
1001
0000
1000
0100
0000
0000
0000
0000
,
0020
0000
0000
0030
,
0001
0000
0001
0100
0000
0000
0000
0000
,
0020
0000
0000
0030
,
1000
0000
1000
0001
0000
0000
0000
0000
,
0100
0000
0000
0110
0000
0000
0000
0000
,
0010
1000
0010
1000
0001
0010
0100
0000
,
0010
0001
0010
0001
1000
0010
0100
0000
,
0001
0010
0100
0000
0000
0110
0000
0000
,
0010
0001
0100
0000
0000
0000
0000
0000
,
0010
1000
0100
0000
0000
0110
0000
0000
,
0100
1000
0001
0000
0000
0000
0000
0000
,
1000
0100
0010
0000
0000
0110
0000
0100
,
1000
0001
0100
0000
0000
0110
0000
0100
,
0001
0010
0100
0000
0000
0110
0000
0010
,
0001
0000
1001
0000
1000
0010
0100
0001
,
1000
0100
0010
0000
0000
0110
0000
0100
,
1000
0001
0100
0000
0000
0000
0000
0000
,
0001
0100
0010
0000
0000
0110
0000
0100
,
0001
1000
0100
0000
0000
0000
0000
0000
,
0010
0001
0100
0000
0000
0110
0000
0010
,
1000
0001
0010
0000
0000
0110
0000
0100
,
1000
0010
0100
0000
0000
0110
0000
0010
,
1000
0000
0001
0010
0000
0100
1000
0100
,
0010
0000
0000
0010
0000
0000
0001
0000
0000
0000
0100
0000
0000
0000
0001
0000
,
0010
0000
0000
0010
0000
0000
0001
0000
0000
0000
0000
0000
1000
0000
0000
0000
,
0010
0000
0000
0010
0000
0000
1000
0000
0000
0000
0100
0000
0000
0000
1000
0000
,
0010
0000
0000
0010
0000
0000
1000
0000
0000
0000
0000
0000
1001
0000
0000
0000
,
0001
0000
0000
0100
0000
0000
1000
0000
0000
0000
0100
0000
0000
0000
0001
0000
,
1000
0000
0000
0100
0000
0000
0001
0000
0000
0000
0100
0000
0000
0000
1000
0000
,
0001
0000
0000
0010
0000
0000
1000
0000
0000
0000
0010
0000
0000
0000
0001
0000
,
1000
0000
0000
0010
0000
0000
0001
0000
0000
0000
0010
0000
0000
0000
1000
0000
,
0000
0100
1000
0100
0010
0001
0010
0100
,
0000
1000
0001
0100
0010
1000
0001
0010
,
0000
0100
1000
0100
0010
0001
0100
1000
,
0100
0010
1000
0001
0010
0100
0001
0000
,
2100
0000
0000
0000
,
0000
0000
0000
0000
,
3020
0000
0000
0000
,
0000
0000
0000
0000
,
0230
0000
0000
0000
,
0302
0000
0000
0003
,
1001
0000
0000
0000
0001
0100
0001
0100
,
0010
1000
0001
0000
1000
0100
0010
0000
,
0002
0100
1000
0100
,
1000
0100
1000
0103
,
2000
0100
0001
0100
,
0001
0100
0001
3100
,
0002
0010
1000
0013
,
2000
0010
0001
3010
,
0001
0100
0001
0100
0010
1000
0010
1000
,
0001
0010
0100
1000
0100
0010
0001
0000
,
1001
0000
1000
0010
0100
0001
0010
0000
,
0100
1000
0000
0000
1000
0010
0000
0000
0010
0100
0000
0000
0100
0001
0000
0000
,
0001
0010
0000
0000
0010
0100
0000
0000
0100
1000
0000
0000
1000
0010
0000
0000
,
0010
0100
0000
0000
0100
0001
0000
0000
0001
0010
0000
0000
0010
0001
0000
0000
,
1001
0000
1000
0010
0100
0001
1000
0000
,
0100
1000
0000
0000
1000
0010
0000
0000
0010
0100
0000
0000
0100
0001
0000
0000
,
0001
0010
0000
0000
0010
0100
0000
0000
0100
1000
0000
0000
1000
0010
0000
0000
,
0110
0000
0100
0001
0010
0100
1000
0010
,
0100
0000
0001
0010
1000
0000
1000
0010
,
0001
0000
0001
0100
1000
0000
1000
0100
,
0001
0000
1000
0010
0100
0001
0100
0010
,
1000
0000
0001
0010
0100
1000
0100
0010
,
0001
0001
1000
1000
,
0010
0100
0010
0100
0020
0000
0000
0030
,
1000
0100
0010
0001
0100
0010
1000
0100
,
0010
0001
0100
0010
1000
0100
1000
0001
,
0010
0100
0001
0100
0010
0001
1000
0001
,
0100
0010
0001
0010
0100
0001
1000
0100
,
0010
0001
0100
1000
0100
0010
1000
0001
,
1000
0010
0100
1000
0100
0010
1000
0001
,
0010
0100
0001
0100
1000
0001
0010
1000
,
0010
0001
1000
0001
0100
1000
0001
0010
,
1000
0001
0100
0010
1000
0001
0010
0000
,
0100
0100
1000
1000
0001
0100
0010
1000
,
1001
0000
0000
0000
;

//--------------- dance-single - forcednature ----------------
#NOTEDATA:;
#STEPSTYPE:dance-single;
#DESCRIPTION:forcednature;
#DIFFICULTY:Hard;
#METER:16;
#RADARVALUES:0,0,0,0,0;
#CREDIT:forcednature;
#NOTES:
0000
0000
0000
0000
,
0000
0000
0000
0000
,
0000
0000
0000
0000
,
0000
0000
0000
0000
,
0000
0000
0000
0000
,
0000
0000
0000
0000
,
0000
0000
0000
0000
,
0000
0000
0000
0000
,
0000
0000
0000
0000
,
1001
0000
0001
0100
0000
0100
0000
0000
,
0020
0000
2030
3000
,
1001
0000
1000
2200
0000
0000
3300
0000
,
0200
0000
0000
0300
0020
0000
0000
0030
,
1001
0000
0001
0020
0000
0000
0030
0000
,
0100
0000
0000
1000
0000
0000
0000
0000
,
0010
0100
0010
0100
0001
0010
0100
1000
,
0001
0100
0001
0100
0010
0000
1000
0000
0100
0010
0100
0010
0100
0000
1000
0000
,
0001
0010
0110
0000
0000
0101
0000
0000
,
0001
0100
1000
0000
0000
0000
0000
0000
,
1000
0010
0110
0000
0000
1100
0000
0000
,
1000
0100
0001
0000
0010
0000
0000
0000
,
0100
1000
1010
0000
0000
0101
0000
0000
,
0001
0010
1000
0000
0000
0110
0000
0010
,
0001
0100
0110
0000
0000
1001
0000
0001
,
0100
0000
1000
0000
0100
0000
0000
0000
0001
0000
1000
0000
0100
0010
0100
0010
,
0001
1000
1010
0000
0010
0100
0000
0001
,
0010
1000
0010
0000
0000
0000
0000
0000
,
0001
1000
1100
0000
0100
0010
0000
1000
,
0010
0001
0010
0000
0000
0000
0000
0000
,
0001
0010
0110
0000
0000
1001
0000
1000
,
0010
0001
0010
0000
0000
1001
0000
0001
,
0100
1000
0100
0000
0000
1001
0000
1000
,
1100
0000
0010
0001
0000
0100
1000
0100
,
0001
0000
0000
0010
0001
0000
0011
0000
0000
0000
0011
0000
0000
0000
0100
0000
,
1000
0000
0000
0100
1000
0000
1100
0000
0000
0000
0000
0000
0000
0000
0000
0000
,
1000
0000
0000
0010
1000
0000
1010
0000
0000
0000
1010
0000
0000
0000
0100
0000
,
0001
0000
0000
0100
0001
0000
0101
0000
0000
0000
0000
0000
1000
0000
0000
0000
,
0101
0000
0000
0001
0100
0000
0101
0000
0000
0000
0011
0000
0000
0000
0100
0000
,
1100
0000
0000
1000
0100
0000
1100
0000
0000
0000
1010
0000
0000
0000
0100
0000
,
0101
0000
0000
0100
0001
0000
0101
0000
0000
0000
0011
0000
0000
0000
1000
0000
,
1100
0000
0000
0100
1000
0000
1100
0000
0000
0000
1010
0000
0000
0000
0100
0000
,
0001
0000
0010
0000
0100
0000
0010
0000
0001
0000
0100
0000
0010
0100
0010
0000
,
1000
0000
0100
0000
0010
0100
0010
0000
0100
0000
1000
0000
0010
0100
0010
0000
,
0100
0000
0001
1000
0001
0000
0010
0000
0100
0000
1000
0001
1000
0000
0010
0000
,
0100
0001
0100
0001
0100
0000
0010
1000
0010
1000
0010
0000
0100
0000
0001
1000
,
0200
0000
0000
0000
,
0000
0000
0000
0000
,
0320
0000
0000
0000
,
0000
0000
0000
0000
,
0032
0000
0000
0000
,
2003
0000
0000
3000
,
1001
0000
0000
0000
0001
0001
0100
0100
,
0010
1000
0010
1000
0001
0000
0010
0000
0100
1000
0001
0010
0100
0000
1000
0000
,
1002
0003
0002
0003
0002
0003
0002
0003
,
0002
0003
0002
0003
0002
0003
0002
0003
,
0200
0300
0200
0300
0200
0300
0200
0300
,
0200
0300
0200
0300
0200
0300
0200
0300
,
0020
0030
0020
0030
0020
0030
0020
0030
,
2000
3000
2000
3000
2000
3000
2000
3000
,
0100
0010
0100
0010
0001
0100
0010
1000
,
0001
0010
0001
0010
0001
0000
1000
0000
0010
0100
0010
0100
0001
0100
0001
0000
,
1000
0000
0100
0000
0010
0100
0010
0000
0001
0010
0001
0000
1000
0001
1000
0000
,
0010
1000
0010
0000
0100
0010
0100
0000
0001
0100
0001
0000
1000
0001
1000
0000
,
0100
1000
0100
0000
0010
0100
0010
0000
0100
1000
0100
0000
1000
0001
1000
0000
,
0001
0100
0001
0000
0100
0010
0100
0000
0001
0100
0001
0000
1000
0001
1000
0000
,
0010
0000
0100
0000
0001
0010
0001
0000
0010
0100
0010
0000
0100
1000
0100
0000
,
1000
0001
1000
0000
0001
0100
0001
0000
0100
0010
0100
0000
0010
1000
0010
0000
,
1000
0100
1000
0000
0010
1000
0010
0000
1000
0100
1000
0000
0001
1000
0001
0000
,
0100
0001
0100
0000
0001
0010
0001
0000
0100
0001
0100
0000
0001
1000
0001
0000
,
0010
0000
0100
0000
0010
0001
1000
0000
0010
0000
0100
0000
0010
1000
0001
0000
,
0100
0000
0010
0000
0100
0001
1000
0000
0100
0000
0010
0000
0100
1000
0001
0000
,
1000
0100
1000
0000
0100
0010
0100
0000
0010
0001
0010
0000
0100
0010
0100
0000
,
1000
0010
1000
0000
0010
0100
0010
0000
0100
0001
0100
0000
0010
0100
0010
0000
,
1000
0001
1000
0001
1000
0000
0000
0000
0010
0100
0010
0100
0010
0000
0000
0000
,
1000
0100
1000
0100
0010
0000
0000
0000
0001
0100
0001
0100
0010
1000
0001
0000
,
1000
0100
0010
0000
0100
1000
0001
0000
1000
0100
0010
0000
0100
0000
1000
0000
,
0001
0100
0010
0000
0100
0001
1000
0000
0001
0100
0010
0000
0100
0000
0001
0000
,
1000
0100
1000
0000
0100
0010
0100
0000
1000
0010
1000
0000
0010
0100
0010
0000
,
1000
0001
0010
0000
0001
1000
0010
0000
1000
0001
0100
0000
0001
1000
0100
0000
,
0010
0001
1000
0000
0010
1000
0001
0000
0100
0010
1000
0000
0010
0100
0001
0000
,
1000
0100
0010
0000
0001
0010
0100
0000
1000
0001
0100
0000
0010
0100
0001
0000
,
1000
0100
0010
0000
0100
1000
0001
0000
0100
0010
1000
0000
0001
0010
0100
0000
,
0010
0001
1000
0000
0010
0100
0001
0000
1000
0100
0010
0000
0100
1000
0001
0000
,
0100
0010
1000
0000
0010
0000
0100
0000
0001
0010
0100
0000
0010
0000
0001
0000
,
1000
0010
1000
0010
0100
0001
1000
0000
0001
0010
0001
0010
0100
1000
0001
0000
,
0110
0000
0000
0000
;

//--------------- dance-double - forcednature ----------------
#NOTEDATA:;
#STEPSTYPE:dance-double;
#DESCRIPTION:forcednature;
#DIFFICULTY:Easy;
#METER:7;
#RADARVALUES:0,0,0,0,0;
#CREDIT:forcednature;
#NOTES:
00000000
00000000
00000000
00000000
,
00000000
00000000
00000000
00000000
,
00000000
00000000
00000000
00000000
,
00000000
00000000
00000000
00000000
,
00000000
00000000
00000000
00000000
,
00000000
00000000
00000000
00000000
,
00000000
00000000
00000000
00000000
,
00000000
00000000
00000000
00000000
,
00000000
00000000
00000000
00000000
,
00011000
00000000
00000000
00000000
,
00010000
00000000
00000000
00000000
,
00100000
00000000
00000000
00000000
,
10000000
00000000
00000000
00000000
,
01000000
00000000
01000000
00000000
,
00010000
00000000
00010000
00000000
,
00001000
00000000
00001000
00000000
,
00000010
00000000
00000010
00000000
,
00000100
00000000
00000000
00000000
00000000
00000100
00000000
00000000
,
00000100
00000000
00000000
00000000
,
00001000
00000000
00000000
00000000
00000000
00001000
00000000
00000000
,
00001000
00000000
00000000
00000000
,
00000001
00000000
00000000
00000000
00000000
00000001
00000000
00000000
,
00000100
00000000
00000000
00000000
00000000
00000100
00000000
00000000
,
00000010
00000000
00000000
00000000
00000000
00000010
00000000
00000000
,
00010000
00000000
00001000
00000000
,
00100000
00000000
00000000
00000000
00000000
00100000
00000000
00000000
,
00100000
00000000
00000000
00000000
,
01000000
00000000
00000000
00000000
00000000
01000000
00000000
00000000
,
01000000
00000000
00000000
00000000
,
10000000
00000000
00000000
00000000
00000000
10000000
00000000
00000000
,
00100000
00000000
00000000
00000000
00000000
00100000
00000000
00000000
,
01000000
00000000
00000000
00000000
00000000
01000000
00000000
00000000
,
00001000
00000000
00010000
00000000
,
00000100
00000100
00000100
00000000
,
00001000
00000100
00000000
00000000
,
00010000
00010000
00010000
00000000
,
00001000
00010000
00000000
00000000
,
00001000
01000000
00001000
00000000
,
01000000
00010000
01000000
00000000
,
00010000
10000000
00010000
00000000
,
10000000
01000000
10000000
00000000
,
01000000
00000000
00100000
00001000
,
00010000
00000000
00000010
00000000
,
00001000
00000000
00000100
00010000
,
00001000
00000000
01000000
00000000
,
00020000
00000000
00000000
00000000
,
00000000
00000000
00000000
00030000
,
20000000
00000000
00000000
00000000
,
00000000
00000000
00000000
30000000
,
02000000
00000000
00000000
03000000
,
00200000
00000000
00000000
00300000
,
10010000
00000000
00010000
01000000
,
00001000
00010000
00000100
00000000
,
00001000
00000001
00001000
00000001
,
00001000
00000001
00001000
00000000
,
00000100
00010000
00000100
00010000
,
00000100
00010000
00000100
00000000
,
00010000
00001000
00010000
00000000
,
00001000
01000000
00001000
00000000
,
00100000
01000000
00100000
01000000
,
10000000
00010000
10000000
00000000
,
01000000
00100000
01000000
00100000
,
00010000
10000000
00010000
10000000
,
00100000
01000000
00100000
01000000
,
00001000
00010000
00001000
00010000
,
00000100
00001000
00000100
00001000
,
00000001
00000010
00000001
00000010
,
00000100
00010000
00000100
00010000
,
00001000
01000000
00001000
01000000
,
00010000
10000000
00010000
10000000
,
01000000
00100000
01000000
00100000
,
00001000
00010000
00001000
00010000
,
00000100
00000010
00000100
00000010
,
00000001
00000001
00001000
00001000
,
00000001
00001000
00000001
00000000
,
00000100
00000010
00001000
00000100
,
00010000
00001000
01000000
00010000
,
00100000
01000000
10000000
00100000
,
10000000
01000000
00100000
00001000
,
00010000
00000100
00001000
00000001
,
00000100
00000010
00010000
00001000
,
01000000
00010000
00100000
01000000
,
00010000
00001000
00100000
00010000
,
10000000
00100000
01000000
00001000
,
00010000
00000100
00000010
00000001
,
00001001
00000000
00000000
00000000
;

//--------------- dance-double - forcednature ----------------
#NOTEDATA:;
#STEPSTYPE:dance-double;
#DESCRIPTION:forcednature;
#DIFFICULTY:Medium;
#METER:13;
#RADARVALUES:0,0,0,0,0;
#CREDIT:forcednature;
#NOTES:
00000000
00000000
00000000
00000000
,
00000000
00000000
00000000
00000000
,
00000000
00000000
00000000
00000000
,
00000000
00000000
00000000
00000000
,
00000000
00000000
00000000
00000000
,
00000000
00000000
00000000
00000000
,
00000000
00000000
00000000
00000000
,
00000000
00000000
00000000
00000000
,
00000000
00000000
00000000
00000000
,
00011000
00000000
00010000
00100000
00000000
00000000
00000000
00000000
,
20000000
00000000
00000000
30000000
,
01000000
00000000
01000000
00010000
00000000
00000000
00000000
00000000
,
00002000
00000000
00000000
00003000
,
00000010
00000000
00000010
00000001
00000000
00000000
00000000
00000000
,
00000100
00000000
00000000
00000110
00000000
00000000
00000000
00000000
,
00000010
00001000
00000010
00010000
00001000
00100000
00010000
00100000
,
01000000
10000000
01000000
10000000
01000000
00010000
00001000
00000000
,
00000010
00000100
00010000
00000000
00000000
00011000
00000000
00000000
,
00001000
00100000
01000000
00000000
00000000
00000000
00000000
00000000
,
00100000
00001000
00010000
00000000
00000000
00011000
00000000
00000000
,
00000010
00010000
00001000
00000000
00000000
00000000
00000000
00000000
,
00000010
00000001
00000100
00000000
00000000
00000110
00000000
00000010
,
00010000
00001000
01000000
00000000
00000000
01100000
00000000
00100000
,
10000000
00010000
00100000
00000000
00000000
01100000
00000000
01000000
,
00010000
00000000
00011000
00000000
00001000
00000010
00000100
00010000
,
00001000
00000010
00000100
00000000
00000000
00000110
00000000
00000010
,
00000001
00000100
00001000
00000000
00000000
00000000
00000000
00000000
,
00010000
00100000
10000000
00000000
00000000
10010000
00000000
00010000
,
00100000
01000000
00010000
00000000
00000000
00000000
00000000
00000000
,
00001000
00000010
00000100
00000000
00000000
00000110
00000000
00000010
,
00000001
00000100
00001000
00000000
00000000
00011000
00000000
00010000
,
00100000
10000000
01000000
00000000
00000000
01100000
00000000
00100000
,
00001000
00000000
00010000
00000010
00000000
00001000
00000100
00000010
,
00000001
00000000
00000000
00000001
00000000
00000000
00000001
00000000
00000000
00000000
00000100
00000000
00000000
00000000
00001000
00000000
,
00010000
00000000
00000000
00010000
00000000
00000000
00010000
00000000
00000000
00000000
00000000
00000000
00000000
00000000
00000000
00000000
,
00100000
00000000
00000000
00100000
00000000
00000000
00100000
00000000
00000000
00000000
10000000
00000000
00000000
00000000
01000000
00000000
,
00010000
00000000
00000000
00010000
00000000
00000000
00010000
00000000
00000000
00000000
00000000
00000000
00011000
00000000
00000000
00000000
,
00001000
00000000
00000000
00100000
00000000
00000000
00001000
00000000
00000000
00000000
00010000
00000000
00000000
00000000
00000100
00000000
,
00010000
00000000
00000000
00000010
00000000
00000000
00010000
00000000
00000000
00000000
00001000
00000000
00000000
00000000
01000000
00000000
,
00001000
00000000
00000000
00100000
00000000
00000000
00010000
00000000
00000000
00000000
00001000
00000000
00000000
00000000
00000100
00000000
,
00010000
00000000
00000000
00000010
00000000
00000000
00001000
00000000
00000000
00000000
00010000
00000000
00000000
00000000
01000000
00000000
,
00000000
00100000
10000000
01000000
00010000
00001000
00010000
00000100
,
00000000
00000010
00001000
00010000
00000010
00010000
00001000
00000010
,
00000000
00000001
00000100
00000010
00000100
00001000
00010000
00001000
,
01000000
00010000
00100000
01000000
10000000
00100000
00010000
00000000
,
00012000
00000000
00000000
00000000
,
00000000
00000000
00000000
00000000
,
00003020
00000000
00000000
00000000
,
00000000
00000000
00000000
00000000
,
00000032
00000000
00000000
00000000
,
00000203
00000000
00000000
00000300
,
00000110
00000000
00000000
00000000
00000010
00001000
00000010
00010000
,
00001000
00100000
00010000
00100000
01000000
10000000
00100000
00000000
,
01100000
01000000
10000000
01000000
,
00010000
00100000
01000000
00010000
,
00001000
00000010
00000100
00010000
,
00000010
00000100
00001000
00010000
,
00100000
00000000
10000000
01000000
00010000
00000000
00001000
00000000
,
00000010
00000000
00000001
00000100
00001000
00000000
00010000
00000000
,
00100000
01000000
00100000
01000000
00010000
10000000
00010000
10000000
,
01000000
00010000
00001000
00000010
00000100
00010000
00000010
00000000
,
00000110
00000000
00000100
00001000
00000100
00001000
00010000
00000000
,
01000000
00010000
00001000
00000000
00010000
01000000
10000000
00000000
,
00100000
00010000
00001000
00000000
00010000
00100000
10000000
00000000
,
01000000
00010000
00001000
00000000
00010000
00001000
00000010
00000000
,
00000110
00000000
00000100
00010000
00000010
00000100
00000001
00000000
,
00000010
00001000
00010000
00000000
00001000
00000010
00000001
00000000
,
00000100
00001000
00010000
00000000
00001000
00010000
01000000
00000000
,
00010000
01000000
10000000
00000000
01000000
10000000
00100000
00000000
,
01100000
00000000
01000000
10000000
01000000
00010000
00100000
00000000
,
01000000
00010000
00001000
00000000
00010000
00001000
00000010
00000000
,
00001000
00000010
00000001
00000000
00000010
00000001
00000100
00000000
,
00000001
00000100
00001000
00000000
00000100
00001000
00010000
00000000
,
00011000
00000010
00011000
00100000
,
00011000
00000100
00011000
01000000
,
00010000
00100000
01000000
00010000
00001000
00100000
00001000
00000100
,
00000010
00010000
00001000
00000010
00000001
00000100
00001000
00000100
,
00000001
00000010
00000100
00010000
00001000
00100000
01000000
00010000
,
01000000
00100000
00001000
00010000
00100000
10000000
00010000
10000000
,
01000000
00010000
00001000
00000010
00000100
00010000
00001000
00000100
,
00000001
00000010
00000100
00010000
00001000
01000000
00100000
00010000
,
00100000
10000000
00010000
00100000
01000000
00010000
00001000
00000100
,
00000010
00010000
00001000
00000010
00000001
00000100
00000010
00000100
,
00001000
00010000
01000000
00100000
01000000
10000000
00100000
00000000
,
01000000
10000000
01000000
00010000
00100000
01000000
00010000
00001000
,
00000010
00000000
00000000
00000000
;

//--------------- dance-double - forcednature ----------------
#NOTEDATA:;
#STEPSTYPE:dance-double;
#DESCRIPTION:forcednature;
#DIFFICULTY:Hard;
#METER:16;
#RADARVALUES:0,0,0,0,0;
#CREDIT:forcednature;
#NOTES:
00000000
00000000
00000000
00000000
,
00000000
00000000
00000000
00000000
,
00000000
00000000
00000000
00000000
,
00000000
00000000
00000000
00000000
,
00000000
00000000
00000000
00000000
,
00000000
00000000
00000000
00000000
,
00000000
00000000
00000000
00000000
,
00000000
00000000
00000000
00000000
,
00000000
00000000
00000000
00000000
,
00011000
00000000
00010000
00100000
00000000
00100000
00000000
00000000
,
20000000
00000000
30020000
00030000
,
10010000
00000000
10000000
22000000
00000000
00000000
33000000
00000000
,
02000000
00000000
00000000
03000000
00020000
00000000
00000000
00030000
,
00011000
00000000
00001000
00000020
00000000
00000000
00000030
00000000
,
00000001
00000000
00000000
00000001
00000000
00000000
00000000
00000000
,
00000100
00000010
00000100
00001000
00010000
01000000
00100000
01000000
,
10000000
00000000
10000000
00000000
10000000
00000000
10000000
00000000
01000000
00100000
01000000
00100000
01000000
00000000
00000000
00000000
,
00010000
00001000
00011000
00000000
00000000
00010010
00000000
00000000
,
00000010
00000100
00001000
00000000
00000000
00000000
00000000
00000000
,
00010000
00100000
01000000
00000000
00000000
01100000
00000000
00000000
,
00100000
10000000
01000000
00000000
00010000
00000000
00000000
00000000
,
00001000
00000010
00000001
00000000
00000000
00000101
00000000
00000000
,
00000100
00001000
00010000
00000000
00000000
00011000
00000000
00010000
,
00100000
10000000
01000000
00000000
00000000
01100000
00000000
00100000
,
00001000
00000000
00000000
00000000
00000010
00000000
00000000
00000000
00000100
00000000
00001000
00000000
00000100
00000010
00000100
00000010
,
00000001
00000100
00001000
00000000
00000000
00011000
00000000
00010000
,
00100000
10000000
00100000
00000000
00000000
00000000
00000000
00000000
,
10000000
01000000
00010000
00000000
00000000
00011000
00000000
00001000
,
00000010
00000001
00000010
00000000
00000000
00000000
00000000
00000000
,
00000001
00000100
00001000
00000000
00000000
00011000
00000000
00010000
,
00100000
10000000
00100000
00000000
00000000
10010000
00000000
10000000
,
01000000
00010000
01000000
00000000
00000000
00011000
00000000
00001000
,
00000010
00000000
00000001
00000100
00000000
00001000
00010000
00001000
,
01000000
00000000
00000000
00010000
01000000
00000000
01010000
00000000
00000000
00000000
01010000
00000000
00000000
00000000
00001000
00000000
,
00010000
00000000
00000000
00001000
00010000
00000000
00011000
00000000
00000000
00000000
00000000
00000000
00000000
00000000
00000000
00000000
,
00000100
00000000
00000000
00001000
00000100
00000000
00001100
00000000
00000000
00000000
00001100
00000000
00000000
00000000
00010000
00000000
,
00001000
00000000
00000000
00010000
00001000
00000000
00011000
00000000
00000000
00000000
00000000
00000000
00100000
00000000
00000000
00000000
,
00011000
00000000
00000000
00001000
01000000
00000000
01001000
00000000
00000000
00000000
00110000
00000000
00000000
00000000
00001000
00000000
,
00011000
00000000
00000000
00010000
00000100
00000000
00010100
00000000
00000000
00000000
00001010
00000000
00000000
00000000
00010000
00000000
,
00011000
00000000
00000000
00001000
00100000
00000000
00101000
00000000
00000000
00000000
01010000
00000000
00000000
00000000
00001000
00000000
,
00011000
00000000
00000000
00010000
00000010
00000000
00010010
00000000
00000000
00000000
00001100
00000000
00000000
00000000
00010000
00000000
,
00001000
00000010
00000001
00000010
00001000
00010000
01000000
00100000
,
00001000
00010000
00100000
01000000
00010000
10000000
01000000
00010000
,
00001000
00000000
00010000
00001000
00010000
00000000
00001000
00000000
00000010
00000000
00000100
00000010
00000100
00000000
00000010
00000000
,
00000001
00001000
00000001
00001000
00000001
00000000
00000100
00000001
00000100
00000001
00000100
00000000
00001000
00000000
00010000
00001000
,
00020000
00000000
00000000
00000000
,
00000000
00000000
00000000
00000000
,
00230000
00000000
00000000
00000000
,
00000000
00000000
00000000
00000000
,
20300000
00000000
00000000
00000000
,
32000000
00000000
00000000
03000000
,
01100000
00000000
00000000
00000000
00100000
00001000
00010000
00000100
,
00010000
00001000
00010000
00001000
00010000
00000000
00000010
00000000
00001000
00000010
00001000
00000010
00001000
00000000
00000100
00000000
,
00000120
00000030
00000020
00000030
00000020
00000030
00000020
00000030
,
00000020
00000030
00000020
00000030
00000020
00000030
00000020
00000030
,
00000002
00000003
00000002
00000003
00000002
00000003
00000002
00000003
,
00000002
00000003
00000002
00000003
00000002
00000003
00000002
00000003
,
00000200
00000300
00000200
00000300
00000200
00000300
00000200
00000300
,
00002000
00003000
00002000
00003000
00002000
00003000
00002000
00003000
,
00010000
00100000
00010000
00100000
10000000
00100000
10000000
00100000
,
10000000
01000000
10000000
01000000
10000000
00000000
01000000
00000000
00100000
01000000
00100000
01000000
00100000
00000000
00010000
00000000
,
01000000
00000000
00001000
00000000
00010000
00001000
00010000
00000000
00001000
01000000
00001000
00000000
01000000
00010000
01000000
00000000
,
00010000
00100000
00010000
00000000
00100000
01000000
00100000
00000000
01000000
10000000
01000000
00000000
10000000
00100000
10000000
00000000
,
00100000
01000000
00100000
00000000
01000000
00001000
01000000
00000000
00001000
00010000
00001000
00000000
00010000
00000100
00010000
00000000
,
00000100
00001000
00000100
00000000
00000010
00000100
00000010
00000000
00000001
00000010
00000001
00000000
00000100
00000001
00000100
00000000
,
00000010
00000000
00010000
00000000
00001000
00100000
00001000
00000000
00100000
00010000
00100000
00000000
00010000
10000000
00010000
00000000
,
10000000
00100000
10000000
00000000
00100000
01000000
00100000
00000000
01000000
00001000
01000000
00000000
00001000
00010000
00001000
00000000
,
00010000
00000100
00010000
00000000
00000100
00000010
00000100
00000000
00000010
00000001
00000010
00000000
00000001
00000100
00000001
00000000
,
00000100
00000010
00000100
00000000
00000010
00010000
00000010
00000000
00010000
00001000
00010000
00000000
00001000
00100000
00001000
00000000
,
00010000
00000000
00100000
00000000
01000000
00100000
10000000
00000000
00010000
00000000
10000000
00000000
01000000
10000000
00010000
00000000
,
00100000
00000000
00001000
00000000
00010000
00000010
00001000
00000000
00000001
00000000
00000100
00000000
00000010
00001000
00000001
00000000
,
00000010
00000001
00000010
00000000
00000100
00000010
00000100
00000000
00001000
00000100
00001000
00000000
00000100
00010000
00000100
00000000
,
00010000
00001000
00010000
00000000
00001000
01000000
00001000
00000000
01000000
00010000
01000000
00000000
00100000
01000000
00100000
00000000
,
10000000
00010000
10000000
00010000
10000000
00000000
00000000
00000000
00001000
00010000
00001000
00010000
00001000
00000000
00000000
00000000
,
00010000
00000100
00010000
00000100
00010000
00000000
00000000
00000000
00001000
01000000
00001000
01000000
00001000
00000000
00000000
00000000
,
00010000
00000100
00001000
00000000
00000100
00001000
00000001
00000000
00000100
00000010
00001000
00000000
00000100
00010000
00001000
00000000
,
00010000
00001000
01000000
00000000
00010000
10000000
00100000
00000000
10000000
00010000
00100000
00000000
01000000
00000000
00010000
00000000
,
00001000
00010000
00001000
00000000
00010000
00000100
00010000
00000000
00000100
00001000
00000100
00000000
00001000
00000010
00001000
00000000
,
00000010
00000100
00000001
00000000
00000010
00000100
00001000
00000000
00000010
00010000
00001000
00000000
00100000
00001000
00010000
00000000
,
00001000
01000000
00010000
00000000
01000000
00100000
10000000
00000000
00010000
10000000
01000000
00000000
00100000
00001000
00010000
00000000
,
00000010
00010000
00001000
00000000
00010000
00000100
00001000
00000000
00000010
00000100
00000001
00000000
00000010
00000100
00001000
00000000
,
00000010
00010000
00001000
00000000
00100000
00001000
00010000
00000000
00001000
01000000
00010000
00000000
01000000
00100000
10000000
00000000
,
00010000
00100000
01000000
00000000
00100000
00001000
00010000
00000000
00000100
00010000
00001000
00000000
00010000
00000010
00001000
00000000
,
00000100
00000010
00000001
00000000
00000100
00000000
00000010
00000000
00000100
00000010
00001000
00000000
00000100
00000000
00000010
00000000
,
00000100
00001000
00000100
00001000
00000100
00000000
00010000
00000000
00001000
01000000
00001000
01000000
00001000
00000000
00010000
00000000
,
00011000
00000000
00000000
00000000
;
