#VERSION:0.83;
#TITLE:共鳴遊戯の華;
#SUBTITLE:;
#ARTIST:アイテール魔導士隊;
#TITLETRANSLIT:Kyoumei yuugi no hana;
#SUBTITLETRANSLIT:;
#ARTISTTRANSLIT:Aether madoushitai;
#GENRE:;
#CREDIT:;
#MUSIC:Kyoumei yuugi no hana.ogg;
#BANNER:Kyoumei yuugi no hana.png;
#BACKGROUND:Kyoumei yuugi no hana-bg.png;
#CDTITLE:./CDTitles/bm IIDX 22 PENDUAL.png;
#SAMPLESTART:91.948;
#SAMPLELENGTH:15.000;
#SELECTABLE:YES;
#OFFSET:0.256;
#BPMS:0.000=190.000;
#STOPS:;
#TIMESIGNATURES:0.000=4=4;
#BGCHANGES:0.000=Kyoumei yuugi no hana.mp4=1.000=0=0=0=StretchNoLoop====,
99999.000=-nosongbg-=1.000=0=0=0=StretchNoLoop====
;
#FGCHANGES:;

//--------------- dance-single - forcednature ----------------
#NOTEDATA:;
#STEPSTYPE:dance-single;
#DESCRIPTION:forcednature;
#CREDIT:forcednature;
#DIFFICULTY:Beginner;
#METER:7;
#RADARVALUES:0,0,0,0,0;
#NOTES:
0000
0000
0000
0000
,
0000
0000
0000
0000
,
0000
0000
0000
0000
,
0000
0000
0000
0000
,
0000
0000
0000
0000
,
1001
0000
0001
0000
,
0100
0000
0010
0000
,
2000
0000
0000
0000
,
3000
0000
0100
0000
,
0020
0000
0000
0000
,
0030
0000
0001
0000
,
0200
0000
0000
0000
,
0300
0000
0010
0000
,
2002
0000
0000
0000
,
0000
0000
0000
0000
,
0000
0000
0000
0000
,
3003
0000
0000
0000
,
0110
0000
0001
0000
,
1000
0000
0010
0000
,
0200
0000
0000
0000
,
0300
0000
0001
0000
,
0020
0000
0000
0000
,
0030
0000
0100
0000
,
2000
0000
0000
0000
,
3000
0000
0010
0010
,
1001
0000
0001
0100
,
0010
1000
0001
1000
,
0100
0000
0010
0001
,
0100
0100
0100
0000
,
0110
0000
0000
0010
0000
0000
0000
1001
,
0000
0000
0000
0100
0000
0000
0000
0000
,
1001
0000
0000
1001
0000
0000
0000
0110
,
0000
0000
0000
0010
0000
0000
0000
0000
,
1001
1000
0010
0100
,
0001
0010
0100
0000
,
0020
0000
0000
0000
,
0130
1000
0001
0100
,
0110
0000
0010
1000
,
0001
1000
0100
0010
,
0001
0000
0100
0001
,
0010
0000
0000
0100
0000
0000
0100
0000
,
1001
0000
1000
0010
,
0100
0001
0010
0000
,
0100
0000
1000
0000
,
0001
0000
1000
0000
,
1001
0001
0100
0010
,
1000
0100
0010
0001
,
0100
0010
1000
0001
,
0010
0100
1000
0001
,
2002
0000
3003
0000
,
1001
0000
0001
0100
,
0010
0000
1000
0100
,
0010
0000
0100
1000
,
0002
0000
0000
0003
,
1001
0000
1000
0010
,
0100
0001
0010
0000
,
0110
0000
0100
1000
,
0010
0000
0100
0100
,
0100
0000
0001
1000
,
0100
0000
0010
0001
,
1000
0000
0010
0100
,
0002
0000
0000
0003
,
1001
0000
0100
0000
,
1001
0000
0010
0000
,
0110
0000
1000
0001
,
0100
0100
0100
0000
,
2002
0000
0000
0000
,
0000
0000
0000
0000
,
0000
0000
0000
0000
,
0000
0000
3003
0000
,
0220
0000
0000
0000
,
0000
0000
0330
0000
,
1000
1000
0001
0001
,
0100
0100
0100
0000
,
0110
0100
0010
1000
,
0001
0001
0010
0100
,
1000
1000
0001
0100
,
0020
0000
0000
0030
,
1001
1000
0010
1000
,
1001
0001
0010
0001
,
1001
1000
0100
1000
,
0110
0000
1000
1000
,
1000
0001
0100
0010
,
1000
1000
0100
0010
,
0001
0001
0100
0010
,
0220
0000
0000
0330
,
1001
1000
0100
0010
,
1001
0001
0110
0010
,
0110
0100
0100
0100
,
0010
0010
0010
0000
,
2002
0000
0000
0000
,
0000
0000
0000
0000
,
0000
0000
0000
0000
,
0000
0000
0000
0000
,
0000
0000
0000
0000
,
0000
0000
0000
0000
,
0000
0000
0000
0000
,
0000
0000
0000
0000
,
3003
0000
0000
0000
;

//--------------- dance-single - forcednature ----------------
#NOTEDATA:;
#STEPSTYPE:dance-single;
#DESCRIPTION:forcednature;
#CREDIT:forcednature;
#DIFFICULTY:Easy;
#METER:12;
#RADARVALUES:0,0,0,0,0;
#NOTES:
0000
0000
0000
0000
,
0000
0000
0000
0000
,
0000
0000
0000
0000
,
0000
0000
0000
0000
,
0000
0000
0000
0000
,
0000
1000
0001
0100
,
0020
0000
0000
2030
0000
0000
3020
0000
,
0130
0001
0200
0000
0000
0000
0000
0000
,
0000
0300
0020
2030
,
3002
0000
0000
0000
,
0003
0000
0000
0000
0020
0000
0000
0000
0130
0000
0000
1000
0000
0000
0010
0000
,
0100
0001
0200
0000
0000
0000
0000
0000
,
0000
0300
0020
0030
,
2002
0000
0000
0000
,
0000
0000
0000
0000
,
0000
0000
0000
0000
,
0000
0000
0000
0000
,
3003
0001
0100
0010
,
2000
0000
0000
3002
0000
0000
2003
0000
,
3100
0010
0200
0000
0000
0000
0000
0000
,
0000
0300
2000
3002
,
0203
0000
0000
0000
,
0000
0000
0000
0000
0310
0000
0000
0000
1000
0000
0000
0100
0000
0000
0010
0000
,
0001
0100
0002
0000
0000
0000
0000
0000
,
0003
0000
0010
0000
0100
0100
0100
0000
,
1001
0000
0001
0010
0000
0100
1000
0100
,
0000
0000
0010
0000
0001
1000
0001
0000
,
0100
0000
0001
0100
0000
0010
1000
0000
,
0100
0010
0100
0010
0001
1000
0001
0000
,
0110
0000
1000
0001
0000
0100
0000
1001
,
0000
0100
0010
0100
0000
0001
1000
0000
,
0110
0000
0000
1001
0000
0000
0000
0110
,
0000
1000
0001
0100
0010
1000
0001
0000
,
1001
0000
1000
0100
1000
0000
0010
0000
,
0100
0000
0001
0010
0000
0100
0010
0000
,
1002
0100
1000
0010
,
1003
0000
0000
0000
0001
0000
0100
0000
0001
0000
0000
0010
0000
0000
0100
0000
,
1000
0000
0100
0010
0000
0001
0100
0000
,
0020
0000
0000
2030
0000
0000
3200
0000
,
0320
0001
0001
0031
,
0101
0000
0000
0110
0000
0000
1010
0000
,
1001
0000
1000
0100
0010
0001
0100
0000
,
0020
1000
0100
1000
,
0130
0000
0010
0000
1000
0001
0010
0000
,
0100
0000
0010
0000
0001
1000
0010
0000
,
0110
0000
0100
0001
1000
0010
0100
0000
,
0001
0010
0001
0000
1000
0010
1000
0000
,
0100
0000
0010
0001
1000
0001
0100
0000
,
0010
1000
0010
0000
0100
0001
0100
0000
,
2002
0000
0000
3003
,
1100
0000
0001
0100
0010
1000
0001
0010
,
0100
0100
0010
0010
,
1001
0000
0001
0100
0010
1000
0001
0010
,
0100
0100
0010
0010
,
1001
0000
1000
0010
0000
0001
0010
0000
,
0110
0000
0100
1000
0000
0100
0001
0000
,
1001
0000
1000
0100
0000
0001
0100
0000
,
0220
0000
0000
0000
0330
0000
0000
0000
1000
0000
0000
0001
0000
0000
1000
0000
,
1001
0000
0001
0100
0010
1000
0001
0010
,
0100
0000
0010
0001
1000
0001
0100
0010
,
1000
0000
0100
1000
0010
0100
0001
0010
,
0200
0000
1000
0000
0001
0000
0310
0100
,
1000
0000
0000
0001
0000
0000
0100
0000
0001
0000
0000
1000
0000
0000
0100
0000
,
0110
0000
0000
0000
0000
0000
0000
0000
0001
0000
0000
1000
0000
0000
0010
0000
,
0200
1000
0010
0301
,
0110
0000
0010
1000
0001
0010
0100
0000
,
2002
0000
0000
0000
,
0000
0000
0000
0000
,
0000
0000
0000
3003
,
0020
0000
0000
0030
,
2002
0000
0000
0000
,
0000
0000
0000
3003
,
1000
0001
1000
0001
1000
0001
1000
0001
,
0100
0100
0000
0010
0010
1000
0001
0000
,
1001
0000
0001
1000
0001
0100
0010
1000
,
0200
0310
1100
1001
,
0101
0000
0001
1000
0010
0100
0001
0010
,
0200
1000
0010
0301
,
0100
0010
0001
1000
0000
0001
0100
0000
,
0010
1000
0001
0010
0000
0100
1000
0000
,
0001
0100
0010
1000
0000
0100
0010
0000
,
2002
0000
0000
0000
3003
0000
0000
0000
0100
0000
0000
0010
0000
0000
0100
0000
,
1001
0000
1000
0010
0100
0001
1000
0001
,
0010
0000
0100
1000
0001
0100
0010
1000
,
0100
0000
0010
0001
1000
0001
0100
0010
,
2000
0100
0001
3010
,
1100
0000
0000
0100
0000
0000
0010
0000
0001
0000
0000
0001
0000
0000
0100
0000
,
0220
0000
0000
0000
0330
0000
0000
0000
1000
0000
0000
0001
0000
0000
0010
0000
,
0100
1000
0100
0000
0010
0001
0010
0000
,
0001
1000
0001
1000
0001
1000
0010
0100
,
0002
0000
0000
0000
,
1000
0000
0000
0000
,
1000
0000
0000
0000
,
2000
0000
0000
0000
,
3003
0000
0000
0000
;

//--------------- dance-single - forcednature ----------------
#NOTEDATA:;
#STEPSTYPE:dance-single;
#DESCRIPTION:forcednature;
#CREDIT:forcednature;
#DIFFICULTY:Medium;
#METER:15;
#RADARVALUES:0,0,0,0,0;
#NOTES:
0000
0000
0000
0000
,
0000
0000
0000
0000
,
0000
0000
0000
0000
,
0000
0000
0000
0000
,
0000
0000
0000
0000
,
1001
1000
0100
1000
,
0020
0000
0000
0230
0000
0000
0302
0000
,
0013
0100
0020
0000
0000
0000
0000
0000
,
0000
0030
0001
1000
,
2002
0000
0000
0000
,
3003
0000
0000
0000
0001
0000
0000
0000
0100
0000
0000
0010
0000
0000
1000
0000
,
0100
0010
0002
0000
0000
0000
0000
0000
,
0000
0003
0220
0330
,
2002
0000
0000
0000
,
0000
0000
0000
0000
,
0000
0000
0000
0000
,
0000
0000
0000
0000
,
3003
0001
1000
0001
,
0200
0000
0000
0320
0000
0000
2030
0000
,
3100
0010
0200
0000
0000
0000
0000
0000
,
0000
0300
1000
0001
,
0202
0000
0000
0000
,
0303
0000
0000
0000
0100
0000
0000
0000
0010
0000
0000
1000
0000
0000
0001
0000
,
1000
0100
0020
0000
0000
0000
0000
0000
,
0030
0000
0000
0000
0001
0000
0000
0000
0100
0000
0100
0000
0001
1000
0001
0000
,
0010
0000
0100
1000
0000
0100
0001
0100
,
0000
0010
0001
1000
0001
0100
1000
0100
,
0010
1000
0100
1000
0000
0010
0100
0001
,
0010
0000
0010
0000
0010
0000
0010
0100
1000
0000
1000
0000
0001
0000
0000
0000
,
0101
0000
1000
0010
0000
0001
0010
0110
,
0000
0100
0001
1000
0100
0010
0100
0000
,
1100
0000
0010
0101
0000
1000
0001
0110
,
0000
0001
1000
0010
0100
0001
1000
0000
,
1100
0000
0001
0010
0100
1000
0001
0100
,
1000
0000
0100
0010
1000
0001
0010
1000
,
0020
0000
0100
0000
0000
1000
0000
0000
,
0100
0000
0000
0000
0031
0000
0010
0000
0100
0000
1000
0000
0001
0000
1000
0010
,
1000
0000
0100
0010
0001
0100
1000
0100
,
0002
0000
0013
0200
0000
1300
0020
0000
,
0230
0000
0001
0010
0000
1000
0010
0000
,
0301
0100
0001
1000
0100
0100
0010
0000
,
1001
0000
1000
0010
0001
0010
0100
0001
,
1000
0100
0001
0100
0010
0001
1000
0010
,
0100
0000
0001
0010
0220
0000
0330
0000
,
2002
3003
0220
0330
,
1000
0001
1000
0000
0100
0000
0010
0000
0001
0000
0100
0000
0010
0000
0100
0000
,
0001
0010
0100
0010
1000
0010
0100
0010
,
0001
0100
1000
0001
0010
1000
0001
1000
,
0100
0000
0010
0000
0001
0000
1000
0000
0010
0000
0100
0000
0001
1000
0001
0000
,
0020
0000
0000
0000
0000
0000
0130
0000
0000
0000
0010
0000
0001
1000
0001
0000
,
0100
0000
0010
0000
1000
0000
0010
0000
0100
0000
0000
0100
0001
0000
1000
0000
,
0200
0000
0001
0000
1300
0100
0010
0001
,
1000
0000
0010
0000
0100
0000
0010
0000
1000
0000
0000
1000
0100
0000
1000
0000
,
0020
0000
0001
0000
0100
0100
1030
0000
,
0010
0100
0010
0000
1000
0000
0001
0000
0000
0000
0010
0000
0110
0000
0000
0000
,
0010
0100
0010
0000
0001
0000
1000
0000
0000
0000
0010
0000
0110
0000
0000
0000
,
1000
0001
1000
0000
0100
0000
0010
0000
0000
0000
0001
0000
0100
0000
0000
0000
,
0220
0000
0000
0000
0330
0000
0000
0000
1010
0000
0000
1010
0000
0000
0001
1000
,
0001
0000
0000
0000
0010
0000
0100
0000
1000
0000
0001
0000
0100
0000
0010
1000
,
0010
0000
0000
0000
0100
0000
0001
0000
1000
0000
0100
0000
0010
0000
0001
1000
,
0001
0000
0100
0010
1000
0100
0010
0001
,
0100
0010
0100
0000
0001
0000
0000
0000
0010
0000
0100
0000
1001
0000
0000
0000
,
1100
0000
0000
1000
0100
0000
0010
0000
0001
0000
0000
0001
0100
0000
0010
0000
,
0110
0000
0000
0000
1000
0001
1000
0000
0100
0000
0000
0010
0000
0000
0001
0000
,
1001
0000
1000
0010
0001
0010
0100
0001
,
1000
0010
1000
0000
0100
0000
0100
0000
0010
0001
0010
0001
0010
0001
0010
0000
,
0200
0000
0000
0000
,
0000
0000
0000
0000
,
0000
0000
0000
0000
,
0020
0000
0000
0330
,
2002
0000
0000
0000
,
0000
0000
0000
3003
,
0001
0001
1000
1000
0001
0001
1000
1000
,
0001
0100
0001
0100
0001
0000
1000
0100
1000
0100
1000
0100
1000
0000
0000
0000
,
1001
0000
0000
0000
0001
0100
0001
0000
0010
0000
0000
0010
0100
0000
1000
0000
,
0020
0000
0001
0000
0130
0010
1001
0000
,
0011
0000
0000
0000
1000
0100
1000
0000
0001
0000
0000
0001
0100
0000
0010
0000
,
0200
0001
1000
0310
,
0001
1000
0001
0000
0100
0000
0001
1000
0001
0000
0010
0000
0100
0000
0000
0000
,
1000
0001
1000
0000
0100
0000
1000
0001
1000
0000
0010
0000
0100
0000
0000
0000
,
0001
0010
0001
0000
0100
0000
0010
1000
0010
0000
0100
0000
0001
0000
0000
0000
,
1001
0000
0000
0000
1000
0100
0010
0000
0100
0000
0000
0110
0000
0000
1001
0000
,
0110
0000
0000
0000
0001
0100
0001
0000
1000
0000
0010
0100
0010
0000
1000
0000
,
0001
0000
0000
0000
0010
0100
0010
0000
0001
0000
1000
0100
1000
0000
0010
0000
,
0100
0000
0000
0000
0001
1000
0001
0000
0010
0000
0100
1000
0100
0000
0010
0000
,
0001
0000
0000
0001
0200
0000
0000
0000
1000
0000
0000
0000
0301
0000
0100
0000
,
0010
0000
1000
0100
0000
1000
0100
0000
0010
0000
0001
0100
0000
0001
0100
0000
,
0110
0000
0000
0000
0010
1000
0010
0000
0100
0000
0000
0100
0001
0000
0010
0000
,
0110
0000
0100
1000
0100
1000
0100
0000
0010
0001
0010
0001
0010
0001
0010
0000
,
0001
1000
0001
1000
0001
1000
0001
1000
0001
1000
0001
1000
0001
1000
0001
1000
,
0010
0000
1000
0100
,
1000
0000
0001
0100
,
0001
0000
1000
0010
,
1000
0000
0001
0010
,
0100
0000
0000
0000
;

//--------------- dance-single - forcednature ----------------
#NOTEDATA:;
#STEPSTYPE:dance-single;
#DESCRIPTION:forcednature;
#CREDIT:forcednature;
#DIFFICULTY:Hard;
#METER:18;
#RADARVALUES:0,0,0,0,0;
#NOTES:
0000
0000
0000
0000
,
0000
0000
0000
0000
,
0000
0000
0000
0000
,
0000
0000
0000
0000
,
0000
0000
0000
0000
,
1001
0002
0203
0320
,
2030
0000
0000
3200
0000
0000
0320
0000
,
0031
0100
0002
0000
0000
0000
0000
0000
,
0000
0000
2003
3100
,
0220
0000
0000
0000
,
0330
0000
0000
0000
0010
0000
0000
0000
0001
0000
0000
1000
0000
0000
0001
0000
,
0100
0010
2000
0000
0000
0000
0000
0000
,
0000
3000
0220
0330
,
2002
3000
0100
0100
,
0010
0000
0000
0010
0000
0000
0010
0000
,
2000
0003
0100
0100
,
0010
0000
0000
0010
0000
0000
3010
0000
,
1001
2000
3200
0320
,
0032
0000
0000
0203
0000
0000
0302
0000
,
1003
0100
2000
0000
0010
0000
0000
0000
,
0010
0000
3002
0103
,
0220
0030
0001
0000
,
1000
0000
0000
0000
0310
0000
0000
0000
0100
0000
0000
0001
0000
0000
1000
0000
,
0001
0010
0200
0000
0001
0000
0000
0000
,
1300
0000
0000
0000
0110
0000
0000
0000
0001
0000
0001
0000
1000
0010
0100
0001
,
1000
0000
0001
0010
0001
0000
0101
0000
0000
0000
1000
0010
1000
0000
1100
0000
,
0000
0001
0100
1000
0001
0010
1000
0001
,
1000
0000
0100
0010
0100
0000
0001
0000
0100
0000
1000
0010
1000
0000
0001
0000
,
0010
0001
0010
0001
1000
0001
0100
0010
1000
0000
1000
0000
0200
0000
0300
0010
,
0001
0000
0000
0000
0100
0001
0100
0000
0000
0000
0010
0000
0010
0000
1010
0000
,
0000
0000
1000
0000
0100
0000
0001
0000
1000
0000
0010
0000
0001
0000
1000
0010
,
1000
0000
0001
0101
0000
0010
0010
1001
,
0000
0000
1000
0000
0001
0100
0010
1000
0001
0000
1000
0000
0100
0010
0001
1000
,
0010
0000
0100
1000
0100
0001
1000
0010
,
1000
0100
0010
0000
0001
0000
1000
0010
0100
0000
0001
0000
0001
0000
0010
0000
,
0100
1000
0001
0000
0010
0000
0001
0100
0010
0000
1000
0000
1000
0000
0001
0000
,
0010
0000
0100
0000
1000
0001
1000
0000
0010
0000
0100
0000
0100
0000
0001
0010
,
0100
0000
0000
0000
1000
0000
1100
0000
0000
0000
0001
0000
0010
0100
0010
0000
,
0002
0000
0100
2003
0000
0010
3002
1000
,
1000
0000
0100
1000
0000
0010
1003
0000
,
2100
0000
0000
0000
0001
0000
3010
0000
1000
0100
1000
0100
0010
0001
1000
0000
,
0001
0000
0000
0001
0100
0000
0010
1000
0010
0000
0100
0000
0001
1000
0100
0000
,
0010
0000
0001
0000
1000
0010
1000
0010
0100
0001
1000
0000
0100
0000
0010
0001
,
1000
0000
0001
0000
0100
0000
0010
0000
1000
0001
0010
0100
1000
0001
1000
0000
,
0010
0000
0100
0000
0001
0000
0100
0000
0010
1000
0001
1000
0100
0000
0010
0001
,
0010
0100
1000
0001
0100
0000
0010
1000
0001
1000
0100
0000
0010
0001
1000
0000
,
0001
0100
0001
0100
0010
1000
0010
1000
0001
1000
0100
0010
0001
1000
0001
0000
,
0100
0010
1000
0001
1000
0000
0100
0010
0001
1000
0001
0000
0100
0010
1000
0000
,
0100
1000
0100
1000
0001
0010
0001
0010
0100
1000
0001
0100
0010
1000
0001
0000
,
2002
0000
0000
0000
0000
0000
0000
0000
3003
0000
1000
0100
0010
0001
0100
0000
,
0110
0000
0000
0000
1000
0010
1000
0000
0100
0000
0010
0001
0000
0010
0100
0000
,
2100
0000
0000
0000
0001
0000
0000
0000
3010
1000
0010
0000
0100
0001
0100
0000
,
1001
0000
0000
0000
0001
0100
0001
0000
1000
0000
0100
1000
0000
0001
0100
0000
,
0010
0000
0010
0000
1000
0000
0100
0010
0001
0000
1000
0000
0010
0000
0000
0000
,
1000
0100
1000
0000
0001
0000
0100
0000
0100
0000
0010
1000
0001
0000
0000
0000
,
0001
0100
0001
0000
1000
0000
0100
0000
0100
0000
0010
0001
1000
0000
0000
0000
,
1000
0010
0100
0000
0001
0000
0010
0000
0010
0100
1000
0001
1000
0000
0010
0000
,
0110
0000
0000
0000
1000
0001
1000
0000
0101
0000
0000
1010
0000
0000
1100
0000
,
0011
0000
0000
0000
1000
0100
0010
0001
1000
0000
0001
0100
0000
0010
1000
0000
,
1001
0000
0000
0000
0001
0100
0010
1000
0001
0000
1000
0100
0000
0010
0001
0000
,
0110
0000
0000
0000
0100
1000
0001
1000
0010
0000
0100
0001
0000
1000
0001
0000
,
0010
0100
1000
0000
0001
0000
0001
0000
0001
0000
1000
0010
0100
0000
0100
0001
,
1000
0000
0100
0010
0001
1000
0001
0100
0010
0000
1000
0100
0010
0001
0100
0010
,
0100
0000
0000
0000
1000
0100
0001
0000
1000
0000
0001
0100
0010
0000
1000
0000
,
1100
0000
0001
0000
0100
0000
0010
1000
0001
1000
0100
0000
0010
0000
0000
0000
,
0102
0000
0000
0000
0010
0000
0010
0000
1003
0001
0010
0100
1000
0001
0100
0000
,
0102
0000
0000
0000
,
0100
0000
0000
0000
,
0100
0000
0000
0000
,
0020
0000
0000
0033
,
2100
0000
0000
0000
,
0100
0000
0000
0000
,
3100
1000
0100
1000
0001
0100
0001
0100
0010
1000
0001
0010
0100
1000
0001
0100
,
0010
1000
0100
0010
0001
0000
0100
0001
1000
0010
1000
0001
0010
0100
1000
0001
,
0100
0000
0010
0000
1000
0001
1000
0100
0010
0000
0001
0100
0010
0000
1000
0001
,
0010
0000
0100
0000
1000
0010
1000
0010
0100
0001
0100
0001
1000
0001
0010
0000
,
0100
0000
1000
0000
0001
0100
0010
1000
0001
0000
0010
0100
1000
0000
0001
1000
,
0010
0000
0100
0000
0001
0010
0001
0000
1000
0000
0010
0000
0100
0000
0100
0000
,
0001
0010
0100
1000
0010
0000
0100
0001
0100
0010
1000
0000
0100
0000
0010
0000
,
0001
0100
0010
1000
0001
0000
1000
0100
0010
0100
1000
0000
0010
0000
0100
0000
,
0001
0010
0100
0010
0001
0000
0100
0010
1000
0001
0010
0000
0100
0000
1000
0000
,
1001
0000
0000
0000
0001
0100
1000
0000
0110
0000
0000
0110
0000
0000
1000
0001
,
0100
0000
0010
0000
1000
0100
0010
0001
0010
0000
0100
1000
0001
0000
0100
0010
,
1000
0000
0001
0000
0010
0001
0010
0001
1000
0100
1000
0100
0010
0001
1000
0000
,
0010
0000
0100
0000
0001
0010
0100
1000
0010
0000
0100
0001
1000
0000
0100
1000
,
0010
0000
0100
0000
0001
0010
0100
0000
1000
0000
0010
0000
0110
0000
0110
0000
,
0100
0001
0100
0001
1000
0001
0010
0000
0100
1000
0100
1000
0001
1000
0010
0000
,
0110
0000
0100
0001
1000
0000
0100
0000
0010
0001
1000
0001
0100
0000
0010
0000
,
1001
0000
1000
0010
1000
0010
0100
0000
0001
0010
0001
0010
0001
0010
0100
0000
,
1000
0100
0010
0001
0100
0010
1000
0100
0010
0001
0100
0010
1000
0100
0010
0001
,
0200
0000
0001
0010
,
0010
0000
1000
0010
,
0010
0000
0001
0010
,
1000
0000
1000
0010
,
0301
0000
0000
0000
;

//--------------- dance-double - forcednature ----------------
#NOTEDATA:;
#STEPSTYPE:dance-double;
#DESCRIPTION:forcednature;
#CREDIT:forcednature;
#DIFFICULTY:Easy;
#METER:12;
#RADARVALUES:0,0,0,0,0;
#NOTES:
00000000
00000000
00000000
00000000
,
00000000
00000000
00000000
00000000
,
00000000
00000000
00000000
00000000
,
00000000
00000000
00000000
00000000
,
00000000
00000000
00000000
00000000
,
00000000
00010000
00001000
00010000
,
00000200
00000000
00000000
00002300
00000000
00000000
00003002
00000000
,
00000103
00000010
00000200
00000000
00000000
00000000
00000000
00000000
,
00000300
00000000
00002000
00023000
,
00230000
00000000
00000000
00000000
,
00300000
00000000
00000000
00000000
20000000
00000000
00000000
00000000
30010000
00000000
00000000
00100000
00000000
00000000
00001000
00000000
,
00010000
00000010
00020000
00000000
00000000
00000000
00000000
00000000
,
00000000
00030000
00002000
00003000
,
00022000
00000000
00000000
00000000
,
00000000
00000000
00000000
00000000
,
00000000
00000000
00000000
00000000
,
00000000
00000000
00000000
00000000
,
00033000
00010000
00001000
00000010
,
00000200
00000000
00000000
00002300
00000000
00000000
00003002
00000000
,
00001003
00000010
00002000
00000000
00000000
00000000
00000000
00000000
,
00000000
00003000
00000200
00020300
,
00032000
00000000
00000000
00000000
,
00000000
00000000
00000000
00000000
01003000
00000000
00000000
00000000
00010000
00000000
00000000
10000000
00000000
00000000
00010000
00000000
,
00100000
01000000
20000000
00000000
00000000
00000000
00000000
00000000
,
30000000
00000000
00100000
00000000
01000000
01000000
01000000
00000000
,
10010000
00000000
10000000
01000000
00000000
00100000
00010000
00100000
,
00000000
00000000
00001000
00000000
00010000
00000010
00010000
00000000
,
00001000
00000000
00000010
00000100
00000000
00001000
00000001
00000000
,
00000100
00000010
00000100
00000010
00000100
00001000
00010000
00000000
,
00011000
00000000
00001000
00010000
00000000
00100000
00000000
10010000
,
00000000
10000000
01000000
00100000
00000000
00001000
00010000
00000000
,
00011000
00000000
00000000
00010100
00000000
00000000
00000000
01001000
,
00000000
00001000
00010000
00100000
01000000
00010000
10000000
00000000
,
10010000
00000000
10000000
01000000
00010000
00000000
00001000
00000000
,
00000100
00000000
00000001
00000010
00000000
00000100
00000010
00000000
,
00000002
00000100
00001000
00000010
,
00001003
00000000
00000000
00000000
00000001
00000000
00000100
00000000
00000001
00000000
00000000
00000010
00000000
00000000
00000100
00000000
,
00001000
00000000
00000010
00010000
00000000
00001000
00100000
00000000
,
02000000
00000000
00000000
23000000
00000000
00000000
30020000
00000000
,
02030000
00010000
00010000
03010000
,
01001000
00000000
00000000
00011000
00000000
00000000
00010100
00000000
,
00001100
00000000
00001000
00000010
00000100
00000001
00001000
00000000
,
00000200
00001000
00010000
00001000
,
00010300
00000000
00001000
00000000
01000000
00010000
00100000
00000000
,
01000000
00000000
10000000
00000000
00010000
01000000
00001000
00000000
,
00011000
00000000
00010000
00000100
00001000
00000100
00000010
00000000
,
00000001
00000100
00000001
00000000
00001000
00000100
00001000
00000000
,
00000010
00000000
00010000
00001000
00100000
00010000
00100000
00000000
,
01000000
10000000
00010000
00000000
01000000
00010000
10000000
00000000
,
20020000
00000000
00000000
30030000
,
01010000
00000000
00001000
00010000
00000100
00001000
00000100
00000010
,
00000001
00000001
00000100
00000100
,
00000110
00000000
00000010
00001000
00000010
00010000
00001000
00100000
,
00010000
00010000
10000000
10000000
,
10010000
00000000
10000000
01000000
00000000
00010000
00001000
00000000
,
00011000
00000000
00010000
00001000
00000000
00000100
00000001
00000000
,
00001001
00000000
00000001
00000010
00000000
00000100
00001000
00000000
,
00002002
00000000
00000000
00000000
00003003
00000000
00000000
00000000
00010000
00000000
00000000
00001000
00000000
00000000
00010000
00000000
,
00001000
00000000
01000000
00010000
10000000
00010000
00100000
01000000
,
10000000
00000000
00100000
01000000
00010000
01000000
00001000
00010000
,
00000100
00000000
00001000
00000001
00000100
00000010
00001000
00000001
,
00000020
00000000
00000100
00000000
00001000
00000000
00000130
00000010
,
00000001
00000000
00000000
00001000
00000000
00000000
00000001
00000000
00000100
00000000
00000000
00000010
00000000
00000000
00010000
00000000
,
00022000
00000000
00000000
00000000
00033000
00000000
00000000
00000000
00001000
00000000
00000000
00100000
00000000
00000000
00010000
00000000
,
02000000
00001000
00010000
03100000
,
01100000
00000000
01000000
00010000
10000000
00010000
00100000
00000000
,
00022000
00000000
00000000
00000000
,
00000000
00000000
00000000
00000000
,
00000000
00000000
00000000
00033000
,
00000200
00000000
00000000
00000300
,
00002002
00000000
00000000
00000000
,
00000000
00000000
00000000
00003003
,
00000001
00001000
00000001
00001000
00000001
00001000
00000001
00001000
,
00000010
00000010
00000000
00010000
00001000
00010000
00001000
00000000
,
00011000
00000000
00010000
00001000
01000000
00010000
01000000
00100000
,
20000000
31000000
11000000
01100000
,
00110000
00000000
00010000
00100000
00001000
00010000
00000010
00001000
,
00000020
00000100
00001000
00010030
,
00000110
00000000
00000100
00000001
00000000
00000001
00000010
00000000
,
00000110
00000000
00000100
00010000
00000000
00010000
00001000
00000000
,
00011000
00000000
00001000
01000000
00000000
01000000
00010000
00000000
,
20020000
00000000
00000000
00000000
30030000
00000000
00000000
00000000
10000000
00000000
00000000
01000000
00000000
00000000
00100000
00000000
,
00010000
00000000
00100000
00001000
00010000
00000010
00001000
00000010
,
00000100
00000000
00000001
00000010
00000100
00001000
00000100
00010000
,
00001000
00000000
01000000
00010000
10000000
00010000
00100000
01000000
,
20000000
01000000
00010000
30100000
,
11000000
00000000
00000000
01000000
00000000
00000000
00010000
00000000
00001000
00000000
00000000
00001000
00000000
00000000
00000100
00000000
,
00000220
00000000
00000000
00000000
00000330
00000000
00000000
00000000
00000001
00000000
00000000
00001000
00000000
00000000
00000001
00000000
,
00000010
00000100
00000010
00000000
00000001
00001000
00000001
00000000
,
00000100
00000001
00000100
00000010
00000100
00001000
00010000
00001000
,
00020000
00000000
00000000
00000000
,
00000100
00000000
00000000
00000000
,
00000100
00000000
00000000
00000000
,
00000200
00000000
00000000
00000000
,
00030300
00000000
00000000
00000000
;

//--------------- dance-double - forcednature ----------------
#NOTEDATA:;
#STEPSTYPE:dance-double;
#DESCRIPTION:forcednature;
#CREDIT:forcednature;
#DIFFICULTY:Medium;
#METER:15;
#RADARVALUES:0,0,0,0,0;
#NOTES:
00000000
00000000
00000000
00000000
,
00000000
00000000
00000000
00000000
,
00000000
00000000
00000000
00000000
,
00000000
00000000
00000000
00000000
,
00000000
00000000
00000000
00000000
,
00011000
00010000
00100000
10000000
,
02000000
00000000
00000000
03020000
00000000
00000000
00032000
00000000
,
00013000
00000100
00020000
00000000
00000000
00000000
00000000
00000000
,
00000000
00030000
00001000
00000100
,
00000220
00000000
00000000
00000000
,
00000330
00000000
00000000
00000000
00000001
00000000
00000000
00000000
00001000
00000000
00000000
00000100
00000000
00000000
00010000
00000000
,
00001000
01000000
00020000
00000000
00000000
00000000
00000000
00000000
,
00000000
00030000
00200000
00300000
,
20020000
00000000
00000000
00000000
,
00000000
00000000
00000000
00000000
,
00000000
00000000
00000000
00000000
,
00000000
00000000
00000000
00000000
,
30030000
10000000
01000000
00010000
,
00002000
00000000
00000000
00003200
00000000
00000000
00000302
00000000
,
00000013
00000100
00000020
00000000
00000000
00000000
00000000
00000000
,
00000000
00000030
00000001
00001000
,
00002020
00000000
00000000
00000000
,
00003030
00000000
00000000
00000000
00000010
00000000
00000000
00000000
00010000
00000000
00000000
00001000
00000000
00000000
00100000
00000000
,
00010000
10000000
00200000
00000000
00000000
00000000
00000000
00000000
,
00300000
00000000
01000000
00000000
00010000
00010000
00100000
01000000
,
01100000
00000000
01000000
10000000
00000000
01000000
00010000
00001000
,
00000000
00000100
00000001
00000100
00001000
00010000
00001000
00000010
,
00000100
00001000
00000001
00000100
00000000
00001000
00010000
00100000
,
01000000
00000000
01000000
00000000
01000000
00000000
01000000
00010000
10000000
00000000
10000000
00000000
01000000
00000000
00000000
00000000
,
01100000
00000000
00100000
00010000
00000000
00001000
00000100
00000110
,
00000000
00000010
00000001
00001000
00000001
00000100
00001000
00000000
,
00011000
00000000
00010000
00100000
00000000
10000000
00010000
10010000
,
00000000
10000000
01000000
00010000
00001000
00000100
00000001
00000000
,
00000110
00000000
00000001
00000100
00000010
00001000
00010000
01000000
,
00100000
00000000
10000000
00010000
10000000
01000000
00010000
00001000
,
00020000
00000000
00100000
00000000
00000000
00001000
00000000
00000000
,
00030100
00000000
00000000
00000000
00010000
00000000
00001000
00000000
00000010
00000000
00000100
00000000
00001000
00000000
00000001
00000100
,
00000001
00000000
00000010
00001000
00010000
00100000
01000000
00010000
,
20000000
00000000
31000000
00020000
00000000
00031000
00000200
00000000
,
00000302
00000000
00000010
00001000
00000000
00001000
00000100
00000000
,
00000013
00000001
00000100
00001000
00010000
00010000
00100000
00000000
,
01100000
00000000
01000000
00010000
10000000
00010000
00100000
01000000
,
00010000
00001000
00010000
00000100
00001000
00000001
00000100
00000010
,
00001000
00000000
00010000
01000000
02200000
00000000
03300000
00000000
,
00022000
00033000
00000220
00000330
,
00000001
00001000
00000001
00000000
00000100
00000000
00000010
00000000
00000100
00000000
00001000
00000000
00010000
00000000
01000000
00000000
,
00100000
01000000
10000000
00010000
10000000
00100000
01000000
00100000
,
00010000
00001000
00000010
00000100
00000010
00000001
00001000
00000001
,
00000100
00000000
00001000
00000000
00010000
00000000
00100000
00000000
00010000
00000000
00001000
00000000
00000100
00000010
00000100
00000000
,
00002002
00000000
00000000
00000000
00000000
00000000
00003003
00000000
00000000
00000000
00001000
00000000
00000001
00000100
00000001
00000000
,
00000010
00000000
00000100
00000000
00001000
00000000
00000100
00000000
00010000
00000000
00000000
00010000
00001000
00000000
01000000
00000000
,
00020000
00000000
00100000
00000000
01030000
00010000
10000000
00010000
,
00100000
00000000
01000000
00000000
10000000
00000000
01000000
00000000
00100000
00000000
00000000
00100000
00001000
00000000
00010000
00000000
,
00000020
00000000
00001000
00000000
00000100
00000100
00000031
00000000
,
00000010
00000100
00000010
00000000
00001000
00000000
00000001
00000000
00000000
00000000
00000010
00000000
00001000
00000000
00010000
00000000
,
00001000
01000000
00001000
00000000
00100000
00000000
00010000
00000000
00000000
00000000
10000000
00000000
00100000
00000000
01000000
00000000
,
00010000
10000000
00010000
00000000
00100000
00000000
00001000
00000000
00000000
00000000
00010000
00000000
00000010
00000000
00001000
00000000
,
00000200
00000000
00000000
00000000
00000300
00000000
00000000
00000000
00000110
00000000
00000000
00000110
00000000
00000000
00001000
00000001
,
00001000
00000000
00000000
00000000
00000010
00000000
00000100
00000000
00001000
00000000
00010000
00000000
00001000
00000000
01000000
00010000
,
01000000
00000000
00000000
00000000
00100000
00000000
10000000
00000000
00010000
00000000
10000000
00000000
01000000
00000000
00100000
00010000
,
00100000
00000000
00001000
00010000
00000010
00001000
00000010
00000100
,
00000001
00001000
00000001
00000000
00000010
00000000
00000000
00000000
00000100
00000000
00010000
00000000
00001000
00000000
00000000
00000000
,
00011000
00000000
00000000
00001000
01000000
00000000
00010000
00000000
10000000
00000000
00000000
10000000
01000000
00000000
00100000
00000000
,
01100000
00000000
00000000
00000000
00100000
00010000
00100000
00000000
00001000
00000000
00000000
00010000
00000000
00000000
00000010
00000000
,
00001010
00000000
00001000
00000100
00000001
00000100
00000010
00000001
,
00001000
00000010
00001000
00000000
00000100
00000000
00000100
00000000
00010000
00001000
00010000
00001000
00010000
00001000
00010000
00000000
,
00002000
00000000
00000000
00000000
,
00000000
00000000
00000000
00000000
,
00000000
00000000
00000000
00000000
,
00203000
00000000
00000000
00300000
,
22000000
00000000
00000000
00000000
,
00000000
00000000
00000000
33000000
,
10000000
01000000
00010000
01000000
00100000
00001000
00010000
00001000
,
00000100
00000001
00000100
00000001
00000100
00000000
00000010
00001000
00000010
00001000
00000010
00001000
00000010
00000000
00000000
00000000
,
00001001
00000000
00000000
00000000
00000001
00000100
00000001
00000000
00000010
00000000
00000000
00000010
00000100
00000000
00010000
00000000
,
00002000
00000000
00000100
00000000
00013000
00001000
01000000
00000000
,
01100000
00000000
00000000
00000000
00100000
10000000
00100000
00000000
01000000
00000000
00000000
01000000
00010000
00000000
00100000
00000000
,
00002000
00000010
00010000
01003000
,
00001000
00010000
00001000
00000000
01000000
00000000
00001000
00010000
00001000
00000000
00100000
00000000
00010000
00000000
00000000
00000000
,
01000000
00010000
01000000
00000000
00001000
00000000
01000000
00010000
01000000
00000000
00001000
00000000
00010000
00000000
00000000
00000000
,
00000100
00001000
00000100
00000000
00010000
00000000
00000100
00001000
00000100
00000000
00000010
00000000
00000001
00000000
00000000
00000000
,
00001001
00000000
00000000
00000000
00001000
00000010
00000100
00000000
00000001
00000000
00000000
00000101
00000000
00000000
00001010
00000000
,
00001001
00000000
00000000
00000000
00001000
00000100
00001000
00000000
00000010
00000000
00010000
00001000
00010000
00000000
00100000
00000000
,
01000000
00000000
00000000
00000000
00010000
10000000
00010000
00000000
00100000
00000000
01000000
10000000
01000000
00000000
00010000
00000000
,
00001000
00000000
00000000
00000000
00010000
00000100
00010000
00000000
00001000
00000000
00000100
00000010
00000100
00000000
00000001
00000000
,
00000010
00000000
00000000
00000010
00000200
00000000
00000000
00000000
00000001
00000000
00000000
00000000
00001300
00000000
00000100
00000000
,
00010000
00000000
00001000
01000000
00000000
00001000
01000000
00000000
00010000
00000000
10000000
01000000
00000000
10000000
01000000
00000000
,
01100000
00000000
00000000
00000000
00100000
00010000
00100000
00000000
00001000
00000000
00000000
00001000
00010000
00000000
00000010
00000000
,
00001010
00000000
00001000
00000100
00001000
00000100
00001000
00000000
00000010
00010000
00000010
00010000
00000010
00010000
00000010
00000000
,
00010000
00001000
00010000
00001000
00010000
00001000
00010000
00001000
00010000
00001000
00010000
00001000
00010000
00001000
00010000
00001000
,
00010000
00000000
00100000
10000000
,
01000000
00000000
00010000
00001000
,
00000010
00000000
00000001
00000100
,
00001000
00000000
00010000
00100000
,
10000000
00000000
00000000
00000000
;

//--------------- dance-double - forcednature ----------------
#NOTEDATA:;
#STEPSTYPE:dance-double;
#DESCRIPTION:forcednature;
#CREDIT:forcednature;
#DIFFICULTY:Hard;
#METER:18;
#RADARVALUES:0,0,0,0,0;
#NOTES:
00000000
00000000
00000000
00000000
,
00000000
00000000
00000000
00000000
,
00000000
00000000
00000000
00000000
,
00000000
00000000
00000000
00000000
,
00000000
00000000
00000000
00000000
,
00011000
00020000
00230000
02300000
,
03200000
00000000
00000000
20300000
00000000
00000000
30020000
00000000
,
00130000
00001000
00200000
00000000
00000000
00000000
00000000
00000000
,
00000000
00000000
00302000
00013000
,
00022000
00000000
00000000
00000000
,
00033000
00000000
00000000
00000000
00010000
00000000
00000000
00000000
00000010
00000000
00000000
00001000
00000000
00000000
00000010
00000000
,
00000100
00000001
00002000
00000000
00000000
00000000
00000000
00000000
,
00000000
00003000
00000220
00000330
,
00022000
00003000
00000100
00000100
,
00001000
00000000
00000000
00001000
00000000
00000000
00100000
00000000
,
00200000
00030000
10000000
10000000
,
01000000
00000000
00000000
01000000
00000000
00000000
01300000
00000000
,
10010000
20000000
32000000
03020000
,
00032000
00000000
00000000
00003200
00000000
00000000
00000302
00000000
,
00001003
00000100
00002000
00000000
00000010
00000000
00000000
00000000
,
00000010
00000000
00003002
00000103
,
00000220
00000030
00001000
00000000
,
00000001
00000000
00000000
00000000
00001300
00000000
00000000
00000000
00000100
00000000
00000000
00000010
00000000
00000000
00010000
00000000
,
00001000
00100000
02000000
00000000
00010000
00000000
00000000
00000000
,
13000000
00000000
00000000
00000000
01000000
00000000
00000000
00000000
00100000
00000000
00100000
00000000
00100000
00010000
00100000
00001000
,
00010000
00000000
00000010
00001000
00000010
00000000
00000110
00000000
00000000
00000000
00000100
00000001
00001000
00000000
00001001
00000000
,
00000000
00000001
00000100
00001000
00010000
01000000
10000000
00010000
,
00100000
00000000
01000000
10000000
01000000
00000000
00010000
00000000
00001000
00000000
00010000
00000100
00010000
00000000
00001000
00000000
,
00000100
00000001
00000100
00000001
00001000
00000100
00000010
00000001
00001000
00000000
00001000
00000000
00000020
00000000
00000030
00010000
,
00001000
00000000
00000000
00000000
00100000
00010000
00100000
00000000
00000000
00000000
01000000
00000000
01000000
00000000
11000000
00000000
,
00000000
00000000
10000000
00000000
00100000
00000000
00010000
00000000
00001000
00000000
00000010
00000000
00000001
00000000
00001000
00000100
,
00001000
00000000
00000010
00010010
00000000
00100000
00100000
00101000
,
00000000
00000000
00001000
00000000
01000000
00010000
01000000
00100000
10000000
00000000
10000000
00000000
01000000
00100000
00010000
00100000
,
00001000
00000000
00010000
00000100
00001000
00000100
00000001
00000100
,
00000010
00000001
00001000
00000000
00000100
00000000
00001000
00000001
00000010
00000000
00000100
00000000
00000100
00000000
00010000
00000000
,
00001000
01000000
00010000
00000000
00100000
00000000
00010000
01000000
00001000
00000000
00010000
00000000
00010000
00000000
00100000
00000000
,
10000000
00000000
00010000
00000000
10000000
01000000
10000000
00000000
00100000
00000000
01000000
00000000
01000000
00000000
00010000
00100000
,
01000000
00000000
00000000
00000000
00010000
00000000
00011000
00000000
00000000
00000000
00001000
00000000
00000010
00000100
00000010
00000000
,
00000002
00000000
00000100
00000023
00000000
00001000
00000230
00000001
,
00000001
00000000
00000010
00001000
00000000
00001000
00010300
00000000
,
00021000
00000000
00000000
00000000
00000100
00000000
00031000
00000000
00010000
00001000
00010000
00001000
01000000
00010000
01000000
00000000
,
01100000
00000000
00000000
00100000
10000000
00000000
00010000
00100000
00010000
00000000
01000000
00000000
00100000
10000000
00010000
00000000
,
00100000
00000000
01000000
00000000
00010000
00001000
00010000
00001000
00010000
00000100
00001000
00000000
00000001
00000000
00000100
00000010
,
00001000
00000000
00010000
00000000
01000000
00000000
00100000
00000000
10000000
01000000
10000000
01000000
00100000
00010000
00100000
00000000
,
00001000
00000000
00010000
00000000
00000100
00000000
00010000
00000000
00001000
00000010
00000100
00000010
00000001
00000000
00001000
00000001
,
00000100
00000010
00001000
00000010
00010000
00000000
00001000
00100000
00010000
00100000
01000000
00000000
10000000
00010000
01000000
00000000
,
00100000
10000000
00100000
10000000
00010000
00100000
00010000
00100000
00001000
00010000
00000010
00001000
00000010
00000100
00000001
00000000
,
00001000
00000100
00010000
00001000
00010000
00000000
00100000
01000000
00100000
10000000
00010000
00000000
10000000
01000000
00100000
00000000
,
00010000
01000000
00010000
01000000
00001000
00010000
00001000
00010000
00000100
00001000
00000100
00000010
00000001
00001000
00000001
00000000
,
00002002
00000000
00000000
00000000
00000000
00000000
00000000
00000000
00003003
00000000
00000001
00000000
00000001
00000010
00000100
00000000
,
00000110
00000000
00000000
00000000
00000100
00001000
00000100
00000000
00010000
00000000
00001000
01000000
00000000
00010000
01000000
00000000
,
01100000
00000000
00000000
00000000
00100000
00000000
00000000
00000000
10000000
00010000
00100000
00000000
00010000
10000000
01000000
00000000
,
01100000
00000000
00000000
00000000
00100000
00001000
00010000
00000000
00000010
00000000
00000100
00000001
00000000
00000001
00000010
00000000
,
00000100
00000000
00000100
00000000
00010000
00000000
00001000
01000000
00010000
00000000
10000000
00000000
01000000
00000000
00000000
00000000
,
00100000
00010000
00100000
00000000
00001000
00000000
00010000
00000000
00010000
00000000
00000010
00001000
00000001
00000000
00000000
00000000
,
00000010
00000100
00000010
00000000
00000001
00000000
00000100
00000000
00000100
00000000
00000010
00010000
00001000
00000000
00000000
00000000
,
00100000
00010000
00100000
00000000
01000000
00000000
10000000
00000000
10000000
00010000
01000000
00100000
10000000
00000000
01000000
00000000
,
01100000
00000000
00000000
00000000
00100000
00001000
00010000
00000000
00011000
00000000
00000000
00010010
00000000
00000000
00001010
00000000
,
00001001
00000000
00000000
00000000
00000001
00000010
00000100
00001000
00000100
00000000
00010000
00001000
00000000
00001000
01000000
00000000
,
01010000
00000000
00000000
00000000
00010000
00100000
01000000
10000000
00100000
00000000
10000000
00010000
00000000
00010000
00100000
00000000
,
00101000
00000000
00000000
00000000
00001000
00010000
00000010
00001000
00000010
00000000
00000100
00000001
00000000
00000001
00000010
00000000
,
00000100
00001000
00000001
00000000
00000100
00000000
00000100
00000000
00000100
00000000
00001000
00010000
00001000
01000000
00010000
01000000
,
00100000
00000000
10000000
01000000
00100000
00010000
00100000
00001000
00010000
00000000
00000010
00001000
00000010
00000100
00000001
00001000
,
00000001
00000000
00000000
00000000
00000010
00000100
00001000
00000000
00000010
00000000
00000100
00001000
00010000
00000000
00001000
00000000
,
00011000
00000000
00000000
00000000
00010000
00000000
00001000
01000000
00010000
01000000
00100000
00000000
10000000
00000000
00000000
00000000
,
10020000
00000000
00000000
00000000
00100000
00000000
00100000
00000000
01030000
00010000
01000000
00001000
00010000
00000100
00001000
00000000
,
00001200
00000000
00000000
00000000
,
00000001
00000000
00000000
00000000
,
00000001
00000000
00000000
00000000
,
00000020
00000000
00000000
00000330
,
00001002
00000000
00000000
00000000
,
00000100
00000000
00000000
00000000
,
00000013
00000001
00000010
00000001
00001000
00000010
00001000
00000010
00010000
00000100
00010000
00001000
01000000
00010000
01000000
00100000
,
10000000
01000000
00100000
00010000
01000000
00000000
00100000
10000000
00010000
10000000
01000000
00100000
00010000
00100000
00001000
00010000
,
00000010
00000000
00000100
00000000
00000001
00001000
00000001
00000010
00000100
00000000
00001000
00000100
00010000
00000000
00001000
01000000
,
00010000
00000000
00100000
00000000
01000000
10000000
01000000
10000000
00010000
01000000
00010000
01000000
00001000
00010000
00000100
00000000
,
00001000
00000000
00000001
00000000
00000100
00000010
00001000
00000010
00010000
00000000
00001000
00100000
00010000
00000000
10000000
00100000
,
01000000
00000000
00010000
00000000
01000000
00001000
00010000
00000000
00000100
00000000
00001000
00000000
00000010
00000000
00000010
00000000
,
00000100
00000001
00001000
00000001
00000010
00000000
00000100
00001000
00000100
00010000
00001000
00000000
01000000
00000000
00010000
00000000
,
10000000
01000000
00100000
00010000
10000000
00000000
00100000
01000000
00010000
01000000
00001000
00000000
00010000
00000000
00000100
00000000
,
00001000
00000001
00000100
00000010
00001000
00000000
00000100
00010000
00001000
00100000
00001000
00000000
00010000
00000000
00100000
00000000
,
01100000
00000000
00000000
00000000
10000000
01000000
00010000
00000000
00011000
00000000
00000000
00011000
00000000
00000000
00010000
00000100
,
00001000
00000000
00000001
00000000
00000100
00000010
00001000
00000010
00000100
00000000
00000001
00000010
00000100
00000000
00001000
00000100
,
00010000
00000000
00001000
00000000
01000000
00010000
01000000
00010000
10000000
01000000
10000000
01000000
00100000
00010000
00100000
00000000
,
00001000
00000000
00010000
00000000
00000010
00001000
00000010
00000100
00000001
00000000
00000010
00000100
00001000
00000000
00000100
00010000
,
00001000
00000000
01000000
00000000
00010000
10000000
00100000
00000000
01000000
00000000
00010000
00000000
10010000
00000000
10010000
00000000
,
10000000
01000000
00100000
00010000
00100000
00001000
00010000
00000000
00000010
00001000
00000010
00000100
00000001
00001000
00000100
00000000
,
00000110
00000000
00000010
00000001
00001000
00000000
00000010
00000000
00010000
00001000
01000000
00010000
01000000
00000000
00100000
00000000
,
10010000
00000000
10000000
01000000
10000000
01000000
00010000
00000000
00001000
00010000
00001000
00010000
00001000
00000100
00000001
00000000
,
00000010
00000100
00001000
00000100
00010000
00001000
01000000
00010000
01000000
00100000
10000000
00010000
10000000
01000000
00100000
00010000
,
02000000
00000000
10000000
00100000
,
00010000
00000000
00001000
00010000
,
00100000
00000000
10000000
00100000
,
00010000
00000000
00001000
00010000
,
03100000
00000000
00000000
00000000
;
