#VERSION:0.83;
#TITLE:恐怖の右脳改革;
#SUBTITLE:;
#ARTIST:96;
#TITLETRANSLIT:Kyoufu no unou kaikaku;
#SUBTITLETRANSLIT:;
#ARTISTTRANSLIT:;
#GENRE:;
#CREDIT:;
#MUSIC:Kyoufu no unou kaikaku.ogg;
#BANNER:Kyoufu no unou kaikaku.png;
#BACKGROUND:Kyoufu no unou kaikaku-bg.png;
#CDTITLE:./CDTitles/GuitarFreaks V6 & DrumMania V6.png;
#SAMPLESTART:18.003;
#SAMPLELENGTH:15.000;
#SELECTABLE:YES;
#OFFSET:1.534;
#BPMS:0.000=135.000;
#STOPS:;
#TIMESIGNATURES:0.000=4=4,
4.000=5=4,
104.000=7=4,
111.000=8=4,
119.000=7=4,
126.000=8=4,
134.000=7=4,
141.000=8=4,
181.000=7=4,
188.000=8=4,
204.000=7=4
;
#BGCHANGES:0.000=Kyoufu no unou kaikaku.mp4=1.000=0=0=0=StretchNoLoop====,
99999.000=-nosongbg-=1.000=0=0=0=StretchNoLoop====
;
#FGCHANGES:;

//--------------- dance-single - forcednature ----------------
#NOTEDATA:;
#STEPSTYPE:dance-single;
#DESCRIPTION:forcednature;
#DIFFICULTY:Beginner;
#METER:3;
#RADARVALUES:0,0,0,0,0;
#CREDIT:forcednature;
#NOTES:
0000
0000
0000
0000
,
0000
0000
0000
0000
,
0000
0000
0000
0000
,
0000
0000
1000
0000
,
0000
0000
0000
0000
,
0000
0000
0000
0000
,
0001
0000
0000
0000
,
0000
0100
0000
0000
,
0000
0000
0001
0000
,
0000
0000
0000
0010
,
0000
0000
0000
0000
,
0100
0000
0000
0000
,
0000
1000
0000
0000
,
0000
0000
0010
0000
,
0000
0000
0000
1000
,
0000
0000
0000
0000
,
0001
0000
0001
0000
,
0001
1000
0000
1000
,
0000
1000
0020
0000
,
0000
0000
0000
0000
,
0000
0030
0000
0200
0000
0000
0000
0000
,
0000
0000
0000
0000
,
0300
0000
0000
0001
0000
0000
0000
0000
,
0000
0001
0000
0000
,
0000
1000
0000
0000
,
0000
1000
0000
0000
0000
0000
0000
0000
,
0000
0010
0000
0000
0000
0010
0000
0000
,
0000
0010
0000
0000
0000
0000
0000
0000
,
0100
0000
0100
0000
,
0100
0000
0000
0001
,
0000
0000
0001
1000
,
0000
0000
0000
0000
0000
1001
0000
0000
,
0000
0000
0000
0010
0000
0000
0000
0100
,
0000
0000
0110
0000
,
0000
0001
0000
1000
,
0000
0000
0000
1001
0000
0000
0000
0000
,
0000
0100
0000
0000
0000
0010
0000
0000
,
0000
1000
1000
1000
,
0000
1000
0000
0000
,
0000
0001
0001
0001
,
0000
0001
0000
0000
,
0000
0100
0100
0100
,
0000
0010
0010
0010
,
0000
1000
0001
1000
,
0001
0100
0000
0010
,
0000
1000
0000
0000
,
0000
0100
0000
1000
,
0000
0001
0000
0000
0000
0000
0000
0000
,
0000
0100
0000
0000
0000
0001
0000
0000
,
0000
1000
0000
1000
0000
1000
0000
0000
,
0010
0010
0010
0000
,
0100
0000
0100
0000
0100
0000
0000
0001
,
0000
0001
0000
0001
0000
0020
0000
0000
,
0000
0030
0000
0000
0000
0000
0000
0000
;

//--------------- dance-single - forcednature ----------------
#NOTEDATA:;
#STEPSTYPE:dance-single;
#DESCRIPTION:forcednature;
#DIFFICULTY:Easy;
#METER:7;
#RADARVALUES:0,0,0,0,0;
#CREDIT:forcednature;
#NOTES:
0000
0000
0000
0000
,
0000
0000
0000
0000
,
0000
0000
0000
0000
,
0000
0000
1000
1000
,
0010
0000
0100
0001
,
0001
0010
0000
0100
,
1000
0000
0001
0000
1000
0001
0000
0000
,
1000
0000
0010
0000
0100
0000
0010
0100
,
0000
0010
0001
1000
,
0001
1000
0000
0000
0001
0000
0100
0000
,
0010
0000
0100
0010
0000
0000
0100
0000
,
1000
0000
0001
0000
1000
0001
0000
0000
,
1000
0000
0100
0000
0010
0000
0100
0010
,
0000
0100
0001
1000
,
0001
1000
0000
0000
0001
0000
0010
0000
,
0100
0000
0010
0100
0000
0000
0010
0000
,
1000
0000
1000
0000
1000
1000
0000
0000
,
1000
0000
0001
0000
0001
0000
0001
0001
,
0000
0001
2002
0000
,
0000
0000
0000
0000
,
0000
3003
0000
0220
0000
0000
0000
0000
,
0000
0000
0000
0000
,
0330
0000
0000
1000
0000
0001
0000
0100
,
0000
0001
1000
0010
,
0000
1000
0001
0010
,
0000
0001
0000
1000
0000
0100
0000
0000
,
0010
0100
1000
0100
,
0010
0000
0100
0000
1000
0000
0000
0010
,
0000
0100
0000
0001
0000
0100
0000
0010
,
0000
0100
0000
0001
0000
0000
1001
0000
,
0000
1000
0100
0010
,
0100
0000
1000
0000
0001
1000
0000
0000
,
0000
0010
0000
0100
0000
0001
0000
1000
,
0010
0110
1001
0000
,
0001
0010
0100
0010
,
0001
0000
1000
0010
0000
0000
0000
0100
,
0000
0001
0000
1000
0000
0010
0100
0000
,
0110
0000
0001
0000
0100
0000
1000
0100
,
1000
0100
0001
1000
,
0010
0000
1000
0000
0100
0000
0001
0100
,
0001
0100
1000
0001
,
0010
0000
0001
0000
0100
0000
1000
0100
,
1000
0100
0001
1000
,
0010
0200
0320
2030
,
3002
0203
0000
0020
,
0330
1000
0100
0001
,
0100
0000
1000
0010
1000
0000
0001
0000
,
0000
0001
0000
0100
0000
1000
0000
0100
,
0000
0001
0010
0001
0000
1000
0000
0010
,
0000
0100
0000
0100
0000
0100
0000
0100
,
0010
0010
0010
1000
,
0001
0000
0001
0000
0001
0000
0001
0010
,
0000
0010
0000
0100
1000
2000
0000
0000
,
0000
3000
0000
0000
0000
0000
0000
0000
;

//--------------- dance-single - forcednature ----------------
#NOTEDATA:;
#STEPSTYPE:dance-single;
#DESCRIPTION:forcednature;
#DIFFICULTY:Medium;
#METER:12;
#RADARVALUES:0,0,0,0,0;
#CREDIT:forcednature;
#NOTES:
0000
0000
0000
0000
,
0000
0000
0000
0000
,
0000
0000
0000
0000
,
0000
0000
1000
1000
,
0001
0000
0000
0100
0001
0000
0010
0000
,
0010
0000
0001
0000
0000
1000
0020
0000
,
0130
0000
0000
0000
0100
0000
0001
0000
1000
0000
1000
0000
0000
0010
0000
0000
,
2000
0000
3001
0000
0010
0010
0100
1000
,
0000
0100
0000
0000
0020
0000
0000
0000
0031
0000
0000
0000
1000
0000
0010
0000
,
0100
0000
0100
0000
0000
0001
0000
0000
2000
0000
0000
0000
3010
0000
0000
0000
,
0100
0000
0001
0000
1000
0000
1000
0000
0000
0100
0000
0000
0020
0000
0000
0000
,
0031
0000
0000
0000
1000
0000
0010
0000
0100
0000
0100
0000
0000
0001
0000
0000
,
0020
0000
0130
0000
1000
0001
0100
0100
,
0000
0010
0000
0000
2000
0000
0000
0000
3001
0000
0000
0000
0010
0000
0100
0000
,
1000
0000
1000
0000
0000
0001
0000
0000
0200
0000
0000
0000
0310
0000
0000
0000
,
1000
0000
0001
0000
0010
0000
0010
0000
0000
0100
0000
0000
2000
0000
0000
0000
,
3010
0000
0000
0010
0000
0000
0010
0000
0010
0000
0010
0000
0000
0010
0000
0000
,
0110
0000
0000
0000
0100
0000
0000
0100
0000
0000
0100
0000
0100
0000
0100
0000
,
0000
0100
0000
0000
0110
0000
0000
0000
2002
0000
0000
0000
0000
0000
0000
0000
,
0000
0000
0000
0000
,
0000
3003
0000
0220
0000
0000
0000
0000
,
0000
0000
0000
0000
,
0330
0000
0000
1000
0001
0100
0001
1000
,
0010
1000
0001
0010
0001
1000
0100
1000
,
0010
0000
1000
0100
0010
0001
0100
0010
,
0100
0001
0010
0100
1000
0010
0200
0000
,
0301
0000
0010
0000
0000
0100
0000
0010
0000
0001
0000
0000
0010
0000
0000
0000
,
0100
0000
0000
1000
0000
1000
0000
1000
0000
0000
0010
0000
0100
0000
0000
0000
,
0001
0000
0000
0010
0000
0100
0000
0010
0000
0000
0001
0000
1000
0000
0100
0000
,
0000
0010
0000
0010
0000
0010
0000
0000
0001
0000
1000
0000
0020
0000
0000
0000
,
0130
0001
0010
0100
1000
0000
0010
0100
,
0001
0010
0001
0100
0010
1000
0000
0001
,
0010
0100
1000
0010
0000
0100
0001
0010
,
0110
0000
1001
0000
1000
0000
0100
0010
,
0100
1000
0001
0010
0100
1000
0010
0100
,
0001
0010
0100
0110
0000
0010
0001
1000
,
0010
0100
0001
0010
0100
1000
0010
0000
,
0110
0000
0000
0000
1000
0000
0100
0000
0001
0000
0100
0000
1000
0000
0001
0010
,
0000
0001
0010
0000
0001
0000
0100
0000
1000
0000
0100
0000
0001
0000
1000
0010
,
0000
1000
0010
0000
0100
0000
0001
0000
0010
0000
0100
0000
1000
0000
0010
0100
,
0000
0010
0100
0000
0001
0000
0010
0000
0100
0000
1000
0000
0010
0000
0110
0000
,
0000
0110
0000
0000
1000
0000
0100
0000
0001
0000
0100
0000
1000
0000
0001
0010
,
0000
0100
0010
0000
0001
0000
0100
0000
1000
0000
0100
0000
0001
0000
0011
0000
,
0000
1100
0000
0000
1000
0000
0010
0000
0001
0000
0010
0000
1000
0000
0100
0000
,
0001
0000
0100
0000
0020
0000
0000
0000
0000
0000
0030
0000
0001
1000
0001
1000
,
0001
1000
0001
0000
0000
0000
0100
0000
0010
0000
1000
0000
0010
0000
0100
0000
,
0001
0000
0000
0000
0010
0000
0000
0100
0000
0010
0000
0110
0000
0000
0100
0000
,
2000
0000
3001
0010
0001
1000
0010
0100
,
0000
0000
0001
0000
0000
0010
0000
0100
0000
0110
0000
0000
1000
0000
0002
0000
,
0000
0000
0103
0000
0010
1000
0000
1000
0000
1000
0000
0000
0001
0000
0010
0000
,
0100
0000
0010
0001
0000
0001
0000
0001
0000
0000
1000
0000
0010
0000
0000
0000
,
0100
0000
0001
0010
0000
0010
0000
0010
0000
0000
0100
0000
1000
0000
0001
0000
,
1000
0010
0000
0010
0000
0010
0000
0000
0110
0000
2002
0000
0000
0000
0000
0000
,
0000
3003
0000
0000
0000
0000
0000
0000
;

//--------------- dance-single - forcednature ----------------
#NOTEDATA:;
#STEPSTYPE:dance-single;
#DESCRIPTION:forcednature;
#DIFFICULTY:Hard;
#METER:16;
#RADARVALUES:0,0,0,0,0;
#CREDIT:forcednature;
#NOTES:
0000
0000
0000
0000
,
0000
0000
0000
0000
,
0000
0000
0000
0000
,
0000
0000
0000
0000
0000
0000
0000
0000
1000
0000
0000
1000
0000
0000
1000
0000
,
0100
0000
1000
0000
0000
0010
0000
0000
0100
0000
0000
0000
0001
0000
0000
0001
,
0000
0000
0001
0000
0100
0000
0001
0000
0000
0010
0000
0000
0200
0000
0000
0000
,
1300
0000
0100
1000
0100
0000
0010
0000
0110
0000
0001
0000
0000
1000
0010
0000
,
0100
0001
0200
0000
0301
0000
0010
0001
0010
0000
0100
0000
0110
0000
1000
0000
,
0000
0001
0100
0000
0010
1000
0020
0000
0130
0000
0001
1000
0001
0000
0010
0000
,
0110
0000
1000
0000
0000
0001
0010
0000
0001
1000
0020
0000
0130
0000
0001
1000
,
0001
0000
0010
0000
0110
0000
0001
0000
0000
1000
0010
0000
1000
0001
0200
0000
,
0310
0000
1000
0001
0010
0000
0100
0000
1100
0000
0001
0000
0000
0010
0100
0000
,
0010
0001
2000
0000
3010
0000
0100
0001
1000
0000
0010
0000
0101
0000
1000
0000
,
0000
1000
0100
0000
0010
0001
2000
0000
3010
0000
0100
0001
1000
0000
0100
0000
,
0011
0000
1000
0000
0000
0001
0010
0000
0100
1000
0002
0000
0103
0000
0010
1000
,
0001
0000
0100
0000
1010
0000
0001
0000
0000
1000
0010
0000
0100
0001
2000
0000
,
3100
1000
0000
0100
1000
0001
0010
0000
0011
0000
0011
0000
0000
1000
0001
0000
,
0100
0010
0100
0000
0001
0100
0000
0001
0100
0010
1000
0000
1010
0000
1010
0000
,
0000
0010
0100
0000
0001
1000
0010
0000
2002
0000
0000
0000
0000
0000
0000
0000
,
0000
0000
0000
0000
,
3003
0010
0100
0220
0000
0000
0000
0000
,
0000
0000
0000
0000
0000
0000
0000
0330
,
1001
0000
1001
0000
0110
0000
0001
0100
0000
0001
0100
0010
0000
0100
0000
0010
,
1000
0010
1000
0000
0001
0010
0000
0100
0010
0100
0000
1000
0000
0001
0100
0000
,
0010
0000
0110
0000
1000
0100
0000
1000
0100
0010
0000
0100
0000
0010
0001
1000
,
0001
0000
0100
0000
0010
1000
0000
0001
0010
0100
0000
0100
2000
0000
0000
0000
,
3001
0000
0100
1000
0000
0100
0000
0001
0000
1000
0010
0000
0001
0000
0010
0000
,
1000
0000
0001
0010
0000
0110
0000
1100
0000
0001
0010
0001
1000
0000
0000
0000
,
0100
0001
0000
0100
0000
1000
0000
0001
0010
0000
1000
0000
0010
0000
0001
0000
,
1000
0010
0000
0110
0000
0101
0000
1000
0010
1000
0001
0000
0100
0000
0000
0100
,
0010
0000
1000
0001
0100
0000
0001
1000
0010
1000
0001
0000
1000
0100
1000
0100
,
0010
0100
0010
0001
1000
0000
0001
0100
0010
0000
0110
0000
0000
0100
0001
0000
,
1000
0001
0010
0000
0100
1000
0001
1000
0100
0000
0010
0001
1000
0001
0100
0000
,
0110
0000
0000
1000
0001
1000
0010
0000
0100
0000
0000
0100
0001
0000
1000
0010
,
1000
0000
0001
0010
0100
0010
0001
0000
1000
0010
1000
0010
0100
0001
0100
0001
,
1000
0010
0100
0001
1000
0000
0001
0000
0000
0001
0010
0000
0100
1000
0100
0000
,
0010
0001
1000
0001
0010
0000
0100
1000
0100
1000
0001
0100
0010
0000
0000
0000
,
0110
0000
0000
0000
0001
1000
0010
1000
0001
0100
0010
0100
0001
1000
0010
0100
,
0001
0100
0010
0000
1000
0001
0010
0001
1000
0100
0010
0100
1000
0001
0010
0000
,
0000
0110
0000
0000
0001
1000
0010
1000
0001
0010
0001
1000
0100
1000
0001
0100
,
0001
0000
0010
0000
0100
1000
0001
0010
0001
1000
0100
1000
0010
0000
0110
0000
,
0000
0101
0000
0000
0001
0010
0100
0010
0001
1000
0100
1000
0001
0010
0100
1000
,
0100
0010
0001
0000
1000
0010
0100
0010
1000
0001
0100
0010
0100
0001
1000
0000
,
0000
1001
0000
0000
0002
0000
0013
0100
2000
0000
3010
0100
0002
0000
0013
0100
,
2000
0000
3010
0000
0100
0001
0100
0000
0100
0010
0100
0000
0001
1000
0010
1000
,
0001
0100
0010
0000
1000
0000
0100
0001
0000
0100
0000
1000
0000
0001
0010
0000
,
0100
0010
0001
0000
1000
0010
0100
0010
0000
0101
0000
0110
0000
0000
1000
0001
,
1000
0000
0001
0000
0010
0100
0000
0001
0100
0010
0000
0100
1000
0000
0010
1000
,
0001
0000
0100
0010
0100
0001
0000
0110
0000
1010
0000
1000
0001
0000
0100
0010
,
1000
0000
0001
0000
0010
1000
0000
0010
0001
1000
0000
0001
0010
0000
1000
0010
,
0001
0000
1000
0100
0000
1000
0001
0010
0000
0001
0100
0000
0110
0000
0000
0000
,
1000
0000
0100
0001
0000
0100
1000
0100
0000
0001
0100
1000
0001
0000
0010
0000
,
0001
0100
0000
0010
1000
0001
0010
0000
0110
0000
2002
0000
0000
0000
0000
0000
,
0000
3003
0000
0000
0000
0000
0000
0000
;

//--------------- dance-single - forcednature ----------------
#NOTEDATA:;
#STEPSTYPE:dance-single;
#DESCRIPTION:forcednature;
#DIFFICULTY:Challenge;
#METER:17;
#RADARVALUES:0,0,0,0,0;
#CREDIT:forcednature;
#NOTES:
0000
0000
0000
0000
,
0000
0000
0000
0000
,
0000
0000
0000
0000
,
0000
0000
0000
0000
0000
0000
0000
0000
0001
0000
0000
0001
0000
0000
1000
0000
,
0010
0000
0100
0000
0000
0010
0000
0000
1000
0000
0100
0000
1000
0000
0000
1000
,
0000
0000
0001
0000
0010
0000
0100
0000
0000
0010
0000
0000
0002
0000
0000
0000
,
1003
0000
0010
0100
0001
0000
0010
0000
0011
0000
0001
0000
0000
0100
0010
0000
,
1000
0001
0020
0000
0031
0000
0100
0010
1000
0000
0100
0000
1100
0000
1000
0000
,
0000
0010
0100
0000
0001
1000
0200
0000
1300
0000
0100
0010
0001
0000
0100
0000
,
0101
0000
0001
0000
0000
0010
0100
0000
1000
0001
0200
0000
0301
0000
0010
0100
,
1000
0000
0010
0000
1010
0000
1000
0000
0000
0100
0010
0000
0001
1000
0020
0000
,
0130
0000
0001
0010
0100
0010
0001
0000
1100
0000
1010
0000
0000
0010
0100
0000
,
0001
0000
1000
0000
0010
0000
2000
0000
0000
0000
0000
0000
3100
0000
0000
0000
0000
0000
1000
0000
0000
0010
0000
0000
0100
0000
0000
0010
0000
0000
1000
0000
0000
0000
0000
0000
0101
0000
0000
0000
0000
0000
0011
0000
0000
0000
0000
0000
,
0000
0000
0000
0010
0000
0000
0100
0000
0000
0000
0000
0000
1000
0000
0001
0000
0010
0000
0002
0000
0000
0000
0000
0000
0013
0000
0000
0000
0000
0000
0001
0000
0000
0100
0000
0000
0010
0000
0000
0100
0000
0000
0001
0000
0000
0000
0000
0000
,
1010
0000
0000
0000
0000
0000
1100
0000
0000
0000
0000
0000
0000
0000
0000
0100
0000
0000
0010
0000
0000
0000
0000
0000
0001
0000
1000
0000
0100
0000
2000
0000
0000
0000
0000
0000
3010
0000
0000
0000
0000
0000
1000
0000
0000
0100
0000
0000
,
0010
0000
0000
0100
0000
0000
1000
0000
0000
0000
0000
0000
0011
0000
0000
0000
0000
0000
0101
0000
0000
0000
0000
0000
0000
0000
0000
0100
0000
0000
0010
0000
0000
0000
0000
0000
1000
0000
0001
0000
0100
0000
0002
0000
0000
0000
0000
0000
,
0013
0100
1000
0010
0100
0001
0010
0000
0011
0000
1100
0000
0000
0001
0100
0000
,
0010
0000
0100
0000
0001
0000
1000
0000
0000
0000
0000
0000
0010
0000
0000
0100
0000
0000
0001
0000
0000
0010
0000
0000
0100
0000
0000
1000
0000
0000
0010
0000
0000
0000
0000
0000
1010
0000
0000
0000
0000
0000
0101
0000
0000
0000
0000
0000
,
0000
0000
0000
1000
0000
0000
0100
0000
0000
0000
0000
0000
0010
0000
0100
0000
1000
0000
0001
0000
0000
0000
0000
0000
2002
0000
0000
0000
0000
0000
0000
0000
0000
0000
0000
0000
0000
0000
0000
0000
0000
0000
0000
0000
0000
0000
0000
0000
,
0000
0000
0000
0000
,
3003
0010
0100
0220
0000
0000
0000
0000
,
0000
0000
0000
0000
0000
0000
0000
0000
0000
0000
0000
0000
0330
0000
0001
1000
,
0010
0000
0110
0000
1001
0000
1000
0100
0010
0100
0000
0010
0001
1000
0000
0010
,
0100
0000
0001
0000
0010
0001
0100
0001
0000
1000
0010
0100
0000
0001
1000
0000
,
0100
0000
0110
0000
0010
0001
1000
0010
0000
0100
0001
1000
0000
0100
1000
0000
,
0010
0000
0000
0000
0000
0000
0110
0000
0000
0000
0000
0000
0100
0000
0000
0001
0000
0000
0010
0000
0000
0001
0000
0000
1000
0000
0000
0100
0000
0000
1000
0000
0000
0001
0000
0000
0100
0000
0010
0000
0100
0000
0010
0000
0100
0000
0010
0000
,
0100
0000
0001
0010
0100
0010
0001
0100
0000
0010
1000
0001
0100
0000
0110
0000
,
0010
1000
0100
0001
0000
0101
0000
1100
0000
1000
0001
0010
0001
1000
0010
0000
,
1000
0010
0100
0010
1000
0100
0000
0010
0001
1000
0100
0000
0110
0000
0010
0001
,
0100
1000
0000
1100
0000
0101
0000
0001
1000
0010
1000
0001
0020
0000
0000
0130
,
1000
0000
0001
0010
0001
1000
0100
1000
0010
0100
0002
0000
1003
0010
0100
0010
,
1000
0001
0100
0001
1000
0100
0010
0001
0010
0000
0120
0000
0000
0130
1000
0000
,
0001
0010
0001
1000
0010
1000
0002
0000
0203
0000
0310
1000
0010
0100
0001
0000
,
0011
0000
0010
0100
1000
0000
0100
0010
0002
0000
0000
1003
0010
0000
0100
0010
,
1000
0001
0100
0001
1000
0010
0100
0000
0001
0010
0100
1000
0010
0100
0001
0010
,
0001
1000
0010
0100
0001
0000
1002
0000
0000
1003
0100
0000
0010
0100
1000
0001
,
0010
0001
1000
0010
0100
0000
0001
1000
0010
1000
0001
0000
0012
0000
1003
0100
,
0020
0000
0000
0000
0000
0000
0000
0000
0000
0000
0000
0000
0031
0000
0000
0100
0000
0000
0001
0000
0000
0100
0000
0000
0010
0000
0000
1000
0000
0000
0010
0000
1000
0000
0010
0000
0100
0000
0000
0001
0000
0000
1000
0000
0000
0100
0000
0000
,
0001
0000
0000
0100
0000
0000
1000
0000
0000
0010
0000
0000
1000
0000
0000
0100
0000
0000
1000
0000
0000
0100
0000
0000
0010
0000
0000
0001
0000
0000
0100
0000
0001
0000
0100
0000
0010
0000
0000
1000
0000
0000
0100
0000
0000
0000
0000
0000
,
0010
0000
0000
0110
0000
0000
0000
0000
0000
0000
0000
0000
0100
0000
0000
0001
0000
0000
0100
0000
0000
0001
0000
0000
0100
0000
0000
1000
0000
0000
0100
0000
1000
0000
0001
0000
0010
0000
0000
0001
0000
0000
0100
0000
0000
0010
0000
0000
,
1000
0000
0000
0100
0000
0000
0010
0000
0000
0001
0000
0000
0100
0000
0000
1000
0000
0000
0100
0000
0000
1000
0000
0000
0100
0000
0000
0001
0000
0000
0100
0000
0010
0000
1000
0000
0001
0000
0000
0010
0000
0000
0100
0000
0000
0000
0000
0000
,
0010
0000
0000
0110
0000
0000
0000
0000
0000
0000
0000
0000
0100
0000
0000
1000
0000
0000
0010
0000
0000
1000
0000
0000
0100
0000
0000
0001
0000
0000
0100
0000
1000
0000
0001
0000
0010
0000
0000
0100
0000
0000
1000
0000
0000
0100
0000
0000
,
0010
0000
0000
0001
0000
0000
1000
0000
0000
0010
0000
0000
0100
0000
0000
0001
0000
0000
0010
0000
0000
0001
0000
0000
0100
0000
0000
1000
0000
0000
0100
0000
0001
0000
1000
0000
0010
0000
0000
0100
0000
0000
0001
0000
0000
0000
0000
0000
,
1000
0000
0000
1001
0000
0000
0000
0000
0000
0000
0000
0000
0002
0000
0000
0000
0000
0000
1003
0000
0010
0000
0100
0000
0002
0000
0000
0000
0000
0000
1003
0000
0100
0000
0010
0000
0002
0000
0000
0000
0000
0000
0103
0000
0010
0000
1000
0000
,
0002
0000
0000
0000
0000
0000
0013
0000
0100
0000
1000
0000
0001
0000
0000
0100
0000
0000
0010
0000
0000
1000
0000
0000
0001
0000
0000
0100
0000
0000
0010
0000
0000
1000
0000
0000
0001
0000
0010
0000
0100
0000
0010
0000
0001
0000
0010
0000
,
0100
0000
0010
0000
0001
0000
1000
0000
0000
0000
0000
0000
0001
0000
0000
1000
0000
0000
0010
0000
0000
1000
0000
0000
0001
0000
0000
0010
0000
0000
0001
0000
0000
0100
0000
0000
0010
0000
0000
1000
0000
0000
0100
0000
0000
0001
0000
0000
,
0100
1000
0001
0000
0010
0001
0100
0010
0000
0110
0000
1010
0000
0001
0100
1000
,
0100
0001
1000
0000
0010
0100
0001
0010
0100
1000
0001
0010
1000
0010
0001
1000
,
0100
0000
1000
0010
0100
0001
0000
0011
0000
0110
0000
0100
1000
0010
0100
0001
,
0010
0000
0001
0100
1000
0100
0001
1000
0010
1000
0100
0001
1000
0010
0001
0100
,
0010
0001
0010
0100
1000
0100
0010
1000
0100
0001
0100
0010
0001
1000
0010
0000
,
1000
0100
0001
0100
1000
0001
0010
0001
0100
1000
0001
0010
1000
0100
0010
1000
,
0010
0100
0001
0100
0010
0001
0100
1000
0001
0000
2002
0000
0000
0000
0000
0000
,
0000
3003
0000
0000
0000
0000
0000
0000
;

//--------------- dance-double - forcednature ----------------
#NOTEDATA:;
#STEPSTYPE:dance-double;
#DESCRIPTION:forcednature;
#DIFFICULTY:Easy;
#METER:8;
#RADARVALUES:0,0,0,0,0;
#CREDIT:forcednature;
#NOTES:
00000000
00000000
00000000
00000000
,
00000000
00000000
00000000
00000000
,
00000000
00000000
00000000
00000000
,
00000000
00000000
00001000
00001000
,
00010000
00000000
00001000
00010000
,
00010000
00001000
00000000
00010000
,
00000100
00000000
00001000
00000000
00000100
00001000
00000000
00000000
,
00000001
00000000
00000010
00000000
00000100
00000000
00000010
00000100
,
00000000
00001000
00000100
00010000
,
00001000
00010000
00000000
00000000
00001000
00000000
01000000
00000000
,
00010000
00000000
01000000
00010000
00000000
00000000
10000000
00000000
,
00100000
00000000
01000000
00000000
00100000
01000000
00000000
00000000
,
00010000
00000000
00100000
00000000
00001000
00000000
00010000
00001000
,
00000000
00010000
00000100
00001000
,
00000100
00000010
00000000
00000000
00000001
00000000
00001000
00000000
,
00000001
00000000
00000100
00000010
00000000
00000000
00000100
00000000
,
00001000
00000000
00001000
00000000
00001000
00001000
00000000
00000000
,
00001000
00000000
00010000
00000000
00010000
00000000
00010000
00010000
,
00000000
00010000
00022000
00000000
,
00000000
00000000
00000000
00000000
,
00000000
00033000
00000000
02200000
00000000
00000000
00000000
00000000
,
00000000
00000000
00000000
00000000
,
03300000
00000000
00000000
10000000
00000000
00010000
00000000
01000000
,
00000000
00010000
00100000
00001000
,
00000000
00010000
00000100
00001000
,
00000000
00000001
00000000
00000100
00000000
00000010
00000000
00000000
,
00001000
00000100
00010000
00001000
,
00100000
00000000
00010000
00000000
00100000
00000000
00000000
00010000
,
00000000
01000000
00000000
00001000
00000000
00010000
00000000
00000010
,
00000000
00001000
00000000
00000010
00000000
00000000
00001001
00000000
,
00000000
00001000
00000100
00010000
,
00001000
00000000
00100000
00000000
00010000
10000000
00000000
00000000
,
00000000
00010000
00000000
01000000
00000000
00001000
00000000
00010000
,
00001000
00011000
00011000
00000000
,
00000100
00001000
00000100
00000010
,
00000001
00000000
00001000
00000100
00000000
00000000
00000000
00010000
,
00000000
00001000
00000000
01000000
00000000
00010000
10000000
00000000
,
10010000
00000000
00010000
00000000
00100000
00000000
00001000
00010000
,
00001000
00010000
00000100
00001000
,
00000000
00000000
00000001
00000000
00000100
00000000
00000010
00000100
,
00000010
00001000
00000001
00000010
,
00000000
00000000
00000100
00000000
00001000
00000000
00000100
00001000
,
00000100
00010000
00001000
00100000
,
00000000
00020000
02030000
03200000
,
20300000
30020000
00000000
20000000
,
30030000
10000000
01000000
00010000
,
00001000
00000000
00100000
00010000
00100000
00000000
00001000
00000000
,
00000000
00010000
00000000
00000100
00000000
00001000
00000000
00000100
,
00000000
00000010
00000100
00000010
00000000
00000001
00000000
00000000
,
00000000
00000100
00000000
00000100
00000000
00000100
00000000
00001000
,
00010000
00010000
00010000
00100000
,
10000000
00000000
10000000
00000000
10000000
00000000
01000000
00010000
,
00000000
00010000
00000000
00001000
00000010
00000200
00000000
00000000
,
00000000
00000300
00000000
00000000
00000000
00000000
00000000
00000000
;

//--------------- dance-double - forcednature ----------------
#NOTEDATA:;
#STEPSTYPE:dance-double;
#DESCRIPTION:forcednature;
#DIFFICULTY:Medium;
#METER:12;
#RADARVALUES:0,0,0,0,0;
#CREDIT:forcednature;
#NOTES:
00000000
00000000
00000000
00000000
,
00000000
00000000
00000000
00000000
,
00000000
00000000
00000000
00000000
,
00000000
00000000
00001000
00001000
,
00010000
00000000
00000000
00001000
00010000
00000000
00001000
00000000
,
00001000
00000000
00010000
00000000
00000000
00001000
00200000
00000000
,
00310000
00000000
00000000
00000000
00010000
00000000
01000000
00000000
00010000
00000000
00010000
00000000
00000000
10000000
00000000
00000000
,
00200000
00000000
10300000
00000000
01000000
01000000
10000000
01000000
,
00000000
00100000
00000000
00000000
00020000
00000000
00000000
00000000
00130000
00000000
00000000
00000000
00001000
00000000
00010000
00000000
,
00001000
00000000
00001000
00000000
00000000
00010000
00000000
00000000
00000200
00000000
00000000
00000000
00001300
00000000
00000000
00000000
,
00000001
00000000
00000010
00000000
00000001
00000000
00000001
00000000
00000000
00000100
00000000
00000000
00000020
00000000
00000000
00000000
,
00001030
00000000
00000000
00000000
00000100
00000000
00010000
00000000
00001000
00000000
00001000
00000000
00000000
00100000
00000000
00000000
,
00002000
00000000
00013000
00000000
00001000
01000000
00010000
00010000
,
00000000
10000000
00000000
00000000
00200000
00000000
00000000
00000000
10300000
00000000
00000000
00000000
00010000
00000000
00100000
00000000
,
00001000
00000000
00001000
00000000
00000000
00010000
00000000
00000000
00000200
00000000
00000000
00000000
00001300
00000000
00000000
00000000
,
00000001
00000000
00000100
00000000
00000010
00000000
00000010
00000000
00000000
00001000
00000000
00000000
00000020
00000000
00000000
00000000
,
00010030
00000000
00000000
00010000
00000000
00000000
00010000
00000000
00010000
00000000
00010000
00000000
00000000
00010000
00000000
00000000
,
00011000
00000000
00000000
00000000
00001000
00000000
00000000
00001000
00000000
00000000
00001000
00000000
00001000
00000000
00001000
00000000
,
00000000
00001000
00000000
00000000
00011000
00000000
00000000
00000000
02000000
00000000
00000000
00000000
00000000
00000000
00000000
00000000
,
00000000
00000000
00000000
00000000
,
00000000
03000000
00000000
20020000
00000000
00000000
00000000
00000000
,
00000000
00000000
00000000
00000000
,
30030000
00000000
00000000
10000000
01000000
00010000
01000000
10000000
,
00010000
00100000
00001000
00010000
00000100
00001000
00000100
00000010
,
00000001
00000000
00000100
00000001
00001000
00000010
00010000
00001000
,
00010000
00000100
00001000
00000100
00010000
00001000
00200000
00000000
,
00310000
00000000
01000000
00000000
00000000
00100000
00000000
01000000
00000000
00010000
00000000
00000000
10000000
00000000
00000000
00000000
,
00100000
00000000
00000000
10000000
00000000
10000000
00000000
10000000
00000000
00000000
01000000
00000000
00010000
00000000
00000000
00000000
,
00001000
00000000
00000000
00000010
00000000
00000100
00000000
00000010
00000000
00000000
00000001
00000000
00001000
00000000
00000010
00000000
,
00000000
00000100
00000000
00000100
00000000
00000100
00000000
00000000
00000001
00000000
00000010
00000000
00000200
00000000
00000000
00000000
,
00010300
00001000
00100000
00001000
00010000
00000000
00100000
01000000
,
00010000
10000000
00010000
01000000
00100000
10000000
00000000
00010000
,
00100000
00001000
00010000
00000100
00000000
00001000
00000010
00000100
,
00000110
00000000
00001001
00000000
00001000
00000000
00000100
00010000
,
00001000
00100000
00001000
00010000
00001000
01000000
00010000
01000000
,
00100000
10000000
00010000
10010000
00000000
10000000
01000000
00010000
,
00001000
00100000
00001000
00010000
00000100
00001000
00001001
00000000
,
00000010
00000000
00000000
00000000
00000001
00000000
00000100
00000000
00000010
00000000
00000100
00000000
00001000
00000000
00010000
00001000
,
00000000
00010000
00001000
00000000
00010000
00000000
00100000
00000000
01000000
00000000
00100000
00000000
10000000
00000000
10010000
00000000
,
00000000
01100000
00000000
00000000
10000000
00000000
01000000
00000000
00100000
00000000
01000000
00000000
00010000
00000000
00001000
00010000
,
00000000
00001000
00010000
00000000
00001000
00000000
00000010
00000000
00000100
00000000
00000010
00000000
00000001
00000000
00001001
00000000
,
00000000
00000110
00000000
00000000
00000001
00000000
00000100
00000000
00001000
00000000
00010000
00000000
01000000
00000000
10000000
00000000
,
00000000
00100000
00000000
00000000
10000000
00000000
01000000
00000000
00010000
00000000
00001000
00000000
00000100
00000000
00000001
00000000
,
00000000
00001001
00000000
00000000
00002000
00000000
00000000
00000000
00003200
00000000
00000000
00000000
00020300
00000000
00000000
00000000
,
00032000
00000000
00000000
00000000
00203000
00000000
00000000
00000000
00000000
00000000
00300000
00000000
00010000
10000000
00010000
10000000
,
00010000
10000000
00010000
00000000
00000000
00000000
01000000
00000000
10000000
00000000
01000000
00000000
00010000
00000000
00100000
00000000
,
00001000
00000000
00000000
00000000
00010000
00000000
00000000
00000100
00000000
00000100
00000000
00000100
00000000
00000000
00001000
00000000
,
00000002
00000000
00000103
00001000
00000100
00000001
00001000
00000010
,
00000000
00000000
00010000
00000000
00000000
00001000
00000000
00001000
00000000
00001000
00000000
00000000
00100000
00000000
00020000
00000000
,
00000000
00000000
10030000
00000000
00100000
01000000
00000000
01000000
00000000
01000000
00000000
00000000
00010000
00000000
00100000
00000000
,
00001000
00000000
00010000
00001000
00000000
00001000
00000000
00001000
00000000
00000000
00010000
00000000
00000100
00000000
00000000
00000000
,
00001000
00000000
00000010
00000100
00000000
00000100
00000000
00000100
00000000
00000000
00000001
00000000
00000010
00000000
00000100
00000000
,
00010000
00001000
00000000
00001000
00000000
00001000
00000000
00000000
01000000
00000000
20020000
00000000
00000000
00000000
00000000
00000000
,
00000000
30030000
00000000
00000000
00000000
00000000
00000000
00000000
;

//--------------- dance-double - forcednature ----------------
#NOTEDATA:;
#STEPSTYPE:dance-double;
#DESCRIPTION:forcednature;
#DIFFICULTY:Hard;
#METER:15;
#RADARVALUES:0,0,0,0,0;
#CREDIT:forcednature;
#NOTES:
00000000
00000000
00000000
00000000
,
00000000
00000000
00000000
00000000
,
00000000
00000000
00000000
00000000
,
00000000
00000000
00000000
00000000
00000000
00000000
00000000
00000000
00010000
00000000
00000000
00010000
00000000
00000000
00010000
00000000
,
00001000
00000000
00000010
00000000
00000000
00000010
00000000
00000000
00000001
00000000
00000000
00000000
00001000
00000000
00000000
00001000
,
00000000
00000000
00001000
00000000
00000001
00000000
00000100
00000000
00000000
00001000
00000000
00000000
00020000
00000000
00000000
00000000
,
00130000
00000000
00000000
00100000
10000000
00000000
01000000
00000000
00010000
00000000
00001000
00000000
00000000
00010000
01000000
00000000
,
00020000
00000000
00032000
00000000
00003010
00000000
00000000
00000010
00000001
00000000
00000100
00000000
00001000
00000000
00010000
00000000
,
00000000
00001000
00000100
00000000
00002000
00000000
00023000
00000000
01030000
00000000
00000000
01000000
10000000
00000000
00100000
00000000
,
00010000
00000000
00001000
00000000
00000000
00010000
00100000
00000000
00020000
00000000
00032000
00000000
00003100
00000000
00000000
00000100
,
00000001
00000000
00000010
00000000
00001000
00000000
00010000
00000000
00000000
00001000
00000010
00000000
00002000
00000000
00023000
00000000
,
01030000
00000000
00000000
01000000
10000000
00000000
00100000
00000000
00010000
00000000
00100000
00000000
00000000
10000000
00100000
00000000
,
00020000
00000000
00032000
00000000
00003100
00000000
00000000
00000100
00000001
00000000
00000010
00000000
00001000
00000000
00000010
00000000
,
00000000
00000001
00000010
00000000
00002000
00000000
00023000
00000000
00130000
00000000
00000000
00100000
10000000
00000000
01000000
00000000
,
00010000
00000000
01000000
00000000
00000000
10000000
01000000
00000000
00020000
00000000
00032000
00000000
00003010
00000000
00000000
00000010
,
00000001
00000000
00000100
00000000
00001000
00000000
00000100
00000000
00000000
00000001
00000100
00000000
00002000
00000000
00023000
00000000
,
00130000
00000000
00000000
00100000
10000000
00000000
00010000
00000000
01000000
00000000
01100000
00000000
00000000
10000000
00010000
00000000
,
00001000
00000000
00000100
00000000
00000010
00000000
00000000
00000010
00000001
00000000
00001000
00000000
00000100
00000000
00000110
00000000
,
00000000
00000001
00001000
00000000
00010000
00000000
01000000
00000000
02200000
00000000
00000000
00000000
00000000
00000000
00000000
00000000
,
00000000
00000000
00000000
00000000
,
03300000
00010000
00001000
00000220
00000000
00000000
00000000
00000000
,
00000000
00000000
00000000
00000330
,
00000110
00000000
00000110
00000000
00001001
00000000
00001000
00000000
00000100
00010000
00000000
00001000
00000000
00100000
00000000
00001000
,
00010000
00000000
00001000
00000000
01000000
00000000
00010000
10000000
00000000
00100000
00000000
10000000
00000000
00010000
00100000
00000000
,
01000000
00000000
00010000
00000000
00001000
00000000
00000010
00000100
00000000
00000010
00000000
00000001
00000000
00001000
00000010
00000000
,
00000100
00000000
00000001
00000000
00000100
00001000
00000000
00010000
00000000
00100000
00000000
00000000
02200000
00000000
00000000
00000000
,
03300000
00000000
01000000
00010000
00000000
00100000
00000000
01000000
00000000
00010000
01000000
00000000
00100000
00000000
00001000
00000000
,
00000010
00000000
00000000
00001100
00000000
00000110
00000000
00000011
00000000
00000000
00000001
00001000
00000001
00001000
00000000
00000000
,
00000100
00001000
00000000
00000010
00000000
00000100
00000000
00001000
00000100
00000000
00000010
00000000
00010000
00000000
00100000
00000000
,
00000000
01010000
00000000
01100000
00000000
10100000
00000000
00000000
10000000
00010000
10000000
00010000
00200000
00000000
00000000
00000000
,
01300000
00000000
00010000
00000000
00001000
00000000
00010000
01000000
10000000
00000000
01000000
00000000
00010000
00001000
00100000
00001000
,
00010000
00000100
00001000
00000100
00000010
00000000
00000001
00000000
00000100
00000000
00000110
00000000
00000000
00000000
00000010
00000000
,
00010000
00000000
00001000
00000000
01000000
00010000
10000000
00000000
00010000
00000000
00100000
01000000
00100000
00010000
00100000
00000000
,
00001000
00000000
00000000
00001000
00010000
00000000
00000010
00001000
00000002
00000000
00000000
00000000
00000103
00000000
00001000
00000000
,
00010000
00000000
00001000
00000100
00000001
00000000
00000100
00000000
00001000
00010000
00000010
00010000
00001000
01000000
00010000
01000000
,
00100000
10000000
01000000
01100000
00000000
00100000
00001000
00010000
,
00000100
00001000
00000100
00000010
00000100
00000000
00001000
00000001
00001000
00000001
00000100
00000000
00000110
00000000
00000000
00000000
,
00001001
00000000
00000000
00000000
00001000
00000000
00000100
00010000
00001000
00000000
00100000
00001000
00010000
00000000
00001000
00010000
,
00000000
00001000
01000000
00000000
00010000
00000000
00100000
00010000
01000000
00000000
00100000
10000000
01000000
00000000
01100000
00000000
,
00000000
00101000
00000000
00000000
00001000
00010000
00000100
00000000
00001000
00000100
00000010
00000000
00000100
00001000
00000100
00001000
,
00000001
00000000
00000010
00000000
00000001
00000100
00000010
00000000
00001000
00000100
00000010
00000000
00000100
00000000
00000110
00000000
,
00000000
00001001
00000000
00000000
00000001
00000000
00000100
00000000
00001000
00000000
00010000
00000000
00100000
01000000
00100000
01000000
,
00010000
10000000
00010000
00000000
10000000
00000000
01000000
00000000
00010000
00000000
00001000
00000000
00000010
00000000
00000110
00000000
,
00000000
00001001
00000000
00000000
00002000
00000000
00003100
00010000
00002000
00000000
00103000
00010000
02000000
00000000
03100000
10000000
,
02000000
00000000
03100000
00000000
01000000
00000000
00010000
00000000
00001000
00000000
00000010
00000000
00000001
00001000
00000001
00001000
,
00000001
00001000
00000001
00000000
00000000
00000000
00000100
00001000
00000000
00000100
00000000
00000001
00000000
00000100
00000010
00000000
,
00001000
00000000
00000001
00000000
00000010
00000100
00001000
00000100
00000000
00010100
00000000
00101000
00000000
00000000
10000000
00010000
,
10000000
00000000
00000000
00000000
01000000
00010000
00000000
01000000
00000000
10000000
00000000
01000000
00100000
00000000
00010000
00000000
,
10000000
00000000
00100000
01000000
00010000
01000000
00000000
01001000
00000000
00010010
00000000
00000000
00000001
00001000
00000001
00000000
,
00000010
00000000
00000001
00000000
00000100
00001000
00000000
00010000
00000000
00100000
00000000
00010000
00001000
00000000
00010000
00000000
,
00100000
00000000
10000000
00100000
00000000
00010000
00000000
00001000
00000000
00010000
00100000
00000000
01100000
00000000
00000000
00000000
,
10000000
00000000
01000000
00010000
00000000
00001000
00000000
00000010
00000000
00001000
00010000
00000000
00001000
00000000
00000010
00000000
,
00000001
00000010
00000000
00001000
00000000
00010000
00000000
00001000
00000010
00000000
00000220
00000000
00000000
00000000
00000000
00000000
,
00000000
00000330
00000000
00000000
00000000
00000000
00000000
00000000
;

//--------------- dance-double - forcednature ----------------
#NOTEDATA:;
#STEPSTYPE:dance-double;
#DESCRIPTION:forcednature;
#DIFFICULTY:Challenge;
#METER:17;
#RADARVALUES:0,0,0,0,0;
#CREDIT:forcednature;
#NOTES:
00000000
00000000
00000000
00000000
,
00000000
00000000
00000000
00000000
,
00000000
00000000
00000000
00000000
,
00000000
00000000
00000000
00000000
00000000
00000000
00000000
00000000
00001000
00000000
00000000
00001000
00000000
00000000
00010000
00000000
,
00100000
00000000
00100000
00000000
00000000
10000000
00000000
00000000
00100000
00000000
00000000
00000000
10000000
00000000
00000000
10000000
,
00000000
00000000
01000000
00000000
00010000
00000000
01000000
00000000
00000000
00010000
00000000
00000000
00002000
00000000
00000000
00000000
,
00013000
00000000
00001000
00010000
00000100
00000000
00001000
00000000
00000011
00000000
00000001
00000000
00000000
00000100
00000010
00000000
,
00001000
00000001
00000020
00000000
00000130
00000000
00001000
00000100
00010000
00000000
00001000
00000000
00101000
00000000
00010000
00000000
,
00000000
10000000
00100000
00000000
10000000
01000000
00020000
00000000
00031000
00000000
00010000
00001000
01000000
00000000
00010000
00000000
,
10100000
00000000
10000000
00000000
00000000
01000000
00100000
00000000
00010000
10000000
00200000
00000000
01300000
00000000
00010000
01000000
,
00001000
00000000
00010000
00000000
00010010
00000000
00001000
00000000
00000000
00000001
00000010
00000000
00000001
00000100
00002000
00000000
,
00013000
00000000
00100000
10000000
01000000
10000000
00100000
00000000
01100000
00000000
01010000
00000000
00000000
00001000
00010000
00000000
,
00000100
00000000
00001000
00000000
00000100
00000000
00000020
00000000
00000000
00000000
00000000
00000000
00000031
00000000
00000000
00000000
00000000
00000000
00001000
00000000
00000000
00000010
00000000
00000000
00010000
00000000
00000000
00001000
00000000
00000000
00010000
00000000
00000000
00000000
00000000
00000000
00010100
00000000
00000000
00000000
00000000
00000000
00001100
00000000
00000000
00000000
00000000
00000000
,
00000000
00000000
00000000
00000001
00000000
00000000
00000010
00000000
00000000
00000000
00000000
00000000
00000100
00000000
00010000
00000000
00001000
00000000
00020000
00000000
00000000
00000000
00000000
00000000
00031000
00000000
00000000
00000000
00000000
00000000
00000010
00000000
00000000
00000001
00000000
00000000
00000100
00000000
00000000
00000001
00000000
00000000
00000010
00000000
00000000
00000000
00000000
00000000
,
00000110
00000000
00000000
00000000
00000000
00000000
00001100
00000000
00000000
00000000
00000000
00000000
00000000
00000000
00000000
00010000
00000000
00000000
00001000
00000000
00000000
00000000
00000000
00000000
01000000
00000000
00010000
00000000
01000000
00000000
00200000
00000000
00000000
00000000
00000000
00000000
10300000
00000000
00000000
00000000
00000000
00000000
00010000
00000000
00000000
00100000
00000000
00000000
,
00001000
00000000
00000000
00010000
00000000
00000000
00001000
00000000
00000000
00000000
00000000
00000000
01001000
00000000
00000000
00000000
00000000
00000000
01010000
00000000
00000000
00000000
00000000
00000000
00000000
00000000
00000000
10000000
00000000
00000000
00100000
00000000
00000000
00000000
00000000
00000000
01000000
00000000
00001000
00000000
00010000
00000000
00002000
00000000
00000000
00000000
00000000
00000000
,
00003010
00000100
00001000
00000010
00000100
00000001
00000010
00000000
00000110
00000000
00000110
00000000
00000000
00000001
00000100
00000000
,
00001000
00000000
00010000
00000000
00001000
00000000
00010000
00000000
00000000
00000000
00000000
00000000
00100000
00000000
00000000
01000000
00000000
00000000
00010000
00000000
00000000
00100000
00000000
00000000
01000000
00000000
00000000
10000000
00000000
00000000
00100000
00000000
00000000
00000000
00000000
00000000
01100000
00000000
00000000
00000000
00000000
00000000
01100000
00000000
00000000
00000000
00000000
00000000
,
00000000
00000000
00000000
10000000
00000000
00000000
01000000
00000000
00000000
00000000
00000000
00000000
00010000
00000000
00001000
00000000
00010000
00000000
00001000
00000000
00000000
00000000
00000000
00000000
00022000
00000000
00000000
00000000
00000000
00000000
00000000
00000000
00000000
00000000
00000000
00000000
00000000
00000000
00000000
00000000
00000000
00000000
00000000
00000000
00000000
00000000
00000000
00000000
,
00000000
00000000
00000000
00000000
,
00033000
00000010
00000100
00000220
00000000
00000000
00000000
00000000
,
00000000
00000000
00000000
00000000
00000000
00000000
00000000
00000000
00000000
00000000
00000000
00000000
00000330
00000000
00000001
00001000
,
00000010
00000000
00000110
00000000
00000001
00000000
00001000
00000100
00000010
00000100
00000000
00001000
00000100
00010000
00000000
00001000
,
00100000
00000000
00010000
00000000
10000000
00100000
01000000
00100000
00000000
10000000
00010000
01000000
00000000
00001000
00010000
00000000
,
00000100
00000000
00000110
00000000
00001000
00000010
00000100
00000010
00000000
00001000
00000001
00000100
00000000
00000001
00000010
00000000
,
00000100
00000000
00000000
00000000
00000000
00000000
00000110
00000000
00000000
00000000
00000000
00000000
00001000
00000000
00000000
00000100
00000000
00000000
00010000
00000000
00000000
00001000
00000000
00000000
00100000
00000000
00000000
00010000
00000000
00000000
00100000
00000000
00000000
01000000
00000000
00000000
10000000
00000000
00010000
00000000
10000000
00000000
00010000
00000000
10000000
00000000
00010000
00000000
,
10000000
00000000
01000000
00010000
00001000
00010000
01000000
00010000
00000000
00001000
00000010
00000000
00000100
00000000
00001001
00000000
,
00000001
00000010
00000100
00000001
00000000
00000101
00000000
00001100
00000000
00010000
00001000
00100000
00001000
00010000
00000010
00000000
,
00000100
00001000
00010000
00001000
00000100
00001000
00000000
00010000
00100000
00000000
01000000
00000000
10010000
00000000
10000000
00100000
,
01000000
10000000
00000000
11000000
00000000
01010000
00000000
00001000
00010000
00000010
00010000
00001000
00200000
00000000
00000000
01300000
,
10000000
00000000
01000000
00010000
00001000
00100000
00010000
00100000
00001000
00010000
00000200
00000000
00001300
00000010
00000100
00000010
,
00001000
00000001
00000100
00000010
00001000
00000000
00000001
00000100
00001000
00000000
00010020
00000000
00000000
00000130
00000001
00000000
,
00000100
00001000
00010000
00000010
00001000
00000010
00010000
00001000
02000000
00000000
03010000
00100000
01000000
00100000
00010000
00000000
,
00110000
00000000
00100000
01000000
00010000
00000000
00001000
00000010
00000200
00000000
00000000
00001300
00000001
00000000
00000100
00001000
,
00010000
00001000
00010000
00100000
10000000
00010000
01000000
00000000
00010000
00100000
01000000
10000000
01000000
00010000
00001000
00000000
,
00100000
00000000
00001000
00010000
00100000
00000000
02000000
00000000
00000000
03010000
10000000
00000000
01000000
00010000
00001000
00010000
,
00001000
00000010
00000001
00001000
00000100
00000000
00001000
00000010
00000100
00000001
00000100
00001000
00010000
00000000
00100000
00010000
,
00002000
00000000
00000000
00000000
00000000
00000000
00000000
00000000
00000000
00000000
00000000
00000000
01003000
00000000
00000000
00010000
00000000
00000000
01000000
00000000
00000000
00010000
00000000
00000000
10000000
00000000
00000000
00100000
00000000
00000000
01000000
00000000
00100000
00000000
01000000
00000000
00010000
00000000
00000000
10000000
00000000
00000000
00010000
00000000
00000000
00100000
00000000
00000000
,
01000000
00000000
00000000
00010000
00000000
00000000
00001000
00000000
00000000
00000000
00000000
00000000
00000010
00000000
00000000
00000100
00000000
00000000
00001000
00000000
00000000
00000100
00000000
00000000
00010000
00000000
00000000
00001000
00000000
00000000
00010000
00000000
00000010
00000000
00001000
00000000
00000010
00000000
00000000
00000100
00000000
00000000
00000001
00000000
00000000
00000000
00000000
00000000
,
00001000
00000000
00000000
00001010
00000000
00000000
00000000
00000000
00000000
00000000
00000000
00000000
00000001
00000000
00000000
00000010
00000000
00000000
00000100
00000000
00000000
00000010
00000000
00000000
00000100
00000000
00000000
00001000
00000000
00000000
00000100
00000000
00010000
00000000
00001000
00000000
00010000
00000000
00000000
00001000
00000000
00000000
00100000
00000000
00000000
00010000
00000000
00000000
,
00100000
00000000
00000000
00001000
00000000
00000000
00010000
00000000
00000000
00000000
00000000
00000000
00100000
00000000
00000000
10000000
00000000
00000000
00010000
00000000
00000000
01000000
00000000
00000000
00010000
00000000
00000000
10000000
00000000
00000000
01000000
00000000
00100000
00000000
00010000
00000000
00100000
00000000
00000000
00001000
00000000
00000000
00010000
00000000
00000000
00000000
00000000
00000000
,
00000100
00000000
00000000
00001100
00000000
00000000
00000000
00000000
00000000
00000000
00000000
00000000
00000001
00000000
00000000
00000100
00000000
00000000
00000010
00000000
00000000
00000100
00000000
00000000
00001000
00000000
00000000
00000100
00000000
00000000
00000001
00000000
00000100
00000000
00000010
00000000
00001000
00000000
00000000
00000100
00000000
00000000
00010000
00000000
00000000
00001000
00000000
00000000
,
00100000
00000000
00000000
00010000
00000000
00000000
10000000
00000000
00000000
00100000
00000000
00000000
10000000
00000000
00000000
01000000
00000000
00000000
00100000
00000000
00000000
01000000
00000000
00000000
00010000
00000000
00000000
01000000
00000000
00000000
10000000
00000000
00010000
00000000
00100000
00000000
00010000
00000000
00000000
00100000
00000000
00000000
00001000
00000000
00000000
00000000
00000000
00000000
,
00010000
00000100
00000000
00000000
00000020
00000000
00001030
00010000
00200000
00000000
00310000
00001000
00000200
00000000
00001300
00010000
,
02000000
00000000
00000000
00000000
00000000
00000000
03010000
00000000
00000000
00001000
00000000
00000000
00000010
00000000
00000000
00000100
00000000
00000000
00000010
00000000
00000000
00000100
00000000
00000000
00001000
00000000
00000000
00000001
00000000
00000000
00001000
00000000
00000000
00000001
00000000
00000000
00000100
00000000
00000010
00000000
00001000
00000000
00000100
00000000
00010000
00000000
00001000
00000000
,
00100000
00000000
00010000
00000000
01000000
00000000
00100000
00000000
00000000
00000000
00000000
00000000
10000000
00000000
00000000
00000000
00000000
00000000
01000000
00000000
00000000
00010000
00000000
00000000
00001000
00000000
00000000
00010000
00000000
00000000
01000000
00000000
00000000
00100000
00000000
00000000
00000000
00000000
00000000
00001000
00000000
00000000
00010000
00000000
00000000
00000100
00000000
00000000
,
00001000
00000010
00000100
00000000
00000001
00000010
00001000
00010000
00000000
00011000
00000000
00010100
00000000
00000100
00001000
00000010
,
00000100
00000000
00000001
00000000
00000100
00001000
00010000
00001000
00000100
00000010
00000000
00010000
00001000
01000000
00010000
00100000
,
01000000
00000000
10000000
00100000
00010000
00001000
00000000
00011000
00000000
01001000
00000000
01000000
00010000
00100000
01000000
10000000
,
00010000
00000000
10000000
01000000
00010000
01000000
10000000
01000000
00010000
00001000
00000010
00000001
00000010
00001000
00010000
00000000
,
00000010
00000100
00001000
00010000
00100000
01000000
00100000
00010000
00001000
00000100
00000010
00001000
00000001
00000000
00001001
00000000
,
00000001
00000100
00001000
00000100
00000001
00000100
00001000
00010000
00100000
10000000
00100000
00010000
00001000
00000000
00100000
01000000
,
00010000
00001000
00000010
00000100
00000010
00001000
00010000
01000000
00100000
00000000
20020000
00000000
00000000
00000000
00000000
00000000
,
00000000
30030000
00000000
00000000
00000000
00000000
00000000
00000000
;
