#VERSION:0.83;
#TITLE:キャトられ♥恋はモ~モク;
#SUBTITLE:;
#ARTIST:ギュ~っとしたい♥Prim;
#TITLETRANSLIT:Kyatorare koi wa mo~moku;
#SUBTITLETRANSLIT:;
#ARTISTTRANSLIT:Prim;
#GENRE:Hi-ν BLEEP;
#CREDIT:;
#MUSIC:Kyatorare koi wa mo~moku.ogg;
#BANNER:Kyatorare koi wa mo~moku.png;
#BACKGROUND:Kyatorare koi wa mo~moku-bg.png;
#CDTITLE:./CDTitles/bm IIDX 20 tricoro.png;
#SAMPLESTART:50.074;
#SAMPLELENGTH:15.000;
#SELECTABLE:YES;
#OFFSET:0.723;
#BPMS:0.000=196.000;
#STOPS:;
#TIMESIGNATURES:0.000=4=4;
#DISPLAYBPM:196.000;
#BGCHANGES:0.000=Kyatorare koi wa mo~moku.mp4=1.000=0=0=0=StretchNoLoop====,
99999.000=-nosongbg-=1.000=0=0=0=StretchNoLoop====
;
#FGCHANGES:;

//--------------- dance-single - forcednature ----------------
#NOTEDATA:;
#STEPSTYPE:dance-single;
#DESCRIPTION:forcednature;
#CREDIT:forcednature;
#DIFFICULTY:Beginner;
#METER:4;
#RADARVALUES:0,0,0,0,0;
#NOTES:
0000
0000
0000
0000
,
0000
0000
0000
0000
,
0000
0000
0000
0000
,
0000
0000
0000
0000
,
0000
0000
0000
0000
,
0000
0000
0000
0000
,
1000
0000
0000
0000
,
0000
0000
0000
0000
,
0001
0000
0000
0000
,
0100
0000
0000
0000
,
1001
0000
0000
0000
,
0000
0000
0000
0000
,
0001
0000
0000
0000
,
0010
0000
0000
0000
,
0001
0000
0000
0000
,
1000
0000
0000
0000
,
0010
0000
0000
0000
,
0100
0000
0000
0000
,
1001
0000
0000
0000
,
1000
0000
0000
0000
,
0100
0000
0000
0000
,
1000
0000
0000
0000
,
1001
0000
0000
0000
,
0001
0000
0000
0000
,
0100
0000
0000
0000
,
0001
0000
0001
0000
,
0001
0000
0000
0000
,
0010
0000
0000
0000
,
0100
0000
0000
0000
,
1000
0000
0001
0000
,
1000
0000
0000
0000
,
0010
0000
0000
0000
,
0100
0000
0100
0000
,
0100
0000
0000
0000
,
0001
0000
0000
0000
,
0010
0000
0000
0000
,
0100
0000
0000
0000
,
1000
0000
1000
0000
,
1000
0000
0000
0000
,
0010
0000
0000
0000
,
0100
0000
0100
0000
,
0100
0000
0000
0000
,
1001
0000
0000
0000
,
0001
0000
0000
0000
,
0010
0000
0000
0000
,
0100
0000
0000
0000
,
1000
0000
0001
0000
,
1000
0000
0000
0000
,
0001
0000
1000
0000
,
0001
0000
0000
0000
,
1001
0000
0000
0000
,
1000
0000
0000
0000
,
0010
0000
0000
0000
,
0100
0000
0000
0000
,
0001
0000
0001
0000
,
0001
0000
0000
0000
,
0010
0000
0010
0000
,
0010
0000
0000
0000
,
0100
0000
1000
0000
,
0100
0000
0000
0000
,
1001
0000
0000
0000
,
1000
0000
0000
0000
,
0010
0000
0000
0000
,
0100
0000
0000
0000
,
0001
0000
0000
0000
,
0010
0000
0000
0000
,
0100
0000
0100
0000
,
0100
0000
0000
0000
,
1001
0000
0000
0000
,
1000
0000
0000
0000
,
0010
0000
0000
0000
,
0100
0000
0100
0000
,
0100
0000
0000
0000
,
0001
0000
0000
0000
,
0010
0000
0000
0000
,
0001
0000
0001
0000
,
0001
0000
0000
0000
,
1000
0000
0000
0000
,
0010
0000
0010
0000
,
0100
0000
0000
0000
,
1001
0000
0000
0000
,
0110
0000
0000
0000
,
1000
0000
0001
0000
,
1000
0000
0001
0000
,
0000
0000
0000
0000
,
0100
0000
0000
0000
,
0000
0000
0000
0000
,
0010
0000
0000
0000
,
0000
0000
0000
0000
,
1000
0000
1000
0000
,
1000
0000
0000
0000
,
0001
0000
0001
0000
,
0001
0000
0000
0000
,
1001
0000
0000
0000
,
1000
0000
0000
0000
,
0100
0000
0000
0000
,
0010
0000
0010
0000
,
0010
0000
0000
0000
,
0001
0000
0001
0000
,
0001
0000
0000
0000
,
0100
0000
0010
0000
,
0100
0000
0100
0000
,
0000
0000
0100
0000
,
0001
0000
0001
0000
,
0000
0000
1000
0000
,
0010
0000
0000
0000
;

//--------------- dance-single - forcednature ----------------
#NOTEDATA:;
#STEPSTYPE:dance-single;
#DESCRIPTION:forcednature;
#CREDIT:forcednature;
#DIFFICULTY:Easy;
#METER:8;
#RADARVALUES:0,0,0,0,0;
#NOTES:
0000
0000
0000
0000
,
0000
0000
0000
0000
,
0000
0000
0000
0000
,
0000
0000
0000
0000
,
0000
0000
0000
0000
,
0000
0000
0000
0000
,
1000
1000
1000
0000
,
0001
0100
0010
1000
,
0001
0001
0001
0000
,
1000
0100
0010
0000
,
0110
0000
0100
0000
,
1000
0001
0100
0000
,
0010
0010
1000
0000
,
0001
0010
0100
0000
,
0110
0000
0010
0000
,
1001
0000
0100
0000
,
1000
0000
0000
1000
0000
1000
0000
0020
,
0000
0000
0030
0000
,
0100
0100
0002
0003
,
0010
0001
0010
0000
,
0100
0010
0100
0000
,
1000
0100
1000
0000
,
0010
0010
2000
3000
,
0001
0010
0001
0000
,
0100
0001
0100
0000
,
0110
0000
1001
0000
,
1000
1000
0200
0000
,
0310
0001
0010
0000
,
0002
0000
0000
0003
,
1001
0000
0110
0000
,
1000
0010
1000
0000
,
0001
0010
0001
0000
,
0100
0100
0100
0000
,
0010
0010
0010
0000
,
1001
0000
1000
0100
,
1000
0000
0100
0010
,
0100
0000
0010
0001
,
0010
0000
0001
0000
,
1001
0000
1000
0010
,
1000
0000
0010
0000
,
0100
0100
0100
0000
,
0001
0001
0001
0000
,
2002
0000
0000
3003
,
1000
0000
0001
0000
,
0100
0001
0100
0000
,
0010
1000
0010
0000
,
1001
0000
1000
0100
,
1000
0000
0100
0010
,
0100
0000
0010
0001
,
0010
0000
0001
0000
,
2002
0000
0000
3003
,
0001
0000
1000
0000
,
0100
1000
0100
0000
,
0010
0001
0010
0000
,
1001
0000
0001
0100
,
0001
0000
0100
0010
,
0100
0000
0010
1000
,
0010
0010
0010
0000
,
0100
0000
0100
0000
0100
0000
0000
0001
,
0000
0001
0000
0000
0001
0000
0000
0000
,
1001
0000
1000
0000
,
0100
1000
0100
0000
,
0010
0000
0001
0000
,
0010
0001
0010
0000
,
0001
0100
0001
0000
,
0100
0010
0100
0000
,
0010
0000
0010
0000
0000
1000
0000
2000
,
0000
0000
3000
0000
,
0001
0000
0010
0000
,
0001
0000
1000
0000
,
0001
0100
0001
0000
,
0100
0010
0100
0000
,
0010
0000
1000
0000
,
0001
0000
1000
0000
,
0100
1000
0100
0000
,
0020
0030
0002
0003
,
1000
0000
0100
1000
,
0100
0000
1000
0000
,
0001
0000
0001
0001
,
0001
0000
0001
0000
,
1001
0000
1000
0010
,
1000
0000
0001
0010
,
0001
0000
1000
0100
,
1000
0000
0001
0100
,
0000
0000
0000
0000
,
0020
0000
0000
0030
,
1000
0000
0000
1000
0000
0000
0100
0000
,
2000
3000
0002
0003
,
0100
0000
0000
0100
0000
0000
0010
0000
,
1000
0000
0001
0010
,
0001
0000
0100
0001
,
0100
0000
0010
1000
,
0010
0000
0100
0000
,
2002
0000
0000
3003
,
1000
0000
0100
0000
,
0010
0001
0010
0000
,
0001
0100
0001
0000
,
0100
0010
0100
0000
,
0010
0010
0010
0000
,
1000
1000
1000
0000
,
0001
0001
0001
0000
,
0010
0000
0010
0000
0010
0000
0000
0100
,
0000
0100
0000
0000
1000
0000
0000
0000
,
0010
0000
0010
0000
0010
0000
0000
0100
,
0000
0100
0000
0000
0001
0000
0000
0000
,
2002
0000
0000
0000
,
3003
0000
0000
0000
;

//--------------- dance-single - forcednature ----------------
#NOTEDATA:;
#STEPSTYPE:dance-single;
#DESCRIPTION:forcednature;
#CREDIT:forcednature;
#DIFFICULTY:Medium;
#METER:12;
#RADARVALUES:0,0,0,0,0;
#NOTES:
0000
0000
0000
0000
,
0000
0000
0000
0000
,
0000
0000
0000
0000
,
0000
0000
0000
0000
,
0000
0000
0000
0000
,
0000
0000
0000
0000
,
1000
0001
1000
0000
0010
0000
0100
0001
,
0000
1000
0000
0001
0010
0000
0100
0000
,
1000
0001
1000
0000
0010
0100
0000
0001
,
0000
1000
0000
0100
0010
0000
1001
0000
,
0110
0000
1000
0001
0200
0000
0010
0000
,
0301
0000
0001
1000
0200
0000
0010
0000
,
1300
0100
1000
0000
0001
0100
0001
0000
,
0010
0000
0010
0000
1000
0001
1000
0001
,
0200
0000
0001
0000
0310
0000
0010
1000
,
0200
0000
1000
0000
0310
0000
0010
0001
,
0100
0000
0010
1000
0000
0100
0000
2002
,
0000
0000
0000
3003
,
0001
0000
0101
0000
1010
0000
0000
1000
,
0000
0100
0010
0000
0001
0000
0100
0000
,
0010
0000
1000
0001
0000
0010
0001
0010
,
0100
1000
0100
0010
0000
0001
0000
0000
,
0100
0000
0110
0000
1001
0000
0000
0001
,
0000
0100
0010
1000
0010
0100
0000
0001
,
1000
0010
1000
0020
0000
0000
1030
0100
,
1000
0000
0001
0001
0000
0100
0100
0000
,
0010
0000
0110
0000
1001
0000
0001
0100
,
0000
0010
0000
1000
0000
0100
1000
0100
,
0020
0000
0001
0000
0001
0000
0130
1000
,
0001
0011
1000
1010
,
1001
0000
0001
0100
0010
0000
0100
0010
,
1000
0000
1000
0100
0010
0000
0100
0010
,
0001
0000
0001
0001
0000
0100
0100
0000
,
0010
0000
0010
1000
0000
0001
1000
0000
,
0002
0203
2300
3200
,
0302
0000
0023
0000
2030
0000
3010
0100
,
0010
0000
0001
0010
0001
0010
0100
1000
,
0000
0010
0000
0110
0000
0100
0001
1000
,
0001
0000
0010
0000
0100
1000
0100
1000
,
0001
0000
0001
0100
0000
0100
0010
0000
,
1000
0100
0010
0000
0001
0100
0010
0000
,
1000
0001
1000
0001
0000
0010
0100
1000
,
0020
0001
0100
1030
,
0010
0000
0010
0100
0000
0100
0001
0000
,
0010
0000
0100
1000
0002
0000
0003
0000
,
0100
0000
0100
0010
0000
1000
0000
0001
,
0010
0100
1000
0100
0000
0010
0000
0000
,
1001
0000
0001
0100
0000
0010
0000
1000
,
0001
0000
0010
0100
0000
1000
0010
0000
,
1001
0000
1000
1000
0000
0001
0001
0000
,
0200
1000
0010
0301
,
0100
0000
0100
0001
0000
0001
0010
0000
,
0100
0000
1000
0001
0200
0000
0300
0000
,
0010
0000
1000
0100
0000
0010
0000
0001
,
0100
0001
0100
0001
0010
0000
0010
0000
,
0100
0000
1000
0001
0000
0100
0000
0010
,
1000
0010
1000
0001
0000
0010
0000
0100
,
1000
0010
1000
0000
0001
0010
0001
0000
,
0100
0001
0100
0001
1000
0010
0000
1000
,
0000
1000
0000
0100
0010
0000
0110
0000
,
1001
0000
1000
0100
0020
0000
0100
0000
,
0031
0000
0001
0100
0020
0000
0100
0000
,
1030
0000
1000
0100
0000
0100
0010
0000
,
0001
0000
0001
0100
0000
0100
0010
0000
,
0110
0000
1000
0000
0001
0010
0001
0000
,
0110
0000
0001
0000
1000
0010
1000
0000
,
1001
0000
0100
0010
0000
0110
0000
2002
,
0000
0000
3003
0000
,
1001
0001
0100
0001
,
1000
0100
1000
0001
,
0200
0000
0000
0320
0000
0000
1030
0000
,
0001
0000
0001
0010
0000
0100
1000
0000
,
1001
0001
0010
0001
,
1000
0100
1000
0001
,
0100
0001
0100
0000
0100
0000
0001
2000
,
0000
0000
0000
3020
0000
0100
0030
0100
,
0002
0023
2030
3020
,
0032
0203
2300
3200
,
0301
0000
0001
0010
0000
0100
1000
0000
,
1000
0000
1000
0010
0000
0100
0001
0000
,
1000
0000
0001
0000
0010
0100
0010
0000
,
0001
0000
1000
0000
0010
0100
0010
0000
,
1000
0100
1000
0000
0001
0100
0001
0000
,
0010
0100
0010
0000
0001
0000
0001
1000
,
0000
0000
0000
0000
,
2002
0000
0000
3003
,
0002
0000
0000
0203
0000
0000
0320
0000
,
2030
0000
0000
3000
0002
0000
0000
0003
,
0020
0000
0000
0032
0000
0000
0103
0000
,
0010
1000
0010
1000
0000
0001
0000
0100
,
0001
0000
1000
0100
0000
0010
0000
0001
,
0010
0000
0001
1000
0000
0001
0100
0000
,
0110
0000
0010
1000
0000
1000
0001
0000
,
0020
1000
0100
0031
,
0010
0000
0100
1000
0000
1000
0010
0000
,
0100
0000
0001
1000
0002
0000
0003
0000
,
0010
0000
0100
1000
0000
0001
0000
1000
,
0010
1000
0010
0000
0100
0000
0100
0000
,
0110
0000
0100
0001
0000
0010
0000
0001
,
1000
0001
1000
0010
0000
1000
0000
0001
,
0100
0001
0100
0000
0010
1000
0010
0000
,
1000
0100
1000
0100
0010
0001
0000
0001
,
0000
0100
0000
0010
1000
0000
1001
0000
,
0001
0100
0001
0100
0010
1000
0000
1000
,
0000
0100
0000
0010
0001
0000
0100
0000
,
2002
0000
0000
0000
,
3003
0000
0000
0000
;

//--------------- dance-single - forcednature ----------------
#NOTEDATA:;
#STEPSTYPE:dance-single;
#DESCRIPTION:forcednature;
#CREDIT:forcednature;
#DIFFICULTY:Hard;
#METER:15;
#RADARVALUES:0,0,0,0,0;
#NOTES:
0000
0000
0000
0000
,
0000
0000
0000
0000
,
0000
0000
0000
0000
,
0000
0000
0000
0000
,
0000
0000
0000
0000
,
0000
0000
0000
0000
,
1000
0100
0010
0001
0011
0000
0001
0100
,
0000
0010
1000
0010
1000
0000
0100
1000
,
0100
0010
0001
1000
0001
0100
0000
0110
,
0000
1001
0000
0010
0110
0000
1001
0000
,
1000
0100
0001
0200
0000
1000
1300
0000
,
1000
0010
0001
0020
0000
1000
1030
0010
,
0200
0000
0301
0020
0000
0130
2000
0000
,
3001
0100
0010
0200
0000
0301
1000
0001
,
1001
0000
1000
0100
0010
0001
0100
0010
,
1001
0000
0001
0100
0010
1000
0100
0010
,
1001
0000
0000
0010
0100
0000
1001
0000
0000
0000
0110
0000
0000
0000
2002
0000
,
0000
0000
0000
3003
,
1100
0000
0101
0000
1100
0000
1000
0010
,
0100
0010
0001
0010
0100
0001
0010
0001
,
1000
0010
1000
0100
0001
0100
0010
0001
,
1000
0010
0100
0002
0000
0010
0003
0000
,
0011
0000
1010
0000
0011
0000
0001
0100
,
0010
1000
0100
1000
0001
0100
0001
0010
,
0100
0001
0100
1000
0010
1000
0001
0010
,
0110
0000
0000
0000
0100
0000
0100
0000
0000
0000
1000
0000
1000
0000
0001
1000
,
0001
0000
0110
0000
1001
0000
0001
0100
,
0010
1000
0001
0100
1000
0100
0010
1000
,
0200
0000
0001
0000
1300
0000
0100
0010
,
0001
0100
0101
0000
1000
0100
1100
0000
,
1001
0000
0001
0010
0001
0100
1000
0100
,
0101
0000
1000
0010
1000
0100
0001
0100
,
1100
0000
0010
0110
0000
0001
1000
1000
,
0001
0000
0100
0000
0100
0000
0010
0000
0000
0000
1000
0000
0001
1000
0001
1000
,
0001
0000
0000
0001
0010
0000
0000
0010
0100
0000
0000
0100
1000
0000
0000
1000
,
0001
0000
0000
0001
0100
0000
0000
0100
0010
0000
0000
0010
1000
0000
0001
0000
,
1001
0000
1000
0100
0010
0001
0100
0001
,
0010
0100
0110
0000
1000
0001
1001
0000
,
0110
0000
0001
0100
1000
0100
0001
0010
,
0011
0000
1000
0100
0001
0100
1000
0010
,
1010
0000
0001
0010
0011
0000
1000
0010
,
1000
1000
0100
0100
0010
0010
0001
1000
,
0010
0000
1000
0010
1000
0000
0010
0100
0010
0000
0100
0001
0100
0000
0000
0000
,
0011
0000
0010
0100
0000
0001
0100
1000
,
0001
0000
0001
0100
2200
0000
3300
0000
,
0100
0001
0010
0001
0000
1000
1000
0010
,
0110
0100
0001
1000
0000
0001
0010
0100
,
0110
0000
0010
0001
1000
0010
0100
0001
,
0011
0000
0000
0000
0100
0000
1000
0000
1010
0000
0000
0010
0100
0000
0001
0000
,
1001
0000
1000
1100
0000
0001
0100
0010
,
1000
0000
0100
1000
0100
0000
0010
0100
0010
0000
0001
0010
0001
0000
0000
0000
,
0101
0000
0100
1000
0000
0100
0001
0010
,
1000
0000
0001
0100
0202
0000
0303
0000
,
0100
1000
0010
1000
0000
0100
0100
0010
,
0011
0001
0100
0001
0010
0001
0100
0001
,
1001
0000
1000
1000
0010
0010
0100
0001
,
0011
0010
0100
0001
0100
1000
1000
0010
,
0100
0001
0100
0000
0001
0010
0001
0000
1000
0010
1000
0000
0200
0000
0000
0000
,
0310
0010
0100
0100
0010
0110
0000
1100
,
0000
0101
0000
0010
0110
0000
1001
0000
,
0001
0100
1000
0200
0000
0001
0301
0000
,
0001
0010
1000
0020
0000
0001
0031
0010
,
0200
0000
1300
0020
0000
0130
0002
0000
,
1003
0100
0010
0200
0000
1300
0001
1000
,
1001
0000
0001
0100
1000
0100
0001
0010
,
1001
0000
1000
0100
0001
0100
1000
0010
,
1001
0000
0000
0010
0100
0000
1001
0000
0000
0000
0110
0000
0000
0000
2002
0000
,
0000
0000
0000
3003
,
1001
0002
0203
0320
,
2030
3200
0320
0230
,
2300
0000
0000
3002
0000
0103
0001
0100
,
0010
1000
0001
1000
0000
0100
0010
0100
,
0000
2000
3002
0203
,
0320
2030
3002
0023
,
0130
1000
0010
1000
0001
0010
0001
0200
,
0000
0000
0000
0020
0000
0000
0330
0000
,
1001
0000
0000
1000
0100
0000
0000
0100
0010
0000
0000
0010
0001
0000
0000
0001
,
0100
0000
0000
0100
0010
0000
0000
0010
1000
0000
0000
1000
0001
0000
0000
0000
,
1001
0000
0001
0011
0000
0010
0100
1000
,
0001
1000
0010
1010
0000
1000
1000
0001
,
0011
0000
0010
0100
2000
0000
3010
0010
,
1010
0000
0001
0100
0000
0001
0010
0100
,
0010
0001
0010
0000
0001
0000
0100
0000
0010
1000
0010
0000
1000
0000
0100
0000
,
1000
0010
1000
0000
0001
0010
0001
0000
1000
0100
1000
0000
0001
0000
0100
0000
,
0000
0000
0000
0000
,
2002
0000
0000
3003
,
2000
0000
0000
3200
0000
0000
0320
0000
,
0032
0000
0000
0103
0002
0000
0003
0000
,
2000
0000
3100
2000
0000
3020
0000
0130
,
0110
0010
1000
0001
1000
0100
0010
0001
,
0021
0000
1030
0010
0001
1000
0001
0100
,
0110
0000
0010
1000
0001
1000
0100
0100
,
0110
0000
0010
1001
0000
0001
0100
0010
,
1000
0000
0001
0010
0001
0000
0010
0100
0010
0000
0100
1000
0100
0000
0000
0000
,
1010
0000
0010
0001
0000
0010
1000
0001
,
0100
0000
0001
0010
2020
0000
3030
0000
,
0010
0100
1000
0100
0000
0010
0010
0001
,
0101
0100
0010
1000
0010
0100
0100
0001
,
1001
1000
0100
0100
0010
0010
0001
0001
,
0101
0100
0010
0010
1000
1000
0001
0001
,
1000
0100
1000
0000
0001
0100
0001
0000
0010
0100
0010
0000
0002
0000
0000
0000
,
0103
0100
0010
0010
0100
0101
0000
1100
,
0000
1001
0000
0010
0110
0000
1001
0000
,
0010
0010
0100
0100
0010
0011
0000
1010
,
0000
1001
0000
0100
0110
0000
1001
0000
,
0220
0000
0000
0000
,
0330
0000
0000
0000
;

//--------------- dance-single - forcednature ----------------
#NOTEDATA:;
#STEPSTYPE:dance-single;
#DESCRIPTION:forcednature;
#CREDIT:forcednature;
#DIFFICULTY:Challenge;
#METER:17;
#RADARVALUES:0,0,0,0,0;
#NOTES:
0000
0000
0000
0000
,
0000
0000
0000
0000
,
0000
0000
0000
0000
,
0000
0000
0000
0000
,
0000
0000
0000
0000
,
0000
0000
0000
0000
,
0001
0000
0100
0000
0001
0000
1000
0000
0010
0000
1000
0001
1000
0000
0100
0000
,
0000
0000
0010
0000
0010
0000
0010
0000
0010
0000
0001
1000
0001
0000
0100
0000
,
0010
1000
0001
1000
0100
0001
0000
0110
,
0000
0000
1000
0100
0010
0001
0100
0010
2000
0000
0001
0000
3001
0000
0000
0000
,
1001
0000
0000
0001
0100
0000
0010
0000
1000
0000
0001
0000
1000
0000
1000
0000
,
0100
0000
0000
0010
0001
0000
0100
0000
0010
0000
1000
0000
0001
0000
0001
0000
,
0010
0000
0100
0000
0001
0000
0100
0000
0000
0000
1000
0100
1000
0000
0000
0000
,
0001
0000
1000
0010
1000
0000
0001
0000
0010
0000
0100
0010
0001
0000
1000
0000
,
1001
0000
0001
0000
0100
0000
0020
0000
0000
0000
1030
0010
1000
0000
0001
0010
,
0001
0000
0100
0000
0010
0000
2000
0000
0000
0000
3100
1000
0100
0000
0010
0001
,
0010
0000
0001
1000
0001
0000
0100
0000
0000
0000
0101
0000
0000
0000
2200
0000
,
0000
0000
0000
3300
,
0011
0000
0101
0000
0110
0000
1000
0020
,
0000
0130
0002
0000
0013
0000
0100
0000
,
0110
0000
1000
0001
0000
0100
1000
0100
,
0001
0010
0010
0010
0000
1001
0000
0000
,
1100
0000
0101
0000
1001
0000
1000
0020
,
0000
1030
0001
0100
1000
0100
0000
0010
,
1000
0001
0010
0200
0000
0000
0010
1300
,
1100
0000
0000
0000
0101
0000
0101
0000
0000
0000
1000
0000
0001
0000
1000
0001
,
1000
0000
0010
0000
0201
0000
1300
0100
,
0001
0000
0010
0000
0100
0000
1000
0000
0000
0000
0001
0100
0001
0000
1000
0000
,
0200
0000
0001
0000
1000
0000
0310
0100
,
1000
0000
1000
0000
1100
0000
0000
0000
0001
0000
0001
0000
0101
0000
0001
1000
,
0001
0000
0010
1000
0010
0001
0100
0010
,
0110
0000
0100
0000
0001
0000
1000
0000
0100
0000
0100
0000
0010
0000
0010
0001
,
0010
0000
0000
0000
0001
0000
0101
0000
0000
0000
1010
0000
1000
0001
1000
0001
,
1000
0000
0100
0000
0010
0000
0001
0100
0010
0000
1000
0000
0001
0010
0001
0010
,
0001
0101
1100
1010
,
0011
0000
0000
0000
0110
0000
0000
0000
1001
0000
0000
0001
0010
0000
0100
0000
,
1100
0000
1000
0001
0100
1000
0100
0001
,
0010
0000
0010
0000
1001
0000
0000
0000
1000
0000
0001
0100
0010
0000
1000
0100
,
0010
0000
0001
0001
0100
1000
0100
0010
,
1001
0000
1000
0200
0000
1300
0010
0000
,
0101
0001
1000
0010
1100
1000
0001
0010
,
0001
0100
0001
0100
0001
1000
0001
1000
0100
1000
0100
1000
0100
0000
0010
0000
,
0200
0000
1000
0001
0000
0000
0001
1000
0000
0000
1000
0001
0300
0000
0000
0000
,
0110
0000
0000
0000
0001
0000
1000
0000
0010
0000
1000
0001
1000
0000
0000
0000
,
0001
0010
1000
0010
0100
1000
0010
0100
,
0010
0000
0001
0000
1000
0000
0100
0000
0000
0000
0001
0100
0001
0000
0010
0000
,
1001
0000
0001
0000
1000
0000
0010
0000
0100
0000
0001
0010
0001
0000
0000
0000
,
1001
0000
1000
0000
0001
0000
0010
0000
0001
0000
1000
0010
1000
0000
1000
0000
,
1001
0000
0000
0000
0001
0000
0100
0000
1000
0000
0100
0001
0100
0000
0010
0000
,
1001
0000
0001
0101
0000
1000
1100
1000
,
0020
0000
1000
0001
0000
0000
0001
1000
0000
0000
1000
0001
0030
0000
0000
0000
,
0110
0000
0000
0000
0001
0000
1000
0000
0010
0000
0100
0001
0100
0000
0000
0000
,
0001
0010
1000
0001
1000
0010
0100
1000
,
0010
0000
0100
0000
1000
0000
0100
0000
0000
0000
0001
1000
0001
0000
0010
0001
,
0010
0000
0100
0000
0001
0000
0100
0000
1000
0000
0010
1000
0010
0000
0100
0001
,
0100
0100
0010
0010
1000
1000
0001
0001
,
0011
0000
0010
0001
0100
0000
0010
1000
0100
0000
1000
0010
0100
0001
0100
0001
,
1000
0100
0010
0001
0100
0010
1000
0001
0100
0001
1000
0100
0010
0001
1000
0010
,
0100
0100
0001
0001
1000
1001
0000
0101
,
0000
1100
0000
1001
1001
0000
0110
0000
,
0201
0000
1300
0100
0002
0010
1003
0000
,
0001
0000
1000
0010
2000
0000
0100
0000
3010
0000
1000
0001
1000
0000
0100
0000
,
0010
0001
0010
1000
0001
0100
1000
0010
,
0100
0000
0001
1000
0010
0000
0100
0000
0001
0000
0010
0100
0010
0000
0010
0000
,
2001
0000
0100
0000
0001
0000
0010
0000
3000
0000
1000
0001
1000
0000
0010
0000
,
1002
0000
0100
0000
1000
0000
0010
0000
0003
0000
0001
1000
0001
0000
0010
0000
,
1001
0000
1000
0100
1000
0000
0010
0000
0000
0000
0101
0000
0000
0000
2002
0000
,
0000
0000
3003
0000
,
1001
0002
0203
2300
,
3100
0100
0001
0010
0010
0000
1001
0000
,
2200
0000
3300
0021
0000
0031
1000
0010
,
0001
0010
1000
0100
0000
0010
1000
0010
,
1001
2000
3020
0032
,
0013
0010
1000
0100
0100
0000
1001
0000
,
1000
0100
1000
0010
0001
1000
0100
0002
,
0010
0000
0010
0000
1000
0000
1000
0000
0103
0000
0100
0001
0100
0000
0010
1000
,
0010
0000
0000
0000
1000
0000
0000
1000
0100
0000
0000
0100
0001
0000
0000
0001
,
0100
0000
0000
0100
0010
0000
0000
0010
1000
0000
0000
1000
0010
0000
0000
0000
,
0110
0000
1000
1001
0000
0001
0101
0001
,
0010
0000
1000
0000
0010
0000
0100
0000
0000
0000
1000
0010
0100
0000
0001
0010
,
0100
0000
1000
0001
0200
0000
1000
1000
,
0301
0000
1000
0001
0000
0010
0100
1000
,
1100
1000
0010
1000
0101
0100
0001
0010
,
0100
1000
0100
1000
0001
0100
0001
0100
0001
1000
0001
1000
0001
1000
0001
1000
,
0000
0000
0000
0000
,
2002
0000
0000
0003
,
0200
3000
0000
0002
0300
0000
2003
0000
,
0020
3000
0000
0032
2000
0000
0003
0000
,
3020
0000
0032
2003
0000
3200
0000
0302
,
0013
0000
0100
0000
1000
0000
0010
0000
0100
0000
0001
1000
0001
0000
0010
0000
,
0100
0000
0000
0000
0001
0000
0100
0000
1000
0000
0010
0100
0010
0000
0010
0000
,
1001
0000
0000
0000
1000
0000
0100
0000
0010
0000
0001
0100
0001
0000
0001
0000
,
1001
0000
1000
1100
0000
0001
0101
0001
,
0020
0000
0001
1000
0000
0000
1000
0001
0000
0000
0001
1000
0030
0000
0000
0000
,
0110
0000
0000
0000
1000
0000
0001
0000
1000
0000
0010
0100
0010
0000
0000
0000
,
1000
0100
0001
1000
0001
1000
0010
0001
,
0100
0000
1000
0000
0100
0000
0001
0000
0000
0000
1000
0100
0010
0000
0001
0100
,
0010
0000
0001
0000
0010
0000
1000
0000
0100
0000
0010
0001
0010
0000
0100
1000
,
0100
0100
0010
0010
0001
0001
1000
1000
,
1010
0000
0010
1000
0001
0000
0010
0001
1000
0000
0010
0100
0001
1000
0001
1000
,
0010
1000
0100
0010
0001
0100
0010
1000
0100
1000
0001
0100
0001
0010
0100
1000
,
0010
0010
0100
0100
0001
1001
0000
0110
,
0000
1100
0000
0101
0101
0000
0110
0000
,
1000
1000
0010
0010
0100
0101
0000
0011
,
0000
1100
0000
1001
1001
0000
0100
0000
,
1001
0000
0000
0000
;

//--------------- dance-double - forcednature ----------------
#NOTEDATA:;
#STEPSTYPE:dance-double;
#DESCRIPTION:forcednature;
#CREDIT:forcednature;
#DIFFICULTY:Easy;
#METER:8;
#RADARVALUES:0,0,0,0,0;
#NOTES:
00000000
00000000
00000000
00000000
,
00000000
00000000
00000000
00000000
,
00000000
00000000
00000000
00000000
,
00000000
00000000
00000000
00000000
,
00000000
00000000
00000000
00000000
,
00000000
00000000
00000000
00000000
,
00001000
00001000
00001000
00000000
,
00010000
00000100
00010000
00001000
,
00100000
00100000
00100000
00000000
,
00010000
10000000
00100000
00000000
,
01100000
00000000
01000000
00000000
,
00001000
00010000
00000100
00000000
,
00001000
00001000
00000001
00000000
,
00000100
00000010
00001000
00000000
,
00001001
00000000
00000010
00000000
,
00000110
00000000
00000100
00000000
,
00000001
00000000
00000000
00000001
00000000
00000001
00000000
00000020
,
00000000
00000000
00000030
00000000
,
00000100
00000100
00020000
00030000
,
00001000
00010000
00001000
00000000
,
01000000
00010000
01000000
00000000
,
00010000
10000000
00010000
00000000
,
00100000
00100000
02000000
03000000
,
10000000
01000000
10000000
00000000
,
01000000
00100000
01000000
00000000
,
01100000
00000000
10010000
00000000
,
00010000
00010000
02000000
00000000
,
03001000
00010000
00001000
00000000
,
00020000
00000000
00000000
00030000
,
00011000
00000000
00011000
00000000
,
00000100
00001000
00000100
00000000
,
00000010
00000100
00000010
00000000
,
00000001
00000001
00000001
00000000
,
00000100
00000100
00000100
00000000
,
00001001
00000000
00001000
00000010
,
00001000
00000000
00000010
00010000
,
00000010
00000000
00010000
00001000
,
00010000
00000000
00001000
00000000
,
00011000
00000000
00001000
00100000
,
00001000
00000000
00100000
00000000
,
00010000
00010000
00010000
00000000
,
10000000
10000000
10000000
00000000
,
20020000
00000000
00000000
30030000
,
00010000
00000000
01000000
00000000
,
00001000
00010000
00001000
00000000
,
00010000
00001000
00010000
00000000
,
00011000
00000000
00000100
00001000
,
00000100
00000000
00000010
00000100
,
00000010
00000000
00000001
00000010
,
00000001
00000000
00000100
00000000
,
00002002
00000000
00000000
00003003
,
00001000
00000000
00000010
00000000
,
00010000
00001000
00010000
00000000
,
00001000
00100000
00001000
00000000
,
00011000
00000000
00001000
01000000
,
00001000
00000000
01000000
00010000
,
01000000
00000000
00010000
10000000
,
00010000
00010000
00010000
00000000
,
00100000
00000000
00100000
00000000
00100000
00000000
00000000
01000000
,
00000000
01000000
00000000
00000000
01000000
00000000
00000000
00000000
,
10010000
00000000
00010000
00000000
,
01000000
00010000
01000000
00000000
,
00001000
00000000
00010000
00000000
,
00001000
00010000
00001000
00000000
,
00010000
00000100
00010000
00000000
,
00000100
00001000
00000100
00000000
,
00000010
00000000
00000010
00000000
00000000
00000001
00000000
00000002
,
00000000
00000000
00000003
00000000
,
00000100
00000000
00000010
00000000
,
00001000
00000000
00000010
00000000
,
00010000
00001000
00010000
00000000
,
00001000
00010000
00001000
00000000
,
00100000
00000000
00010000
00000000
,
10000000
00000000
00010000
00000000
,
01000000
00001000
01000000
00000000
,
00002000
00003000
00020000
00030000
,
00000100
00000000
00001000
00000100
,
00001000
00000000
00000001
00000000
,
00001000
00000000
00001000
00001000
,
00001000
00000000
00001000
00000000
,
00001001
00000000
00000001
00000100
,
00000001
00000000
00000100
00000010
,
00000100
00000000
00000010
00001000
,
00000010
00000000
00010000
00001000
,
00000000
00000000
00000000
00000000
,
00200000
00000000
00000000
00300000
,
00010000
00000000
00000000
00010000
00000000
00000000
10000000
00000000
,
00020000
00030000
02000000
03000000
,
00100000
00000000
00000000
00100000
00000000
00000000
10000000
00000000
,
00100000
00000000
01000000
00010000
,
01000000
00000000
00001000
00010000
,
00001000
00000000
00010000
00000100
,
00010000
00000000
00000100
00000000
,
00002002
00000000
00000000
00003003
,
00000001
00000000
00000100
00000000
,
00000010
00001000
00000010
00000000
,
00010000
00001000
00010000
00000000
,
00001000
00100000
00001000
00000000
,
00100000
00100000
00100000
00000000
,
01000000
01000000
01000000
00000000
,
10000000
10000000
10000000
00000000
,
00010000
00000000
00010000
00000000
00010000
00000000
00000000
01000000
,
00000000
01000000
00000000
00000000
00001000
00000000
00000000
00000000
,
00010000
00000000
00010000
00000000
00010000
00000000
00000000
00000100
,
00000000
00000100
00000000
00000000
00001000
00000000
00000000
00000000
,
00002002
00000000
00000000
00000000
,
00003003
00000000
00000000
00000000
;

//--------------- dance-double - forcednature ----------------
#NOTEDATA:;
#STEPSTYPE:dance-double;
#DESCRIPTION:forcednature;
#CREDIT:forcednature;
#DIFFICULTY:Medium;
#METER:12;
#RADARVALUES:0,0,0,0,0;
#NOTES:
00000000
00000000
00000000
00000000
,
00000000
00000000
00000000
00000000
,
00000000
00000000
00000000
00000000
,
00000000
00000000
00000000
00000000
,
00000000
00000000
00000000
00000000
,
00000000
00000000
00000000
00000000
,
00001000
00010000
00001000
00000000
01000000
00000000
00010000
10000000
,
00000000
00010000
00000000
00100000
01000000
00000000
00100000
00000000
,
00001000
00010000
00001000
00000000
00010000
00000010
00000000
00001000
,
00000000
00000010
00000000
00000100
00000001
00000000
00000011
00000000
,
00001100
00000000
00000100
00010000
00002000
00000000
01000000
00000000
,
00013000
00000000
00010000
00001000
00200000
00000000
00010000
00000000
,
01300000
00100000
01000000
00000000
10000000
01000000
10000000
00000000
,
00010000
00000000
00010000
00000000
01000000
00001000
01000000
00001000
,
00020000
00000000
00000100
00000000
00031000
00000000
00001000
00010000
,
00000020
00000000
00001000
00000000
00000130
00000000
00000100
00000001
,
00001000
00000000
00000100
00010000
00000000
00001000
00000000
00022000
,
00000000
00000000
00000000
00033000
,
00001000
00000000
01001000
00000000
10010000
00000000
00000000
10000000
,
00000000
01000000
00100000
00000000
00001000
00000000
00010000
00000000
,
00000100
00000000
00001000
00000001
00000000
00000001
00000100
00000010
,
00001000
00000010
00000100
00000001
00000000
00000010
00000000
00000000
,
00000100
00000000
00000110
00000000
00001001
00000000
00000000
00001000
,
00000000
00000100
00010000
00001000
00100000
00001000
00000000
00010000
,
00000010
00010000
00001000
02000000
00000000
00000000
03010000
10000000
,
00010000
00000000
00100000
00100000
00000000
01000000
01000000
00000000
,
10000000
00000000
10010000
00000000
01001000
00000000
00001000
00010000
,
00000000
00000100
00000000
00010000
00000000
00001000
00100000
00001000
,
00020000
00000000
00000010
00000000
00000010
00000000
00031000
01000000
,
00010000
00110000
10000000
10100000
,
10010000
00000000
00010000
01000000
00001000
00000000
00010000
00000100
,
00001000
00000000
00001000
00000001
00000100
00000000
00000001
00001000
,
00000010
00000000
00010000
00010000
00000000
00001000
00001000
00000000
,
00100000
00000000
00100000
00010000
00000000
10000000
00010000
00000000
,
02000000
03002000
00023000
00032000
,
00203000
00000000
00320000
00000000
00230000
00000000
00301000
00010000
,
00001000
00000000
00010000
00000010
00010000
00000010
00001000
00000001
,
00000000
00000010
00000000
00000110
00000000
00000100
00001000
00000100
,
00010000
00000000
00001000
00000000
01000000
00010000
01000000
00010000
,
10000000
00000000
10000000
01000000
00000000
01000000
00100000
00000000
,
00001000
00010000
00000010
00000000
00010000
00001000
00100000
00000000
,
00010000
10000000
00010000
10000000
00000000
00100000
01000000
00001000
,
00020000
00000100
00001000
00030010
,
00010000
00000000
00010000
00000100
00000000
00000100
00001000
00000000
,
00000001
00000000
00000100
00000010
00002000
00000000
00003000
00000000
,
00000100
00000000
00000100
00010000
00000000
00001000
00000000
01000000
,
00010000
01000000
00100000
10000000
00000000
01000000
00000000
00000000
,
01100000
00000000
00100000
00001000
00000000
00010000
00000000
00000010
,
00001000
00000000
00000100
00000010
00000000
00000001
00000100
00000000
,
00000110
00000000
00000010
00000010
00000000
00010000
00010000
00000000
,
00002000
01000000
00010000
00103000
,
00001000
00000000
00001000
01000000
00000000
01000000
00010000
00000000
,
10000000
00000000
01000000
00100000
00020000
00000000
00030000
00000000
,
01000000
00000000
00001000
00010000
00000000
00000100
00000000
00001000
,
00000010
00001000
00000010
00001000
00000001
00000000
00000001
00000000
,
00000010
00000000
00000100
00010000
00000000
00001000
00000000
01000000
,
00010000
01000000
00010000
10000000
00000000
01000000
00000000
00100000
,
00010000
01000000
00010000
00000000
00100000
00001000
00100000
00000000
,
00010000
01000000
00010000
01000000
00001000
00010000
00000000
00000100
,
00000000
00000100
00000000
00000010
00000001
00000000
00001001
00000000
,
00010100
00000000
00010000
00001000
00200000
00000000
00010000
00000000
,
01300000
00000000
10000000
00010000
02000000
00000000
00100000
00000000
,
03010000
00000000
01000000
00001000
00000000
00001000
00010000
00000000
,
00000100
00000000
00000100
00001000
00000000
00001000
00000001
00000000
,
00001001
00000000
00001000
00000000
00000010
00010000
00000010
00000000
,
00000110
00000000
00000100
00000000
00000001
00001000
00000001
00000000
,
00000011
00000000
00000010
00000100
00000000
00010100
00000000
02002000
,
00000000
00000000
03003000
00000000
,
10010000
10000000
01000000
00100000
,
00001000
00010000
00000010
00001000
,
00000002
00000000
00000000
00000023
00000000
00000000
00000130
00000000
,
00010000
00000000
00010000
00001000
00000000
01000000
00010000
00000000
,
10010000
10000000
00100000
10000000
,
01000000
00100000
01000000
00010000
,
00001000
00010000
00001000
00000000
00001000
00000000
00010000
00000020
,
00000000
00000000
00000000
00002030
00000000
00000001
00000000
00003001
,
00000000
00002000
00003200
00020300
,
00032000
02003000
03020000
00230000
,
01300000
00000000
01000000
10000000
00000000
00100000
10000000
00000000
,
01000000
00000000
01000000
00100000
00000000
00001000
00100000
00000000
,
00010000
00000000
01000000
00000000
00001000
00010000
00001000
00000000
,
00010000
00000000
00000100
00000000
00001000
00000001
00001000
00000000
,
00000010
00001000
00000010
00000000
00010000
00001000
00010000
00000000
,
00001000
00100000
00001000
00000000
00100000
00000000
00100000
01000000
,
00000000
00000000
00000000
00000000
,
20020000
00000000
00000000
30030000
,
00020000
00000000
00000000
02030000
00000000
00000000
03002000
00000000
,
00023000
00000000
00000000
00030000
00000200
00000000
00000000
00000300
,
00002000
00000000
00000000
00003002
00000000
00000000
00000103
00000000
,
00000010
00001000
00000010
00001000
00000000
00000001
00000000
00000010
,
00000100
00000000
00001000
00000100
00000000
00010000
00000000
00001000
,
01000000
00000000
00010000
01000000
00000000
00100000
10000000
00000000
,
10010000
00000000
00010000
00100000
00000000
00100000
00001000
00000000
,
00020000
00000100
00001000
00030010
,
00010000
00000000
00001000
01000000
00000000
01000000
00010000
00000000
,
10000000
00000000
01000000
00100000
02000000
00000000
03000000
00000000
,
00100000
00000000
00010000
00100000
00000000
00001000
00000000
00010000
,
00000010
00010000
00000010
00000000
00001000
00000000
00001000
00000000
,
00001001
00000000
00000001
00000010
00000000
00000100
00000000
00010000
,
00001000
00010000
00001000
01000000
00000000
00010000
00000000
10000000
,
01000000
10000000
01000000
00000000
00100000
00010000
00100000
00000000
,
00001000
00010000
00001000
00010000
00000010
00001000
00000000
00001000
,
00000000
00000100
00000000
00000010
00000001
00000000
00001001
00000000
,
00001000
00000010
00001000
00000010
00010000
00001000
00000000
00001000
,
00000000
00100000
00000000
00010000
10000000
00000000
00100000
00000000
,
20020000
00000000
00000000
00000000
,
30030000
00000000
00000000
00000000
;

//--------------- dance-double - forcednature ----------------
#NOTEDATA:;
#STEPSTYPE:dance-double;
#DESCRIPTION:forcednature;
#CREDIT:forcednature;
#DIFFICULTY:Hard;
#METER:15;
#RADARVALUES:0,0,0,0,0;
#NOTES:
00000000
00000000
00000000
00000000
,
00000000
00000000
00000000
00000000
,
00000000
00000000
00000000
00000000
,
00000000
00000000
00000000
00000000
,
00000000
00000000
00000000
00000000
,
00000000
00000000
00000000
00000000
,
00001000
01000000
00010000
01000000
01100000
00000000
00100000
10000000
,
00000000
01000000
00100000
01000000
00100000
00000000
00010000
00100000
,
00001000
00010000
00000010
00001000
00000010
00000100
00000000
00000110
,
00000000
00001001
00000000
00000100
00000110
00000000
00001001
00000000
,
00001000
00000100
00000010
00000200
00000000
00010000
00010300
00000000
,
00001000
01000000
00100000
02000000
00000000
00010000
03010000
01000000
,
00200000
00000000
10300000
00020000
00000000
10030000
02000000
00000000
,
03100000
00010000
00100000
00002000
00000000
00013000
00000010
00010000
,
00011000
00000000
00001000
00100000
00010000
01000000
00001000
00010000
,
00011000
00000000
00010000
00000010
00001000
00000100
00010000
00001000
,
00011000
00000000
01000000
00100000
00000000
01100000
00000000
20020000
,
00000000
00000000
00000000
30030000
,
11000000
00000000
01010000
00000000
11000000
00000000
10000000
00100000
,
01000000
00100000
00010000
00001000
00010000
00000100
00001000
00000100
,
00000010
00001000
00000010
00000100
00001000
00000001
00000100
00000001
,
00000010
00000100
00001000
00000200
00000000
00010000
00000300
00000000
,
00000011
00000000
00001010
00000000
00000011
00000000
00000001
00000100
,
00000010
00001000
00000100
00001000
00000010
00010000
00001000
00010000
,
00100000
01000000
00010000
01000000
00100000
10000000
00010000
10000000
,
11000000
00000000
00000000
00000000
01000000
00000000
01000000
00000000
00000000
00000000
00100000
00000000
00100000
00000000
00010000
00100000
,
00010000
00000000
10010000
00000000
01100000
00000000
00010000
01000000
,
00001000
00010000
00000100
00001000
00000100
00000010
00000001
00001000
,
00000020
00000000
00000001
00000000
00001030
00000000
00000010
00010000
,
00001000
01000000
01001000
00000000
00010000
00000100
00010100
00000000
,
00011000
00000000
00001000
00100000
00010000
10000000
00010000
01000000
,
01001000
00000000
00010000
00000010
00001000
00000001
00001000
00000100
,
00010100
00000000
00001000
00011000
00000000
01000000
00010000
00010000
,
01000000
00000000
00100000
00000000
00100000
00000000
10000000
00000000
00000000
00000000
10000000
00000000
00010000
10000000
00010000
10000000
,
00010000
00000000
00000000
00010000
00100000
00000000
00000000
00100000
00001000
00000000
00000000
00001000
00010000
00000000
00000000
00010000
,
00000010
00000000
00000000
00000010
00001000
00000000
00000000
00001000
00000100
00000000
00000000
00000100
00000010
00000000
00000001
00000000
,
00001001
00000000
00001000
00000010
00010000
00001000
00100000
00010000
,
01000000
00100000
01100000
00000000
10000000
00010000
10010000
00000000
,
01100000
00000000
10000000
01000000
00010000
01000000
00100000
00001000
,
00011000
00000000
00010000
00000010
00000100
00000010
00001000
00000001
,
00000011
00000000
00001000
00000100
00001100
00000000
00010000
00001000
,
00010000
00010000
00001000
00001000
01000000
01000000
00010000
10000000
,
01000000
00000000
10000000
01000000
10000000
00000000
01000000
00100000
01000000
00000000
00100000
00010000
00100000
00000000
00000000
00000000
,
00110000
00000000
00010000
01000000
00000000
00001000
00010000
00001000
,
00000100
00000000
00000001
00001000
00002020
00000000
00003030
00000000
,
00000010
00000100
00001000
00000100
00000000
00000001
00000001
00001000
,
00001100
00000100
00010000
00001000
00000000
01000000
00010000
00100000
,
01100000
00000000
01000000
10000000
00010000
10000000
00100000
01000000
,
01100000
00000000
01000000
00001000
00011000
00000000
00000100
00001000
,
00001100
00000000
00000001
00000101
00000000
00000100
00000010
00001000
,
00000001
00000000
00000010
00000001
00000010
00000000
00000100
00000010
00000100
00000000
00001000
00000100
00001000
00000000
00000000
00000000
,
00010100
00000000
00010000
00001000
00000000
01000000
00010000
00100000
,
10000000
00000000
00100000
00010000
02020000
00000000
03030000
00000000
,
01000000
00001000
00010000
00001000
00000000
00010000
00010000
00000100
,
00001000
00000010
00010000
00001000
01000000
00010000
00100000
00001000
,
00010000
00000000
00100000
00100000
10000000
10000000
00010000
10000000
,
01000000
00010000
01000000
00100000
00001000
00010000
00010000
00000010
,
00001000
00000010
00001000
00000000
00000010
00000100
00000010
00000000
00000100
00000001
00000100
00000000
00000002
00000000
00000000
00000000
,
00000013
00000010
00000100
00000100
00010000
00011000
00000000
01001000
,
00000000
00010100
00000000
00001000
00011000
00000000
00100000
00000000
,
00010000
01000000
10000000
02000000
00000000
00100000
03100000
00000000
,
01000000
00001000
00010000
00002000
00000000
00000010
00003010
00001000
,
00020000
00000000
00030100
00002000
00000000
00003001
00000200
00000000
,
00000310
00010000
00001000
00020000
00000000
00030100
00010000
00001000
,
00011000
00000000
01000000
00010000
01000000
00100000
00010000
00100000
,
10100000
00000000
10000000
01000000
00010000
01000000
00100000
00001000
,
00011000
00000000
00000010
00000100
00000000
00000110
00000000
00002002
,
00000000
00000000
00000000
00003003
,
00001100
00000200
00020300
00032000
,
02003000
03020000
00230000
02300000
,
23000000
00000000
00000000
30020000
00000000
01030000
00010000
01000000
,
00001000
00010000
00001000
00100000
00000000
00010000
10000000
00010000
,
00000000
02000000
03002000
00023000
,
00030020
00020030
00032000
00003020
,
00000130
00001000
00000100
00010000
00001000
01000000
00010000
02000000
,
00000000
00000000
00000000
00200000
00000000
00000000
03300000
00000000
,
10010000
00000000
00000000
10000000
01000000
00000000
00000000
01000000
00100000
00000000
00000000
00100000
00001000
00000000
00000000
00001000
,
00010000
00000000
00000000
00010000
00000010
00000000
00000000
00000010
00000100
00000000
00000000
00000100
00000001
00000000
00000000
00000000
,
00001001
00000000
00001000
00001100
00000000
00000100
00010000
00001000
,
01000000
00010000
00100000
01100000
00000000
01000000
01000000
10000000
,
10010000
00000000
00010000
01000000
00002000
00000000
00013000
00010000
,
00010100
00000000
00000100
00001000
00000000
00000100
00000010
00000001
,
00001000
00000001
00001000
00000000
00000001
00000000
00000100
00000000
00000010
00001000
00000010
00000000
00001000
00000000
00000100
00000000
,
00010000
00001000
00010000
00000000
00001000
01000000
00001000
00000000
01000000
00010000
01000000
00000000
00100000
00000000
10000000
00000000
,
00000000
00000000
00000000
00000000
,
20020000
00000000
00000000
30030000
,
20000000
00000000
00000000
32000000
00000000
00000000
03200000
00000000
,
00302000
00000000
00000000
00013000
00002000
00000000
00003000
00000000
,
00020000
00000000
00030010
00020000
00000000
00032000
00000000
00003010
,
00000110
00000100
00001000
00000001
00001000
00000010
00000100
00001000
,
00020000
00000000
00130000
01000000
00100000
10000000
00010000
10000000
,
11000000
00000000
01000000
00100000
00001000
00010000
00000100
00000100
,
00000110
00000000
00000010
00001001
00000000
00000001
00000100
00000010
,
00001000
00000000
00000100
00001000
00000100
00000000
00001000
00000010
00001000
00000000
00000010
00010000
00000010
00000000
00000000
00000000
,
00011000
00000000
00001000
00100000
00000000
01000000
00100000
00010000
,
10000000
00000000
00100000
01000000
02020000
00000000
03030000
00000000
,
00010000
00100000
01000000
00100000
00000000
00001000
00001000
00010000
,
00010010
00000010
00001000
00000100
00000010
00000001
00000001
00000100
,
00000110
00000010
00010000
00010000
00001000
00001000
00100000
00100000
,
01100000
01000000
10000000
10000000
00010000
00010000
01000000
01000000
,
00001000
00010000
00001000
00000000
00010000
00000100
00010000
00000000
00000100
00001000
00000100
00000000
00000020
00000000
00000000
00000000
,
00000031
00000001
00000100
00000100
00001000
00011000
00000000
01001000
,
00000000
01010000
00000000
00100000
01000000
00000000
10010000
00000000
,
10000000
10000000
01000000
01000000
00010000
00011000
00000000
00010100
,
00000000
00001100
00000000
00000010
00000100
00000000
00001001
00000000
,
00000220
00000000
00000000
00000000
,
00000330
00000000
00000000
00000000
;

//--------------- dance-double - forcednature ----------------
#NOTEDATA:;
#STEPSTYPE:dance-double;
#DESCRIPTION:forcednature;
#CREDIT:forcednature;
#DIFFICULTY:Challenge;
#METER:18;
#RADARVALUES:0,0,0,0,0;
#NOTES:
00000000
00000000
00000000
00000000
,
00000000
00000000
00000000
00000000
,
00000000
00000000
00000000
00000000
,
00000000
00000000
00000000
00000000
,
00000000
00000000
00000000
00000000
,
00000000
00000000
00000000
00000000
,
00001000
00000000
00010000
00000000
01000000
00000000
10000000
00000000
00100000
00000000
01000000
00010000
01000000
00000000
00001000
00000000
,
00000000
00000000
00010000
00000000
00000100
00000000
00000010
00000000
00000100
00000000
00001000
00000001
00001000
00000000
00000010
00000000
,
00000100
00001000
00010000
01000000
00100000
00010000
00000000
01100000
,
00000000
00000000
10000000
00010000
00100000
00010000
01000000
00100000
00020000
00000000
00001000
00000000
00031000
00000000
00000000
00000000
,
00010100
00000000
00000000
00000100
00000010
00000000
00000001
00000000
00000100
00000000
00001000
00000000
00000100
00000000
00000100
00000000
,
00000010
00000000
00000000
00010000
00001000
00000000
00100000
00000000
01000000
00000000
00100000
00000000
10000000
00000000
10000000
00000000
,
00100000
00000000
00001000
00000000
00010000
00000000
00100000
00000000
00000000
00000000
00010000
00001000
00010000
00000000
00000000
00000000
,
00000100
00000000
00000010
00000001
00001000
00000000
00000010
00000000
00000100
00000000
00001000
00010000
00100000
00000000
01000000
00000000
,
01010000
00000000
00010000
00000000
10000000
00000000
02000000
00000000
00000000
00000000
03100000
00001000
00010000
00000000
00000010
00010000
,
00001000
00000000
00000010
00000000
00000001
00000000
00002000
00000000
00000000
00000000
00003010
00001000
00000100
00000000
00000010
00000001
,
00000100
00000000
00001000
00010000
00001000
00000000
01000000
00000000
00000000
00000000
01010000
00000000
00000000
00000000
00202000
00000000
,
00000000
00000000
00000000
00303000
,
01001000
00000000
00011000
00000000
00010100
00000000
00000001
00002000
,
00000000
00003010
00000200
00000000
00001300
00000000
00010000
00000000
,
00100000
00000000
10000000
01000000
00000000
00100000
00001000
00010000
,
00000100
00000010
00000010
00000010
00000000
00001001
00000000
00000000
,
00010010
00000000
00011000
00000000
00101000
00000000
10000000
00010000
,
00000000
01000000
10000000
01000000
00010000
00100000
00000000
00001000
,
00010000
00000100
00000010
00000002
00000000
00000000
00000103
00000010
,
00001001
00000000
00000000
00000000
00000100
00000000
00010100
00000000
00000000
00000000
01000000
00000000
00010000
00000000
10000000
01000000
,
10000000
00000000
00100000
00000000
00020000
00000000
00031000
00000010
,
00000100
00000000
00000001
00000000
00000100
00000000
00001000
00000000
00000000
00000000
00000010
00001000
00000010
00000000
00000100
00000000
,
00002000
00000000
00010000
00000000
00000010
00000000
00013000
01000000
,
10000000
00000000
00100000
00000000
10100000
00000000
00000000
00000000
00010000
00000000
00100000
00000000
00110000
00000000
00001000
00010000
,
00001000
00000000
00000100
00000001
00000010
00001000
00000010
00000001
,
00000100
00000000
00001000
00000000
00010000
00000000
01000000
00000000
10000000
00000000
00010000
00000000
01000000
00000000
00100000
10000000
,
00100000
00000000
00000000
00000000
00010000
00000000
00011000
00000000
00000000
00000000
00000100
00000000
00001000
00000001
00001000
00000001
,
00001000
00000000
00000010
00000000
00010000
00000000
00001000
00100000
00010000
00000000
01000000
00000000
00100000
10000000
00010000
10000000
,
01000000
00010000
00000100
00001000
,
00000010
00000000
00000000
00000000
00010000
00000000
00000000
00000000
00100000
00000000
00000000
10000000
00010000
00000000
00100000
00000000
,
01100000
00000000
10000000
00010000
01000000
00001000
00010000
00000010
,
00000100
00000000
00000001
00000000
00000010
00000000
00000000
00000000
00000100
00000000
00001000
00000001
00000100
00000000
00000010
00010000
,
00001000
00000000
00000010
00000010
00000100
00010000
00001000
01000000
,
00100000
00000000
00010000
00002000
00000000
00103000
01000000
00000000
,
00010000
01000000
10000000
00010000
01000000
00001000
00010000
00000100
,
00000010
00000001
00001000
00000001
00000100
00000001
00000100
00000010
00000100
00001000
00000100
00000010
00001000
00000000
00000001
00000000
,
00000100
00000000
00001000
00010000
00100000
00000000
00010000
00001000
00000100
00000000
00001000
00010000
00100000
00000000
00000000
00000000
,
01100000
00000000
00000000
00000000
00010000
00000000
10000000
00000000
01000000
00000000
00010000
00001000
00010000
00000000
00000000
00000000
,
00000010
00000001
00000010
00001000
00000100
00000010
00001000
00010000
,
01000000
00000000
00100000
00000000
00010000
00000000
10000000
00000000
00000000
00000000
00010000
01000000
00010000
00000000
00100000
00000000
,
00001000
00000000
00010000
00000000
00000010
00000000
00000100
00000000
00000001
00000000
00000010
00000100
00000010
00000000
00000000
00000000
,
00000100
00000000
00010000
00000000
00001000
00000000
01000000
00000000
00010000
00000000
10000000
01000000
10000000
00000000
00100000
00000000
,
00010000
00000000
00000000
00000000
00001000
00000000
00000010
00000000
00000001
00000000
00001000
00000010
00000100
00000000
00000001
00000000
,
00000010
00000000
00000100
00001100
00000000
00110000
00010000
00100000
,
01000000
00000000
00010000
00001000
00000010
00000000
00001000
00010000
01000000
00000000
00010000
00001000
00000010
00000000
00000000
00000000
,
00000110
00000000
00000000
00000000
00000001
00000000
00001000
00000000
00000100
00000000
00000010
00000001
00000010
00000000
00000000
00000000
,
00000100
00010000
00001000
00000100
00001000
00010000
01000000
00100000
,
00001000
00000000
00010000
00000000
00100000
00000000
10000000
00000000
00000000
00000000
01000000
00010000
00001000
00000000
00010000
00001000
,
00000010
00000000
00000100
00000000
00000001
00000000
00000100
00000000
00001000
00000000
00000010
00000100
00000001
00000000
00000010
00000100
,
00001000
00001000
00000010
00000010
00010000
00010000
00100000
00100000
,
01000000
00000000
00010000
10000000
01000000
00000000
00100000
00001000
00010000
00000000
00000100
00001000
00000001
00000100
00000001
00000100
,
00000010
00010000
00001000
00010000
00000100
00001000
00000100
00010000
00001000
01000000
00010000
01000000
00100000
10000000
01000000
00100000
,
00010000
00010000
00001000
00001000
00000100
00000110
00000000
00001001
,
00000000
00011000
00000000
01000000
00100000
00000000
01100000
00000000
,
10000000
01000000
00010000
00001000
00000100
00000001
00000010
00000000
,
00000001
00000100
00001000
00010000
01000000
10000000
00100000
00000000
,
00010000
00100000
01000000
00010000
00100000
00001000
00010000
00000010
,
00000100
00000000
00001000
00010000
00000100
00000000
00000010
00000000
00000001
00000000
00000100
00000010
00001000
00000000
00000100
00000000
,
00010000
00000000
01000000
00000000
00100000
00000000
00001000
00000000
00000000
00000000
00010000
00100000
01000000
00000000
00010000
00000000
,
00001000
00000000
00000100
00000000
00000010
00000000
00000001
00000000
00000000
00000000
00000100
00001000
00010000
00000000
00100000
00000000
,
01100000
00000000
00010000
10000000
01000000
00000000
00100000
00000000
00000000
00000000
00110000
00000000
00000000
00000000
00020200
00000000
,
00000000
00000000
00030300
00000000
,
00011000
00000000
00001000
00000100
00000001
00000000
00000110
00000000
,
00000001
00000001
00001000
00010000
00010000
00000000
01100000
00000000
,
11000000
00000000
01000000
00010000
00000000
00001000
00000100
00000001
,
00001000
00000100
00010000
01000000
00000000
00100000
00001000
00010000
,
00100000
00000000
01000000
00010000
00001000
00000000
00000100
00000000
,
00000010
00000010
00010000
01000000
01000000
00000000
01100000
00000000
,
10000000
01000000
00010000
00001000
00000100
00000001
00000010
00000100
,
00010000
00000000
00010000
00000000
00001000
00000000
00001000
00000000
01000000
00000000
01000000
00010000
10000000
00000000
01000000
10000000
,
00100000
11000000
01010000
00011000
,
00001100
00000101
00000011
00001001
,
00000110
00000000
00001000
00000001
00000000
00000100
00001000
00010000
,
00100000
00000000
00001000
00000000
00100000
00000000
10000000
00000000
00000000
00000000
00010000
00100000
01000000
00000000
10000000
00010000
,
01000000
00000000
00100000
00010000
00001000
00000010
00000100
00000100
,
00001000
00000000
00000001
00000100
00000000
00001000
01000000
00100000
,
10000000
01000000
00010000
00000100
00000010
00000001
00000100
00000100
,
00000010
00010000
00000010
00010000
00001000
00100000
00001000
00100000
00001000
00010000
00001000
00010000
00001000
00010000
00001000
00010000
,
00000000
00000000
00000000
00000000
,
02020000
00000000
00000000
00030000
,
03200000
00000000
00000000
00320000
00000000
00000000
00032000
00000000
,
00003020
00000000
00000000
00000230
00002000
00000000
00003300
00000000
,
00000002
00000000
00000203
00002300
00000000
00023000
00000000
02030000
,
13000000
00000000
00100000
00000000
00010000
00000000
00100000
00000000
01000000
00000000
00001000
00010000
00000100
00000000
00000010
00000000
,
00000001
00000000
00000000
00000000
00000100
00000000
00001000
00000000
00010000
00000000
00100000
10000000
00010000
00000000
00100000
00000000
,
01100000
00000000
00000000
00000000
10000000
00000000
01000000
00000000
00010000
00000000
00001000
00000010
00000100
00000000
00001000
00000000
,
00000001
00000000
00000100
00001100
00000000
00011000
00001000
01000000
,
00100000
00000000
00010000
00001000
00000010
00000000
00001000
00010000
00100000
00000000
00010000
00001000
00000010
00000000
00000000
00000000
,
00000110
00000000
00000000
00000000
00001000
00000000
00000001
00000000
00000100
00000000
00001000
00010000
01000000
00000000
00000000
00000000
,
00100000
10000000
00100000
00001000
00010000
00100000
00010000
00001000
,
00000010
00000000
00000100
00000000
00000001
00000000
00000100
00000000
00000000
00000000
00010000
00001000
00000100
00000000
00001000
00010000
,
01000000
00000000
00100000
00000000
00001000
00000000
00010000
00000000
00100000
00000000
10000000
00010000
01000000
00000000
00100000
00010000
,
00001000
00001000
00000010
00000010
00000001
00000001
00000100
00000100
,
00001000
00000000
00010000
00100000
01000000
00000000
00010000
00100000
01000000
00000000
00010000
00001000
00000100
00000010
00000100
00000001
,
00001000
00000001
00001000
00000100
00000010
00000001
00000100
00000010
00001000
00000010
00010000
00001000
00100000
00001000
00010000
00100000
,
10000000
01000000
00001000
00010000
00000010
00000001
00000000
00000110
,
00000000
00000000
00011000
00000000
00000000
00000000
01000000
00000000
00001000
00000000
00010000
00000010
00001000
00000000
00000100
00000000
,
00000001
00000100
00010000
00001000
01000000
10000000
00000000
01100000
,
00000000
00011000
00000000
00000100
00000010
00000000
00001001
00000000
,
00011000
00000000
00000000
00000000
;
