#VERSION:0.83;
#TITLE:驪駒早鬼は馬並み☆プロテイン;
#SUBTITLE:;
#ARTIST:ARM × 狐夢想 feat.ななひら;
#TITLETRANSLIT:Kurokoma Saki wa manami protein;
#SUBTITLETRANSLIT:;
#ARTISTTRANSLIT:ARM x Komso feat. Nanahira;
#GENRE:;
#CREDIT:;
#MUSIC:Kurokoma Saki wa manami protein.ogg;
#BANNER:Kurokoma Saki wa manami protein.png;
#BACKGROUND:Kurokoma Saki wa manami protein-bg.png;
#CDTITLE:./CDTitles/SDVX EXCEED GEAR.png;
#SAMPLESTART:73.500;
#SAMPLELENGTH:15.000;
#SELECTABLE:YES;
#OFFSET:1.907;
#BPMS:0.000=175.000;
#STOPS:74.000=0.343;
#TIMESIGNATURES:0.000=4=4,
72.000=3=4,
75.000=4=4
;
#BGCHANGES:0.000=../BGAs/19cy.mp4=1.000=0=0=0=StretchNoLoop====,
99999.000=-nosongbg-=1.000=0=0=0=StretchNoLoop====
;
#FGCHANGES:;

//--------------- dance-single - forcednature ----------------
#NOTEDATA:;
#STEPSTYPE:dance-single;
#DESCRIPTION:forcednature;
#CREDIT:forcednature;
#DIFFICULTY:Beginner;
#METER:3;
#RADARVALUES:0,0,0,0,0;
#NOTES:
0000
0000
0000
0000
,
0000
0000
0000
0000
,
0000
0000
0000
0000
,
0000
0000
0000
0000
,
0000
0000
0000
0000
,
0000
0000
0000
0000
,
0000
0000
0000
0000
,
0000
0000
0000
0000
,
0200
0000
0000
0000
,
0000
0000
0300
0000
,
0001
0000
0000
0000
,
1000
0000
0000
0000
,
0010
0000
0000
0000
,
0100
0000
0100
0000
,
0001
0000
0000
0000
,
1000
0000
0000
0000
,
0010
0000
0000
0000
,
0100
0000
0100
0000
,
0002
0000
0000
0000
0000
0000
0000
0000
0000
0000
0000
0000
0000
0000
0000
0000
0000
0000
0000
0000
0000
0000
0000
0000
0000
0000
0000
0000
0000
0000
0000
0000
0000
0003
0000
0000
0000
0000
0000
0000
0000
0000
0000
0000
0000
0000
0000
0000
0000
0000
0000
0000
0000
0000
0000
0000
0000
0000
0000
0000
0000
0000
0000
0000
,
1000
0000
1000
0000
,
1000
0000
1000
0000
,
0001
0000
0001
0000
,
0001
0000
0001
0000
,
0100
0000
0100
0000
,
0100
0000
0100
0000
,
0000
0010
0000
0000
,
0000
0100
0000
1001
,
0000
0000
0000
1000
,
0000
0000
0000
0001
,
0000
0000
0000
0100
,
0000
0000
0000
0010
,
0000
0000
0000
1000
,
0000
0000
0000
0001
,
0000
0000
0000
0010
,
0000
0000
0000
1001
,
0000
0000
0000
1000
,
0000
0000
0000
0100
,
0000
0000
0000
0010
,
0000
0000
0000
0001
,
0000
0000
0000
0100
,
0000
0000
0000
0010
,
0000
0000
0000
1000
,
0000
1000
0000
1001
,
0000
0000
0000
0001
,
0000
0000
0000
0010
,
0000
0000
0000
0100
,
0000
0100
0000
0100
,
0000
0000
0000
1000
,
0000
0000
0000
0001
,
0000
0000
0000
0010
,
0000
0010
0000
0000
,
0000
0000
0000
0000
,
0000
0000
0000
2002
0000
0000
0000
0000
,
0000
0000
0000
3003
,
0000
0000
0000
1001
,
0000
0000
0000
0001
,
0000
0000
0000
0100
,
0000
0000
0000
0010
,
0000
1000
0000
0010
,
0000
0000
0000
1000
,
0000
0000
0000
0100
,
0100
0100
0000
0010
,
0010
0010
0000
1001
,
0000
0000
0000
1000
,
0000
0000
0000
0001
,
0000
0000
0000
0100
,
0000
0010
0000
0100
,
0000
0000
0000
0001
,
0000
0000
0000
0010
,
0010
0010
0000
0100
,
0100
0100
0000
1001
,
0000
0000
0000
0001
,
0000
0000
0000
1000
,
0000
0000
0000
0010
,
0000
0000
0000
0100
,
0000
0000
0000
0001
,
0000
0000
0000
1000
,
1000
1000
0000
0001
,
0001
0001
0000
0110
,
0000
0001
0000
1000
,
0000
0000
0000
0001
,
0000
0100
0000
0010
,
0000
1000
0000
0010
,
0000
1000
0000
0100
,
0000
0000
0000
0010
,
0010
0010
0000
0001
,
0001
0001
0000
1000
,
1000
1000
0000
0010
,
0010
0010
0000
2002
,
0000
0000
3003
0000
;

//--------------- dance-single - forcednature ----------------
#NOTEDATA:;
#STEPSTYPE:dance-single;
#DESCRIPTION:forcednature;
#CREDIT:forcednature;
#DIFFICULTY:Easy;
#METER:6;
#RADARVALUES:0,0,0,0,0;
#NOTES:
0000
0000
0000
0000
,
0000
0000
0000
0000
,
0000
0000
0000
0000
,
0000
0000
0000
0000
,
0000
0000
0000
0000
,
0000
0000
0000
0000
,
0000
0000
0000
0000
,
0000
0000
0000
0000
,
2000
0000
3200
0000
,
0320
0000
0032
0000
,
0103
0001
0100
0000
,
0010
1000
0010
0000
,
1000
0100
1000
0000
,
1001
0000
0110
0000
,
0001
0100
0001
0000
,
1000
0100
1000
0000
,
0020
0000
0000
0000
,
0100
0000
0130
0000
,
2002
0000
0000
0000
0000
0000
0000
0000
0000
0000
0000
0000
0000
0000
0000
0000
0000
0000
0000
0000
0000
0000
0000
0000
0000
0000
0000
0000
0000
0000
0000
0000
0000
3003
0000
0000
0000
0000
0000
0000
0000
0000
0000
0000
0000
0000
0000
0000
1000
0000
0000
0000
0000
0000
0000
0000
0000
0000
0000
0000
0000
0000
0000
0000
,
0100
0000
0010
0000
,
0001
0000
1000
0001
,
0100
0000
0010
0000
,
1000
0000
0001
1000
,
0100
0000
0010
0000
,
0001
0000
0000
0000
0000
1000
0000
0000
,
0001
0000
0001
0000
0000
0100
0000
0000
,
0010
0010
0000
1001
,
0000
0000
0000
0001
,
0000
0010
0000
0100
,
0000
0000
0000
1000
,
1000
0001
0001
1001
,
0000
0000
0000
1000
,
0000
0010
0000
0100
,
0000
0100
0000
2002
,
0000
3003
0000
0110
,
0000
0001
0000
1000
,
0000
0100
0000
0010
,
0000
0001
0000
0100
,
0010
0100
0000
1001
,
0000
1000
0000
0010
,
0000
0100
0000
0001
,
0000
0010
0000
0100
,
0000
0100
0000
0000
0100
0000
1000
0000
,
0000
1001
0000
0001
,
0000
1001
0000
1000
,
0000
0000
0000
0000
1001
0000
0000
0000
0000
0000
0000
0000
0000
0000
0000
0010
,
0000
0000
0010
0000
0000
0000
0000
0100
0000
0000
0100
0000
0000
0000
0000
0000
,
0000
1001
0000
0010
,
0000
0110
0000
0100
,
0000
0000
0000
0000
0110
0000
0000
0000
0000
0000
0000
0000
0000
0000
0000
0001
,
0000
0000
0001
0000
0000
0000
0000
1000
0000
0000
1000
0000
0000
0000
0000
0000
,
0000
0000
0000
0000
,
0000
0000
0000
2002
0000
0000
0000
0000
,
0000
0000
0000
3003
,
0000
0000
0000
1001
,
0000
1000
0000
0100
,
0000
1000
0000
0001
,
0000
0100
0000
0010
,
1000
0010
0000
0110
,
0000
0100
0000
0001
,
0000
0000
0010
0000
0000
0100
0000
0000
,
1000
0000
1000
0000
0000
0100
0000
0000
,
0010
0002
0003
1001
,
0000
0001
0000
0100
,
0000
0010
0000
1000
,
0000
0001
0000
1000
,
0100
1000
0000
1001
,
0000
0001
0000
0010
,
0000
0000
0100
0000
0000
1000
0000
0000
,
0001
0000
0001
0000
0000
0100
0000
0000
,
0010
2000
3000
1000
,
0001
0000
0001
0000
,
1000
0000
1000
0000
,
0010
0000
0010
0000
,
0100
0001
0001
1001
,
1000
0000
1000
0000
,
0100
0000
0000
0000
0000
1001
0000
0000
,
0010
0000
0010
0000
0000
1001
0000
0000
,
0100
0020
0030
1000
,
0001
1000
0001
0100
,
0010
0100
0010
1000
,
0100
0010
0001
0100
,
0010
1000
0000
0001
,
0010
0001
0010
0100
,
1000
0000
0100
0000
0000
1001
0000
0000
,
0100
0000
0010
0000
0000
1001
0000
0000
,
0010
0000
0100
0000
0000
0110
0000
0000
,
1000
0000
0001
0000
0000
0110
0000
0000
,
0001
1000
0000
2002
,
0000
0000
3003
0000
;

//--------------- dance-single - forcednature ----------------
#NOTEDATA:;
#STEPSTYPE:dance-single;
#DESCRIPTION:forcednature;
#CREDIT:forcednature;
#DIFFICULTY:Medium;
#METER:9;
#RADARVALUES:0,0,0,0,0;
#NOTES:
0000
0000
0000
0000
,
0000
0000
0000
0000
,
0000
0000
0000
0000
,
0000
0000
0000
0000
,
0000
0000
0000
0000
,
0000
0000
0000
0000
,
0000
0000
0000
0000
,
0000
0000
0000
0000
,
2000
3002
0203
0320
,
2030
0000
3002
0000
0013
0100
0010
0000
,
0001
1000
0001
0000
0100
0010
0000
0000
,
1000
0000
1100
0000
0100
0010
0000
0000
,
0001
1000
0001
0000
0100
0000
0010
0000
,
1000
0100
0020
0000
0031
0100
0020
0000
,
1030
0000
1001
0000
0100
0010
0000
0000
,
0001
0000
1001
0000
0100
0010
0000
0000
,
1000
0100
1000
0000
0001
0000
0100
0000
,
0020
1000
0100
0001
,
0200
0000
0000
0000
0000
0000
0000
0000
0000
0000
0000
0000
0000
0000
0000
0000
0000
0000
0000
0000
0000
0000
0000
0000
0000
0000
0000
0000
0000
0000
0000
0000
0000
0330
0000
0000
0000
0000
0000
0000
0000
0000
0000
0000
0000
0000
0000
0000
1000
0000
0000
0000
0000
0000
0000
0000
0000
0000
0000
0000
0000
0000
0000
0000
,
1100
0010
1100
0001
,
1100
0010
1100
0001
,
0101
0010
0101
1000
,
0101
0010
0101
1000
,
1010
0001
0011
0100
,
0110
0000
0001
0000
1000
0001
0000
0100
,
0010
0000
1000
0001
0000
0110
0000
0001
,
1000
0001
2000
0000
3000
0000
0010
0000
,
1000
0100
0001
0100
,
1000
0001
0100
0010
,
1000
0000
0001
0000
0010
0000
0100
1000
,
0100
0000
0010
0001
0010
0000
1001
0000
,
1000
0010
0100
0001
,
0010
0001
0100
0010
,
1000
0100
0010
0220
,
0000
0000
0330
1001
,
1000
0001
0100
0010
,
1000
0001
0010
1000
,
0010
0000
0100
0000
1000
0000
0001
0100
,
0001
0000
1000
0010
1000
0000
1001
0000
,
0001
0100
0010
1000
,
0100
0010
0100
1000
,
0010
0000
0100
0000
0001
0000
0010
0100
,
0000
0010
0100
0000
1000
0000
0001
0000
,
0100
0202
0303
1000
,
0100
2200
3300
0010
,
0100
0000
0000
0000
0220
0000
0000
0000
0330
0000
0000
0000
0001
0000
0000
0100
,
0000
0000
0001
0000
1000
0000
0000
0100
0000
0000
1000
0000
0001
0000
0000
0000
,
0010
0022
0033
1000
,
0010
2020
3030
0100
,
0010
0000
0000
0000
0220
0000
0000
0000
0330
0000
0000
0000
0001
0000
0000
0010
,
0000
0000
0001
0000
1000
0000
0000
0010
0000
0000
1000
0000
0200
0000
0000
0000
,
0000
0000
0000
0000
,
0000
0300
0000
2002
0000
0000
0000
0000
,
0000
0000
0000
0000
0000
0000
3003
1000
,
0001
0000
1000
0000
0200
0000
0310
0001
,
0010
0000
0100
0000
1000
0000
0001
0100
,
0001
0000
1000
0010
1000
0000
0100
0010
,
0100
1000
0001
0110
,
1001
0000
0220
0000
0330
0000
1000
0010
,
1000
0000
0001
0000
0010
0000
0100
1000
,
0100
0000
0010
0001
0000
1001
0000
0100
,
0010
0000
0010
0100
0000
1001
0000
0010
,
0100
0010
0200
0000
0300
0000
0001
1000
,
0001
0000
0100
0000
0010
0000
1000
0100
,
1000
0000
0001
0100
0001
0000
1000
0010
,
1000
0100
0010
0110
,
1001
0000
0220
0000
0330
0000
0001
0010
,
0001
0000
0100
0000
0010
0000
1000
0100
,
1000
0000
0001
1000
0000
0110
0000
1000
,
0001
0000
0001
1000
0000
0110
0000
0001
,
1000
0001
2000
0000
3000
0000
1002
0000
,
0100
0000
0100
0000
,
1000
0000
0010
2003
,
0100
0000
0100
0000
,
0001
0010
3010
1002
,
0010
0000
0010
0000
,
1000
0000
1000
0003
0000
1001
0000
0100
,
0010
0000
0010
0100
0000
1001
0000
0010
,
0100
0010
0200
0000
0300
0000
1000
0010
,
0100
0000
0001
0000
0010
0000
0100
1000
,
0010
0000
1000
0100
0010
0000
0001
0100
,
0010
1000
0001
1100
,
0101
0000
2002
0000
3003
0000
0001
0100
,
0010
0000
1000
0000
0001
0000
0010
0100
,
1000
0000
0001
0100
0000
1010
0000
0001
,
0010
0000
0100
1000
0000
0101
0000
1000
,
0100
0000
0010
0001
0000
0110
0000
1000
,
0001
0000
0100
0010
0000
1001
0000
1000
,
0001
0010
0200
0000
0300
0000
2002
0000
,
0000
0000
3003
0000
;

//--------------- dance-single - forcednature ----------------
#NOTEDATA:;
#STEPSTYPE:dance-single;
#DESCRIPTION:forcednature;
#CREDIT:forcednature;
#DIFFICULTY:Hard;
#METER:12;
#RADARVALUES:0,0,0,0,0;
#NOTES:
0000
0000
0000
0000
,
0000
0000
0000
0000
,
0000
0000
0000
0000
,
0000
0000
0000
0000
,
0000
0000
0000
0000
,
0000
0000
0000
0000
,
0000
0000
0000
0000
,
0000
0000
0000
0000
,
1000
0100
0010
0100
1000
0001
0100
0001
,
1000
0010
0100
0001
0020
0000
0230
0000
,
1300
0100
0010
0000
0002
0100
0003
0000
,
0101
0000
1010
0000
0200
0010
0300
0000
,
0001
0100
0001
1000
0100
0010
0001
0000
,
1000
0010
0200
0300
0001
0010
0200
0300
,
1100
0000
0101
0000
0020
0100
0030
0000
,
0101
0000
1100
0000
0020
0100
0030
0000
,
0001
1000
0001
0100
0010
1000
0001
0000
,
1000
0100
0010
0001
0010
0100
2000
0000
,
3020
0000
0000
0000
0000
0000
0000
0000
0000
0000
0000
0000
0000
0000
0000
0000
0000
0000
0000
0000
0000
0000
0000
0000
0000
0000
0000
0000
0000
0000
0000
0000
0000
0030
0000
0000
0000
0000
0000
0000
0000
0000
0000
0000
0000
0000
0000
0000
0100
0000
0000
0000
0000
0000
0000
0000
0001
0000
0000
0000
0000
0000
0000
0000
,
1000
0010
0100
0001
1000
0010
0100
0001
,
1000
0010
0100
0001
1000
0000
0100
1000
,
0001
0010
0100
1000
0001
0010
0100
1000
,
0001
0010
0100
1000
0020
0000
0130
0001
,
1000
0100
0010
0001
1000
0010
0100
0001
,
1000
0100
0010
0001
1000
0010
0000
0100
,
0001
0000
0010
0010
0000
0110
0000
0001
,
1000
0010
0200
0000
0300
0000
0011
0000
,
1000
0100
0001
0000
0100
0000
1010
0000
,
0001
0100
1000
0000
0100
0010
1000
0000
,
0100
0010
0001
0000
0100
0010
1000
0001
,
0010
0100
1000
0002
0000
0103
0100
0000
,
0010
1000
0001
0000
0010
0100
1000
0000
,
0001
0100
0010
1000
0001
1000
0100
0000
,
0010
0001
1000
0001
0100
0010
2000
0000
,
0200
0000
0300
0000
0000
0000
3010
0000
0000
1001
0000
0000
,
0001
0100
0010
1000
0001
0000
1001
0000
,
1000
0100
0010
0001
0100
0001
0010
0000
,
0100
1000
0010
1000
0001
0100
0010
1000
,
0001
0010
0100
2000
0000
3001
0001
0000
,
0100
0001
0010
0100
1000
0010
0000
0010
,
0100
0001
1000
0000
0100
0010
0002
0000
,
0100
0000
0000
0000
1003
0000
0000
0000
0001
0000
0000
0000
1000
0100
0000
1000
,
0100
0000
0010
0001
0000
0010
0001
0000
0100
0000
0000
0000
1001
0000
0000
0000
,
0010
0220
0330
1100
,
0010
0202
0303
0011
,
0100
0000
0000
0000
2020
0000
0000
0000
3030
0000
0000
0000
0001
0000
0000
0100
,
0000
0000
0101
0000
1000
0000
0000
0100
0000
0000
1100
0000
0000
0000
0010
0000
,
0000
0100
0220
0000
0330
0000
0101
0000
,
0010
2200
3300
0110
,
0100
0000
0000
0000
2002
0000
0000
0000
3003
0000
0000
0000
1000
0000
0000
0010
,
0000
0000
1010
0000
0001
0000
0000
0010
0000
0000
0022
0000
0000
0000
0000
0000
,
0000
0000
0000
0000
,
0000
0033
0000
2002
0000
0000
0000
0000
,
0000
0000
0000
0000
0000
0000
3003
0001
,
1000
0001
0100
0010
0020
0000
1030
0100
,
0010
0100
1000
0001
0000
0110
0000
0001
,
0100
0010
1000
0001
0010
0000
0100
1000
,
0001
0100
0001
1000
0000
1001
0000
0001
,
0100
0000
0010
0000
1000
0000
0010
1000
0020
0000
0000
0000
0130
0000
0001
0000
,
1000
0100
0010
0001
0000
0110
0000
0100
,
1000
0001
0100
0010
0000
1010
0000
0001
,
0010
0000
0100
1000
0000
0101
0000
1000
,
0010
0000
1000
0000
0100
0000
0010
0001
0010
0000
0000
0000
0100
0000
1000
0000
,
0001
0100
0001
1000
0000
0110
0000
0001
,
1000
0010
0100
0001
0010
0000
0100
1000
,
0001
0100
0001
1000
0000
1100
0000
0100
,
0010
0000
0001
0000
1000
0000
0010
1000
0020
0000
0000
0000
0130
0000
0001
0000
,
1000
0100
0010
0001
0000
0110
0000
0001
,
1000
0010
0100
0001
0001
1000
0000
0100
,
0001
0000
0100
0010
0000
1001
0000
0001
,
0100
0000
0010
0000
1000
0000
0001
1000
0001
0000
0000
0000
0010
0000
0100
0000
,
1000
0100
0010
0001
0000
2000
0000
3001
,
0100
0010
1000
0010
0000
0000
0100
0001
,
1000
0100
1000
0001
0000
0020
0000
0130
,
1000
0000
0001
0000
0100
0000
0001
1000
0002
0000
0000
0000
1003
0000
0010
0000
,
0100
0010
1000
0100
0000
0020
0000
0031
,
0100
0010
0100
0001
0000
1001
0000
1000
,
1000
0100
0001
0001
0100
0020
0000
0031
,
0100
1000
0200
0010
0310
0000
0100
0001
,
1000
0100
0001
1000
0000
0010
0001
1000
,
0010
0100
0001
1000
0100
0000
0001
0100
,
1000
0001
0100
1000
0000
0100
0010
1000
,
0001
0000
0010
0000
0100
0000
1000
0001
1000
0000
0000
0000
0010
0000
0100
0000
,
1000
0001
0010
0100
0000
0001
1000
0100
,
0001
1000
0010
0001
0001
1000
0000
0010
,
0110
0000
0001
1000
1000
0001
0000
0010
,
0110
0000
1000
0001
0001
1000
0000
0010
,
0010
0000
0100
0000
0100
0000
0001
0000
1000
0000
0100
0000
0000
0000
0010
0001
,
0010
0100
1000
1000
0001
0001
2002
0000
,
0000
0000
3003
0000
;

//--------------- dance-single - forcednature ----------------
#NOTEDATA:;
#STEPSTYPE:dance-single;
#DESCRIPTION:forcednature;
#CREDIT:forcednature;
#DIFFICULTY:Challenge;
#METER:16;
#RADARVALUES:0,0,0,0,0;
#NOTES:
0000
0000
0000
0000
,
0000
0000
0000
0000
,
0000
0000
0000
0000
,
0000
0000
0000
0000
,
0000
0000
0000
0000
,
0000
0000
0000
0000
,
0000
0000
0000
0000
,
0000
0000
0000
0000
,
0002
0203
0320
2030
3002
0023
0230
2300
,
3002
0000
0203
0000
0320
0000
2030
0000
3100
1000
0100
1000
0001
0100
0001
0100
,
0010
1000
0100
0000
0010
0001
0202
0303
,
1000
0100
0000
0000
0100
0010
0000
0000
0001
0000
0100
0000
0220
0000
0330
0000
,
0001
1000
0100
0001
0100
0010
0011
0000
,
0001
0000
0100
0000
2000
0000
0000
0000
3001
0000
0010
1000
0002
0000
0000
0000
,
1003
0100
0001
0000
0001
0100
0220
0330
,
0001
0100
1000
0000
1000
0100
0220
0330
,
0001
0010
0100
1000
0010
0001
0010
0000
,
1000
0000
1000
0000
0001
0000
0001
0000
0100
0001
0100
0001
1000
0100
0010
0001
,
0200
0000
0000
0000
0000
0000
0000
0000
0000
0000
0000
0000
0000
0000
0000
0000
0000
0000
0000
0000
0000
0000
0000
0000
0000
0000
0000
0000
0000
0000
0000
0000
0000
0300
0000
0000
0000
0000
0000
0000
0000
0000
0000
0000
0000
0000
0000
0000
0010
0000
0000
0000
0000
0000
0000
0000
1000
0000
0000
0000
0001
0000
0000
0000
,
0200
0000
0310
0000
1000
0000
0001
1000
0200
0000
0310
0000
0001
0000
1000
0001
,
0200
0000
0310
0000
1000
0000
0001
1000
0200
0000
0300
0000
0010
0000
0001
1000
,
0020
0000
0130
0000
0001
0000
1000
0001
0020
0000
0130
0000
1000
0000
0001
1000
,
0020
0000
0130
0000
0001
0000
0010
0100
2000
0000
0000
3000
0001
0000
0100
1000
,
0200
0000
0301
0000
1000
0000
0100
0001
0200
0000
1300
0000
0001
0000
0100
1000
,
0200
0301
0010
0010
0200
1300
0000
0001
,
0101
0000
1000
1000
0010
0110
0000
0001
,
0010
0000
0100
1000
0001
0000
0100
0001
1000
0010
1000
0010
0200
0000
0000
0000
,
0301
0010
0100
0001
0100
1000
0020
0000
,
0130
0001
1000
0001
0010
0200
1000
0000
,
0001
0000
0310
0100
1000
0002
2003
3020
,
0032
0000
2003
0000
3200
0000
0301
0100
0001
0000
0100
0001
2000
0000
0000
0000
,
3010
0100
0001
1000
0100
0002
0000
0103
,
0100
0000
1000
0000
0001
0000
0000
0001
0100
0000
0010
0000
1000
0000
1000
0000
,
0001
0000
0001
0000
0100
0001
0100
0001
1000
0100
1000
0100
0020
0000
0000
0000
,
0000
0000
0130
2001
,
3001
0100
1000
0100
0010
1000
0002
0000
,
1003
0100
0001
0100
1000
0020
0100
0000
,
0001
0000
0130
0000
0010
2000
3002
0023
,
2030
0000
3002
0000
0203
0000
1300
0100
1000
0000
0100
1000
0002
0000
0000
0000
,
0103
0010
0001
0010
1000
0200
0000
0001
,
0301
0000
0100
0000
0010
0000
0000
0010
0001
0000
2000
0000
0010
0000
0000
0000
,
3100
0000
0000
0000
1000
0000
0010
0000
0100
0000
0001
0000
1000
0100
1000
0100
,
1000
0000
0001
0100
0001
0100
0001
0000
0010
0000
0010
0100
1000
0000
0010
0000
,
0000
0100
0101
0001
1000
0000
0001
0010
,
0000
0100
1100
1000
0001
0000
0100
0010
,
1000
0000
0001
0000
1001
0000
1000
0000
0000
0000
0010
0000
0100
0000
0000
1010
,
0000
0000
1001
0000
0100
0000
0000
0011
0000
0000
1001
0000
0000
0000
0110
0000
,
0000
0001
1001
1000
0001
0100
0010
1000
,
0000
0001
0011
0010
0100
0000
1000
0001
,
0100
0000
0010
0000
0110
0000
0100
0000
0000
0000
0010
0000
1000
0000
0000
0011
,
0000
0000
0101
0000
0001
0000
0000
1010
0000
0000
1100
0000
0020
0000
0000
0000
,
0000
0000
0000
0000
,
0000
0000
0000
0200
0000
0000
0000
0000
,
0000
0000
0000
0000
0000
0000
0000
0000
0330
0000
0000
0000
1001
0000
1000
0010
,
1000
0000
0001
0000
0010
0000
0010
0000
0200
0000
0000
0000
1300
0001
1000
0000
,
0010
0000
1000
0001
1000
0000
0100
0000
0010
0000
0001
1000
0001
0000
0100
0000
,
0010
0000
1000
0100
1000
0000
0001
0000
0010
0000
0000
0000
0001
0100
0001
0000
,
1000
0000
0001
0100
0001
0000
0010
0000
0100
0000
1000
0100
1000
0000
0001
0100
,
0001
0000
1000
0010
1000
0000
0002
0023
0230
0000
0300
0000
1000
0010
1000
0000
,
0100
0000
1000
0010
1000
0000
0001
0000
0010
0000
0100
1000
0100
0000
0010
0000
,
0001
0000
0100
0010
0100
0000
0001
0000
0001
0000
1010
0000
0000
0000
1000
0000
,
0011
0000
0100
0100
0010
0110
0000
1000
,
0010
0000
0100
0001
0100
0000
0001
1000
0100
0010
0001
1000
0001
0100
0001
0000
,
1000
0000
0001
0100
0001
0000
0010
0000
0100
0000
1000
0010
1000
0000
0001
0000
,
1000
0000
0100
0010
0100
0000
1000
0000
0001
0000
0000
0000
0100
0010
0100
0000
,
0001
0000
1000
0100
1000
0000
0010
0000
1000
0000
0001
0100
0001
0000
1000
0100
,
1000
0000
0001
0010
0001
0000
1000
0010
0200
0000
0000
0000
0301
1000
0001
0000
,
0100
0000
0001
0010
0001
0000
1000
0000
0010
0000
0100
0001
0100
0000
0010
0000
,
1000
0000
0100
0010
0100
0000
0001
0000
0001
0000
0110
0000
0000
0000
1000
0000
,
0110
0000
0001
0100
0010
1001
0000
1000
,
0100
0000
0010
0001
1000
0000
0001
0100
0010
1000
0010
1000
0001
0000
0010
0000
,
0100
0001
0100
1000
0000
1020
0000
0031
,
0010
0100
0001
2000
0000
3000
0100
0001
,
0100
1000
0001
0100
0000
0120
0000
1030
,
0001
0000
0010
0000
0100
0000
2000
3002
0203
0000
0000
0000
0310
0000
1000
0000
,
0100
0001
0100
0010
0000
2001
0000
3001
,
0100
0000
1000
0000
0100
0000
0010
0000
1000
0000
1100
0000
0000
0000
0001
0100
,
0010
1000
0001
1000
0100
0110
0000
0010
,
0001
0000
1000
0010
0100
0000
0001
0010
0100
1000
0100
1000
0001
0100
0010
0000
,
1000
0000
0100
0010
0001
0000
0100
0000
0010
0000
1000
0001
0010
0000
0001
1000
,
0010
0000
0100
0001
1000
0000
0100
0010
0001
0000
0100
0000
0010
1000
0001
0000
,
0100
0000
0010
1000
0001
0000
1000
0000
0100
0000
0010
0001
0100
0000
0010
1000
,
0001
0000
1000
0100
0010
0000
0001
0100
0020
0000
0000
0000
1030
0001
0010
0000
,
0100
0000
0010
0001
1000
0000
0001
0000
0100
0000
0010
1000
0001
0000
1000
0100
,
0010
0000
0001
0100
0010
1000
0001
1000
0100
0000
0110
0000
0000
0000
0010
0001
,
0010
0001
1000
1000
0010
0110
0000
0010
,
1000
0000
0001
1000
0100
0000
0100
0000
0010
0000
0110
0000
0000
0000
1000
0100
,
0010
0001
1000
0001
0100
0000
0100
0000
0010
0000
0110
0000
0000
0000
1000
0000
,
0001
0000
0100
0010
1000
0000
0001
1000
0100
0010
0001
0100
0020
0000
0000
0000
,
0000
0000
0030
0000
;

//--------------- dance-double - forcednature ----------------
#NOTEDATA:;
#STEPSTYPE:dance-double;
#DESCRIPTION:forcednature;
#CREDIT:forcednature;
#DIFFICULTY:Easy;
#METER:6;
#RADARVALUES:0,0,0,0,0;
#NOTES:
00000000
00000000
00000000
00000000
,
00000000
00000000
00000000
00000000
,
00000000
00000000
00000000
00000000
,
00000000
00000000
00000000
00000000
,
00000000
00000000
00000000
00000000
,
00000000
00000000
00000000
00000000
,
00000000
00000000
00000000
00000000
,
00000000
00000000
00000000
00000000
,
00002000
00000000
00023000
00000000
,
00030200
00000000
00002300
00000000
,
00003001
00000100
00001000
00000000
,
00010000
01000000
10000000
00000000
,
00100000
01000000
00100000
00000000
,
10010000
00000000
01100000
00000000
,
10000000
01000000
00010000
00000000
,
00001000
00000100
00000001
00000000
,
00000020
00000000
00000000
00000000
,
00000100
00000000
00000130
00000000
,
00002002
00000000
00000000
00000000
00000000
00000000
00000000
00000000
00000000
00000000
00000000
00000000
00000000
00000000
00000000
00000000
00000000
00000000
00000000
00000000
00000000
00000000
00000000
00000000
00000000
00000000
00000000
00000000
00000000
00000000
00000000
00000000
00000000
00003003
00000000
00000000
00000000
00000000
00000000
00000000
00000000
00000000
00000000
00000000
00000000
00000000
00000000
00000000
00001000
00000000
00000000
00000000
00000000
00000000
00000000
00000000
00000000
00000000
00000000
00000000
00000000
00000000
00000000
00000000
,
00000100
00000000
00010000
00000000
,
00001000
00000000
01000000
00010000
,
10000000
00000000
01000000
00000000
,
00100000
00000000
00001000
00010000
,
00000010
00000000
00001000
00000000
,
00000001
00000000
00000000
00000000
00000000
00000010
00000000
00000000
,
00000100
00000000
00000100
00000000
00000000
00010000
00000000
00000000
,
00001000
00001000
00000000
00011000
,
00000000
00000000
00000000
01000000
,
00000000
00010000
00000000
00100000
,
00000000
00000000
00000000
01000000
,
01000000
10000000
10000000
10010000
,
00000000
00000000
00000000
00010000
,
00000000
01000000
00000000
00001000
,
00000000
00010000
00000000
00022000
,
00000000
00033000
00000000
00011000
,
00000000
00010000
00000000
00000100
,
00000000
00001000
00000000
00000001
,
00000000
00000100
00000000
00000010
,
00001000
00000010
00000000
00011000
,
00000000
00100000
00000000
00010000
,
00000000
00100000
00000000
01000000
,
00000000
10000000
00000000
00010000
,
00000000
00010000
00000000
00000000
00010000
00000000
01000000
00000000
,
00000000
00011000
00000000
00010000
,
00000000
00011000
00000000
00001000
,
00000000
00000000
00000000
00000000
00011000
00000000
00000000
00000000
00000000
00000000
00000000
00000000
00000000
00000000
00000000
00000100
,
00000000
00000000
00000100
00000000
00000000
00000000
00000000
00001000
00000000
00000000
00001000
00000000
00000000
00000000
00000000
00000000
,
00000000
00011000
00000000
00000010
,
00000000
00011000
00000000
00100000
,
00000000
00000000
00000000
00000000
00011000
00000000
00000000
00000000
00000000
00000000
00000000
00000000
00000000
00000000
00000000
01000000
,
00000000
00000000
01000000
00000000
00000000
00000000
00000000
00100000
00000000
00000000
00100000
00000000
00000000
00000000
00000000
00000000
,
00000000
00000000
00000000
00000000
,
00000000
00000000
00000000
20020000
00000000
00000000
00000000
00000000
,
00000000
00000000
00000000
30030000
,
00000000
00000000
00000000
01100000
,
00000000
10000000
00000000
00010000
,
00000000
01000000
00000000
00001000
,
00000000
00010000
00000000
00000100
,
00001000
00000100
00000000
00000110
,
00000000
00000010
00000000
00000001
,
00000000
00000000
00001000
00000000
00000000
00000010
00000000
00000000
,
00010000
00000000
00010000
00000000
00000000
00001000
00000000
00000000
,
00100000
00200000
00300000
01100000
,
00000000
01000000
00000000
10000000
,
00000000
00010000
00000000
01000000
,
00000000
00001000
00000000
00010000
,
00000100
00010000
00000000
00011000
,
00000000
00001000
00000000
00000010
,
00000000
00000000
00000100
00000000
00000000
00001000
00000000
00000000
,
00000001
00000000
00000001
00000000
00000000
00000100
00000000
00000000
,
00000010
00002000
00003000
00000100
,
00010000
00000000
00010000
00000000
,
00001000
00000000
00001000
00000000
,
01000000
00000000
01000000
00000000
,
00100000
10000000
10000000
10010000
,
00010000
00000000
00010000
00000000
,
00100000
00000000
00000000
00000000
00000000
00011000
00000000
00000000
,
00000010
00000000
00000010
00000000
00000000
00011000
00000000
00000000
,
00010000
00002000
00003000
00000010
,
00000100
00000010
00000100
00001000
,
00000001
00001000
00000001
00000100
,
00000010
00000100
00000010
00010000
,
00001000
00010000
00000000
00100000
,
01000000
00100000
01000000
00010000
,
10000000
00000000
00010000
00000000
00000000
10010000
00000000
00000000
,
10000000
00000000
01000000
00000000
00000000
10010000
00000000
00000000
,
00010000
00000000
01000000
00000000
00000000
00011000
00000000
00000000
,
00000100
00000000
00001000
00000000
00000000
00001001
00000000
00000000
,
00000001
00000100
00000000
00000220
,
00000000
00000000
00000330
00000000
;

//--------------- dance-double - forcednature ----------------
#NOTEDATA:;
#STEPSTYPE:dance-double;
#DESCRIPTION:forcednature;
#CREDIT:forcednature;
#DIFFICULTY:Medium;
#METER:9;
#RADARVALUES:0,0,0,0,0;
#NOTES:
00000000
00000000
00000000
00000000
,
00000000
00000000
00000000
00000000
,
00000000
00000000
00000000
00000000
,
00000000
00000000
00000000
00000000
,
00000000
00000000
00000000
00000000
,
00000000
00000000
00000000
00000000
,
00000000
00000000
00000000
00000000
,
00000000
00000000
00000000
00000000
,
00020000
00032000
02003000
03020000
,
20030000
00000000
32000000
00000000
03100000
00010000
00100000
00000000
,
00001000
00010000
00001000
00000000
00000100
00000010
00000000
00000000
,
00000110
00000000
00001001
00000000
00000001
00000100
00000000
00000000
,
00000010
00001000
00000010
00000000
00010000
00000000
00001000
00000000
,
00100000
00010000
20000000
00000000
30100000
10000000
00020000
00000000
,
01030000
00000000
01001000
00000000
00001000
00010000
00000000
00000000
,
00000100
00000000
00010100
00000000
00010000
00001000
00000000
00000000
,
00100000
00010000
00100000
00000000
00001000
00000000
00010000
00000000
,
00000020
00001000
00000100
00000001
,
00000200
00000000
00000000
00000000
00000000
00000000
00000000
00000000
00000000
00000000
00000000
00000000
00000000
00000000
00000000
00000000
00000000
00000000
00000000
00000000
00000000
00000000
00000000
00000000
00000000
00000000
00000000
00000000
00000000
00000000
00000000
00000000
00000000
00000330
00000000
00000000
00000000
00000000
00000000
00000000
00000000
00000000
00000000
00000000
00000000
00000000
00000000
00000000
00000010
00000000
00000000
00000000
00000000
00000000
00000000
00000000
00000000
00000000
00000000
00000000
00000000
00000000
00000000
00000000
,
00011000
00000100
00011000
00000010
,
00011000
00000100
00011000
01000000
,
00011000
00100000
00011000
01000000
,
00011000
00100000
00011000
00000100
,
00101000
00010000
00101000
00000010
,
00101000
00000000
00010000
00000000
00001000
00100000
00000000
00010000
,
00100000
00000000
01000000
10000000
00000000
10010000
00000000
00010000
,
01000000
00010000
02000000
00000000
03000000
00000000
00100000
00000000
,
10000000
01000000
00010000
00001000
,
00000100
00000001
00000010
00000100
,
00001000
00000000
00000001
00000000
00000100
00000000
00000010
00001000
,
00000010
00000000
00010000
00001000
00010000
00000000
00011000
00000000
,
00001000
00100000
01000000
00100000
,
00010000
10000000
00100000
01000000
,
00100000
00010000
00001000
00022000
,
00000000
00000000
00033000
00011000
,
00001000
00000010
00000100
00000010
,
00000001
00001000
00000001
00000100
,
00000010
00000000
00001000
00000000
00000010
00000000
00010000
00001000
,
00010000
00000000
00001000
00100000
00001000
00000000
00110000
00000000
,
00010000
01000000
00100000
10000000
,
01000000
00010000
00001000
00000100
,
00000010
00000000
00001000
00000000
00000001
00000000
00000010
00000100
,
00000000
00000010
00000100
00000000
00001000
00000000
00000001
00000000
,
00000100
00002020
00003030
00010000
,
00100000
22000000
33000000
10000000
,
00100000
00000000
00000000
00000000
02020000
00000000
00000000
00000000
03030000
00000000
00000000
00000000
01000000
00000000
00000000
00001000
,
00000000
00000000
00010000
00000000
00000100
00000000
00000000
00010000
00000000
00000000
00001000
00000000
00000010
00000000
00000000
00000000
,
00000100
00002002
00003003
00000100
,
00010000
00202000
00303000
01000000
,
00001000
00000000
00000000
00000000
00020020
00000000
00000000
00000000
00030030
00000000
00000000
00000000
00010000
00000000
00000000
00001000
,
00000000
00000000
00010000
00000000
00100000
00000000
00000000
01000000
00000000
00000000
00100000
00000000
20000000
00000000
00000000
00000000
,
00000000
00000000
00000000
00000000
,
00000000
30000000
00000000
00022000
00000000
00000000
00000000
00000000
,
00000000
00000000
00000000
00000000
00000000
00000000
00033000
00001000
,
00010000
00000000
00000100
00000000
00000020
00000000
00000031
00000100
,
00000001
00000000
00000010
00000000
00001000
00000000
00010000
00001000
,
00010000
00000000
00100000
01000000
00100000
00000000
10000000
00010000
,
10000000
01000000
00010000
00011000
,
00011000
00000000
00022000
00000000
00033000
00000000
00000100
00001000
,
00000100
00000000
00000010
00000000
00000001
00000000
00001000
00000010
,
00001000
00000000
00000100
00010000
00000000
00011000
00000000
00001000
,
01000000
00000000
00100000
10000000
00000000
10010000
00000000
10000000
,
01000000
00100000
00020000
00000000
00030000
00000000
01000000
00010000
,
01000000
00000000
00001000
00000000
00010000
00000000
00000100
00001000
,
00000100
00000000
00000010
00000001
00000010
00000000
00000001
00001000
,
00000001
00000100
00001000
00011000
,
00011000
00000000
00022000
00000000
00033000
00000000
00001000
00010000
,
00001000
00000000
01000000
00000000
00010000
00000000
10000000
01000000
,
10000000
00000000
00010000
01000000
00000000
01100000
00000000
00100000
,
10000000
00000000
10000000
01000000
00000000
01100000
00000000
00100000
,
00010000
00100000
00002000
00000000
00003000
00000000
00021000
00000000
,
00000100
00000000
00000100
00000000
,
00000010
00000000
00000010
00032000
,
01000000
00000000
01000000
00000000
,
00100000
00100000
00100000
00023000
,
00000100
00000000
00001000
00000000
,
00000010
00000000
00000010
00030000
00000000
00011000
00000000
00001000
,
00000010
00000000
00000010
00000001
00000000
00001001
00000000
00000001
,
00000100
00000010
00002000
00000000
00003000
00000000
00000100
00010000
,
00001000
00000000
01000000
00000000
00010000
00000000
00100000
01000000
,
10000000
00000000
00100000
01000000
00010000
00000000
00100000
00001000
,
00010000
00000010
00001000
00001100
,
00000011
00000000
00002002
00000000
00003003
00000000
00000001
00000100
,
00000010
00000000
00001000
00000000
00000100
00000000
00010000
00001000
,
01000000
00000000
00010000
00100000
00000000
01100000
00000000
01000000
,
10000000
00000000
00010000
01000000
00000000
01001000
00000000
00001000
,
00010000
00000000
00000100
00001000
00000000
00001001
00000000
00000001
,
00000100
00000000
00000010
00010000
00000000
00011000
00000000
00001000
,
00100000
00010000
00200000
00000000
00300000
00000000
20020000
00000000
,
00000000
00000000
30030000
00000000
;

//--------------- dance-double - forcednature ----------------
#NOTEDATA:;
#STEPSTYPE:dance-double;
#DESCRIPTION:forcednature;
#CREDIT:forcednature;
#DIFFICULTY:Hard;
#METER:12;
#RADARVALUES:0,0,0,0,0;
#NOTES:
00000000
00000000
00000000
00000000
,
00000000
00000000
00000000
00000000
,
00000000
00000000
00000000
00000000
,
00000000
00000000
00000000
00000000
,
00000000
00000000
00000000
00000000
,
00000000
00000000
00000000
00000000
,
00000000
00000000
00000000
00000000
,
00000000
00000000
00000000
00000000
,
00010000
00001000
00010000
00100000
01000000
00010000
10000000
00010000
,
00100000
01000000
00010000
00001000
00000020
00000000
00000230
00000000
,
00001300
00000001
00000100
00000000
00000020
00001000
00000030
00000000
,
00010100
00000000
01001000
00000000
20000000
00010000
30000000
00000000
,
10000000
01000000
00010000
00001000
00000100
00000001
00000010
00000000
,
00000100
00010000
00002000
00003000
01000000
00001000
00020000
00030000
,
00101000
00000000
01010000
00000000
20000000
00010000
30000000
00000000
,
01001000
00000000
00010100
00000000
00000002
00001000
00000003
00000000
,
00000001
00000100
00000010
00001000
00010000
01000000
00100000
00000000
,
10000000
01000000
00100000
00010000
00100000
00001000
00020000
00000000
,
00030020
00000000
00000000
00000000
00000000
00000000
00000000
00000000
00000000
00000000
00000000
00000000
00000000
00000000
00000000
00000000
00000000
00000000
00000000
00000000
00000000
00000000
00000000
00000000
00000000
00000000
00000000
00000000
00000000
00000000
00000000
00000000
00000000
00000030
00000000
00000000
00000000
00000000
00000000
00000000
00000000
00000000
00000000
00000000
00000000
00000000
00000000
00000000
00000100
00000000
00000000
00000000
00000000
00000000
00000000
00000000
00001000
00000000
00000000
00000000
00000000
00000000
00000000
00000000
,
00010000
00000010
00000100
00001000
00010000
00000010
00000100
00001000
,
00010000
00000010
00000100
00001000
00010000
00000000
01000000
00010000
,
00001000
00100000
01000000
00010000
00001000
00100000
01000000
00010000
,
00001000
00100000
01000000
00010000
00002000
00000000
00003010
00000100
,
00001000
00000001
00000100
00000010
00001000
00000001
00000010
00000100
,
00001000
00000001
00000100
00001000
00010000
00100000
00000000
01000000
,
00010000
00000000
10000000
10000000
00000000
01100000
00000000
00010000
,
01000000
00001000
00020000
00000000
00030000
00000000
00010100
00000000
,
00000100
00001000
00000010
00000000
00000100
00000000
00000101
00000000
,
00000001
00000010
00001000
00000000
00010000
01000000
10000000
00000000
,
00010000
01000000
00100000
00000000
10000000
01000000
00100000
00010000
,
00100000
00001000
00010000
00000020
00000000
00001000
00001030
00000000
,
00000010
00000100
00000001
00000000
00000010
00000100
00001000
00000000
,
00000100
00010000
00001000
01000000
00010000
10000000
01000000
00000000
,
00100000
00010000
10000000
00010000
01000000
00100000
20000000
00000000
,
02000000
00000000
03000000
00000000
00000000
00000000
30100000
00000000
00000000
11000000
00000000
00000000
,
01000000
00100000
00010000
00100000
00001000
00000000
00011000
00000000
,
00010000
00000010
00001000
00000010
00000100
00000001
00001000
00000000
,
00000100
00010000
00001000
01000000
00010000
00100000
01000000
10000000
,
00010000
01000000
00100000
20000000
00000000
31000000
01000000
00000000
,
00100000
00010000
00100000
00001000
00010000
00000010
00000000
00000010
,
00000100
00000001
00001000
00000000
00000100
00000010
00000002
00000000
,
00000100
00000000
00000000
00000000
00001003
00000000
00000001
00000000
00000010
00000000
00000000
00000000
00000100
00000000
00000000
00000100
,
00010000
00000000
00001000
00000000
00000000
00001000
01000000
00000000
00010000
00000000
00000000
00000000
10010000
00000000
00000000
00000000
,
00000000
02200000
03300000
00011000
,
00000000
00000220
00000330
00001001
,
00000000
00000000
00000000
00000000
00022000
00000000
00000000
00000000
00033000
00000000
00000000
00000000
00001000
00000000
00000000
00010000
,
00000000
00000000
01000000
00000000
00010000
00000000
00000000
00001000
00000000
00000000
00000100
00000000
00000010
00000000
00000000
00000000
,
00000000
00022000
00033000
01100000
,
00000000
00022000
00033000
00010100
,
00000000
00000000
00000000
00000000
02002000
00000000
00000000
00000000
03003000
00000000
00000000
00000000
10000000
00000000
00000000
01000000
,
00000000
00000000
00010000
00000000
00001000
00000000
00000000
00000100
00000000
00000000
00000002
00000000
00000000
00000000
00000000
00000000
,
00000000
00000000
00000000
00000000
,
00000000
00000003
00000000
00000220
00000000
00000000
00000000
00000000
,
00000000
00000000
00000000
00000000
00000000
00000000
00000330
00000001
,
00000100
00001000
00010000
00100000
00200000
00000000
01300000
00010000
,
10000000
00010000
00100000
01000000
00000000
01100000
00000000
00100000
,
00001000
00010000
00000010
00010000
00001000
00000000
00000010
00000100
,
00001000
00000010
00000100
00000001
00000000
00001001
00000000
00001000
,
00000100
00000000
00010000
00000000
00001000
00000000
01000000
00010000
02000000
00000000
00000000
00000000
03100000
00000000
10000000
00000000
,
00010000
10000000
01000000
00100000
00000000
01100000
00000000
01000000
,
00010000
00001000
00000100
00000010
00000000
00000110
00000000
00000100
,
00000001
00000000
00001000
00000100
00000000
00010100
00000000
00010000
,
00001000
00000000
01000000
00000000
00010000
00000000
10000000
00100000
10000000
00000000
00000000
00000000
01000000
00000000
00010000
00000000
,
00001000
00000100
00001000
00010000
00000000
00011000
00000000
00001000
,
00000010
00000100
00000010
00000001
00001000
00000000
00000010
00000100
,
00001000
00010000
00100000
01000000
00000000
01010000
00000000
00010000
,
10000000
00000000
01000000
00000000
00100000
00000000
00010000
10000000
00020000
00000000
00000000
00000000
01030000
00000000
00001000
00000000
,
00010000
00000100
00001000
00000010
00000000
00000110
00000000
00000100
,
00000001
00001000
00000100
00000010
00000010
00001000
00000000
00010000
,
00100000
00000000
01000000
00010000
00000000
10010000
00000000
10000000
,
01000000
00000000
00100000
00000000
00010000
00000000
01000000
00010000
01000000
00000000
00000000
00000000
00001000
00000000
00010000
00000000
,
00000100
00010000
00001000
01000000
00000000
00200000
00000000
10300000
,
01000000
00100000
00010000
01000000
00000000
00000000
00001000
00010000
,
00000100
00001000
00000001
00000100
00000000
00000020
00000000
00000130
,
00001000
00000000
00010000
00000000
00001000
00000000
01000000
00010000
02000000
00000000
00000000
00000000
03010000
00000000
10000000
00000000
,
01000000
00100000
01000000
10000000
00000000
00200000
00000000
00310000
,
00001000
00010000
00000100
00001000
00000000
00001001
00000000
00000001
,
00000100
00001000
00010000
01000000
10000000
00200000
00000000
01300000
,
00001000
00010000
00000020
00001000
00001030
00000000
00000010
00000100
,
00000001
00001000
00000100
00010000
00000000
00001000
01000000
00010000
,
10000000
01000000
00100000
00010000
01000000
00000000
00001000
00010000
,
00000100
00010000
00001000
00000100
00000000
00000010
00001000
00000100
,
00001000
00000000
00000001
00000000
00000100
00000000
00000010
00001000
00000010
00000000
00000000
00000000
00010000
00000000
00001000
00000000
,
00100000
00001000
00010000
00100000
00000000
01000000
00010000
10000000
,
01000000
00010000
00001000
00000010
00000010
00000001
00000000
00000100
,
00001000
00000000
00010000
00100000
00100000
10000000
00000000
01000000
,
00010000
00000000
00001000
00000010
00000010
00000100
00000000
00010000
,
00010000
00000000
00001000
00000000
00001000
00000000
01000000
00000000
00010000
00000000
10000000
00000000
00000000
00000000
00010000
00100000
,
00010000
01000000
00001000
00001000
00010000
00010000
00022000
00000000
,
00000000
00000000
00033000
00000000
;

//--------------- dance-double - forcednature ----------------
#NOTEDATA:;
#STEPSTYPE:dance-double;
#DESCRIPTION:forcednature;
#CREDIT:forcednature;
#DIFFICULTY:Challenge;
#METER:16;
#RADARVALUES:0,0,0,0,0;
#NOTES:
00000000
00000000
00000000
00000000
,
00000000
00000000
00000000
00000000
,
00000000
00000000
00000000
00000000
,
00000000
00000000
00000000
00000000
,
00000000
00000000
00000000
00000000
,
00000000
00000000
00000000
00000000
,
00000000
00000000
00000000
00000000
,
00000000
00000000
00000000
00000000
,
00020000
00032000
00003200
00000320
00002030
00003200
00000320
00000032
,
00000203
00000000
00002300
00000000
00023000
00000000
00230000
00000000
01300000
00010000
01000000
00010000
10000000
01000000
10000000
01000000
,
00100000
00001000
00010000
00000000
00100000
10000000
22000000
33000000
,
10000000
01000000
00000000
00000000
01000000
00010000
00000000
00000000
00010000
00000000
00001000
00000000
00022000
00000000
00033000
00000000
,
00010000
00001000
00000100
00000001
00000100
00000010
00001010
00000000
,
00000001
00000000
00000100
00000000
00002000
00000000
00000000
00000000
00013000
00000000
01000000
10000000
00200000
00000000
00000000
00000000
,
10300000
01000000
00010000
00000000
00001000
00000100
00000220
00000330
,
00000001
00000100
00001000
00000000
00010000
01000000
02200000
03300000
,
10000000
01000000
00100000
00010000
00001000
00000100
00000010
00000000
,
00000001
00000000
00000001
00000000
00001000
00000000
00001000
00000000
00000100
00010000
00000100
00010000
00001000
01000000
00010000
01000000
,
00200000
00000000
00000000
00000000
00000000
00000000
00000000
00000000
00000000
00000000
00000000
00000000
00000000
00000000
00000000
00000000
00000000
00000000
00000000
00000000
00000000
00000000
00000000
00000000
00000000
00000000
00000000
00000000
00000000
00000000
00000000
00000000
00000000
00300000
00000000
00000000
00000000
00000000
00000000
00000000
00000000
00000000
00000000
00000000
00000000
00000000
00000000
00000000
01000000
00000000
00000000
00000000
00000000
00000000
00000000
00000000
00001000
00000000
00000000
00000000
00100000
00000000
00000000
00000000
,
00020000
00000000
01030000
00000000
00100000
00000000
01000000
00001000
00020000
00000000
00130000
00000000
01000000
00000000
00001000
00100000
,
00020000
00000000
00130000
00000000
01000000
00000000
00010000
00001000
00020000
00000000
00030000
00000000
00001000
00000000
00010000
00000100
,
00002000
00000000
00003010
00000000
00000100
00000000
00000010
00010000
00002000
00000000
00003010
00000000
00000100
00000000
00010000
00000010
,
00002000
00000000
00003100
00000000
00000010
00000000
00010000
00001000
00020000
00000000
00000000
00000000
00130000
00000000
10000000
00010000
,
02000000
00000000
13000000
00000000
01000000
00000000
00010000
00100000
02000000
00000000
03010000
00000000
01000000
00000000
10000000
00100000
,
02000000
03001000
00010000
00010000
02000000
03100000
00000000
00001000
,
00011000
00000000
00000100
00000100
00000010
00001001
00000000
00000001
,
00000100
00000000
00000010
00001000
00000010
00000000
00010000
00001000
00100000
00010000
00100000
00010000
20000000
00000000
00000000
00000000
,
31000000
00010000
00001000
00010000
00000010
00010000
00002000
00000000
,
00003010
00000100
00001000
00000100
00000010
00000002
00000100
00000000
,
00001000
00000000
00000013
00000001
00000100
00002000
00023000
00230000
,
02300000
00000000
03020000
00000000
20030000
00000000
31000000
00100000
00010000
00000000
00100000
00010000
02000000
00000000
00000000
00000000
,
03001000
00010000
00000100
00001000
00000010
00000200
00000000
00001300
,
00001000
00000000
00010000
00000000
00000100
00000000
00000000
00000100
00000010
00000000
00000001
00000000
00000100
00000000
00000100
00000000
,
00001000
00000000
00001000
00000000
00010000
00001000
00010000
00001000
01000000
00010000
01000000
00010000
00200000
00000000
00000000
00000000
,
00000000
00000000
01300000
20010000
,
31000000
00010000
00001000
00000010
00000001
00001000
00000002
00000000
,
00000103
00001000
00010000
00100000
10000000
00020000
00100000
00000000
,
10000000
00000000
01030000
00000000
00010000
20000000
32000000
03020000
,
00032000
00000000
00003020
00000000
00000032
00000000
00001003
00000001
00000100
00000000
00000001
00000100
00000020
00000000
00000000
00000000
,
00001030
00010000
01000000
00010000
00100000
02000000
00000000
00010000
,
03010000
00000000
01000000
00000000
10000000
00000000
00000000
10000000
00100000
00000000
02000000
00000000
10000000
00000000
00000000
00000000
,
03010000
00000000
00000000
00000000
01000000
00000000
00001000
00000000
00010000
00000000
00000100
00000000
00001000
00000010
00001000
00000010
,
00001000
00000000
00000001
00000010
00000001
00000010
00000001
00000000
00000100
00000000
00000100
00000010
00001000
00000000
00010000
00000000
,
00000000
01000000
01010000
00010000
00100000
00000000
01000000
10000000
,
00000000
00100000
01100000
01000000
00010000
00000000
00001000
00000100
,
00000010
00000000
00000001
00000000
00001001
00000000
00001000
00000000
00000000
00000000
00000010
00000000
00000100
00000000
00000000
00001000
,
00000000
00000000
00011000
00000000
01000000
00000000
00000000
00010000
00000000
00000000
00011000
00000000
00000000
00000000
01100000
00000000
,
00000000
10000000
10010000
00010000
00100000
01000000
00010000
00001000
,
00000000
00000100
00000110
00000010
00001000
00000000
00000001
00000010
,
00001000
00000000
00010000
00000000
00011000
00000000
00001000
00000000
00000000
00000000
00010000
00000000
00001000
00000000
00000000
00000001
,
00000000
00000000
00001000
00000000
00010000
00000000
00000000
10000000
00000000
00000000
00010000
00000000
00002000
00000000
00000000
00000000
,
00000000
00000000
00000000
00000000
,
00000000
00003000
00000000
00000220
00000000
00000000
00000000
00000000
,
00000000
00000000
00000000
00000000
00000000
00000000
00000000
00000000
00000330
00000000
00000000
00000000
00000001
00000000
00000100
00000010
,
00000100
00000000
00001000
00000000
00010000
00000000
00010000
00000000
00200000
00000000
00000000
00000000
10300000
00010000
10000000
00000000
,
01000000
00000000
10000000
00010000
10000000
00000000
00100000
00000000
01000000
00000000
00010000
00100000
00010000
00000000
01000000
00000000
,
00001000
00000000
00010000
00000100
00010000
00000000
00001000
00000000
00000100
00000000
00000000
00000000
00000010
00001000
00000010
00000000
,
00000100
00000000
00000001
00000010
00000001
00000000
00000100
00000000
00001000
00000000
00010000
00000100
00010000
00000000
00001000
00010000
,
00001000
00000000
01000000
00010000
01000000
00000000
00200000
20300000
30020000
00000000
00030000
00000000
10000000
01000000
10000000
00000000
,
00100000
00000000
10000000
01000000
10000000
00000000
00100000
00000000
01000000
00000000
00001000
00010000
00001000
00000000
00000010
00000000
,
00000100
00000000
00001000
00000001
00001000
00000000
00000010
00000000
00000010
00000000
00000201
00000000
00000000
00000000
00001300
00000000
,
00010000
00000000
00100000
00100000
10000000
01020000
00000000
00130000
,
01000000
00000000
10000000
00010000
10000000
00000000
01000000
00100000
00010000
00100000
00001000
00010000
00000010
00001000
00000010
00000000
,
00000100
00000000
00000010
00001000
00000010
00000000
00000100
00000000
00000001
00000000
00000010
00000100
00000010
00000000
00000001
00000000
,
00001000
00000000
00000010
00000100
00000010
00000000
00010000
00000000
00001000
00000000
00000000
00000000
01000000
00100000
01000000
00000000
,
00010000
00000000
10000000
00100000
10000000
00000000
01000000
00000000
00010000
00000000
00001000
00010000
00001000
00000000
00010000
00000100
,
00010000
00000000
00000100
00001000
00000100
00000000
00000010
00000001
00002000
00000000
00000000
00000000
00003001
00000100
00000001
00000000
,
00000010
00000000
00000001
00000100
00000001
00000000
00000010
00000000
00001000
00000000
00010000
00001000
00010000
00000000
00000100
00000000
,
00010000
00000000
00001000
01000000
00001000
00000000
00010000
00000000
00010000
00000000
00201000
00000000
00000000
00000000
10300000
00000000
,
00100000
00000000
01000000
10000000
00100000
02010000
00000000
03001000
,
00010000
00000000
00000100
00001000
00000100
00000000
00000010
00000001
00001000
00000001
00001000
00000001
00000100
00000000
00001000
00000000
,
00010000
01000000
00010000
00001000
00000000
00021000
00000000
00130000
,
01000000
00010000
10000000
02000000
00000000
03000000
00010000
00001000
,
00000010
00001000
00010000
00100000
00000000
02100000
00000000
03010000
,
10000000
00000000
01000000
00000000
00010000
00000000
00002000
00023000
00032000
00000000
00000000
00000000
00003010
00000000
00000100
00000000
,
00001000
00000010
00000100
00001000
00000000
00021000
00000000
00030100
,
00001000
00000000
00000010
00000000
00010000
00000000
00001000
00000000
00000010
00000000
00000011
00000000
00000000
00000000
00000001
00000100
,
00000010
00001000
00000010
00010000
00001000
00011000
00000000
00010000
,
01000000
00000000
10000000
00010000
01000000
00000000
00100000
10000000
00010000
00100000
00010000
00100000
01000000
10000000
00010000
00000000
,
01000000
00000000
00001000
00010000
00000100
00000000
00001000
00000000
00000001
00000000
00000100
00000010
00001000
00000000
00000010
00010000
,
00001000
00000000
00100000
00010000
10000000
00000000
01000000
00100000
00010000
00000000
01000000
00000000
00100000
10000000
00010000
00000000
,
10000000
00000000
01000000
00100000
00010000
00000000
01000000
00000000
00001000
00000000
00010000
00000100
00001000
00000000
00000001
00000100
,
00000010
00000000
00001000
00000100
00000010
00000000
00000100
00010000
00002000
00000000
00000000
00000000
01003000
00010000
00100000
00000000
,
01000000
00000000
10000000
00010000
01000000
00000000
00100000
00000000
10000000
00000000
01000000
00100000
00010000
00000000
00100000
00001000
,
00010000
00000000
00000010
00001000
00000001
00001000
00000100
00000010
00000001
00000000
00001001
00000000
00000000
00000000
00001000
00000100
,
00001000
00000010
00010000
00010000
00001000
00011000
00000000
00010000
,
01000000
00000000
10000000
00010000
01000000
00000000
01000000
00000000
00100000
00000000
01100000
00000000
00000000
00000000
00100000
10000000
,
00010000
10000000
01000000
00100000
00010000
00000000
00010000
00000000
01000000
00000000
01001000
00000000
00000000
00000000
00001000
00000000
,
00010000
00000000
00000100
00001000
00000001
00000000
00000100
00000010
00001000
00000010
00001000
00000010
00020000
00000000
00000000
00000000
,
00000000
00000000
00030000
00000000
;
