#VERSION:0.83;
#TITLE:黒髪乱れし修羅となりて;
#SUBTITLE:;
#ARTIST:村正クオリア;
#TITLETRANSLIT:Kurokami midareshi shura to narite;
#SUBTITLETRANSLIT:;
#ARTISTTRANSLIT:Muramasa Qualia;
#GENRE:NADESHIKO METAL;
#CREDIT:;
#MUSIC:Kurokami midareshi shura to narite.ogg;
#BANNER:Kurokami midareshi shura to narite.png;
#BACKGROUND:Kurokami midareshi shura to narite-bg.png;
#CDTITLE:./CDTitles/pnm 18 Sengoku Retsuden.png;
#SAMPLESTART:38.714;
#SAMPLELENGTH:15.000;
#SELECTABLE:YES;
#OFFSET:0.853;
#BPMS:0.000=150.000;
#STOPS:;
#BGCHANGES:0.000=../BGAs/14tr.mp4=1.000=0=0=0=StretchNoLoop====,
99999.000=-nosongbg-=1.000=0=0=0=StretchNoLoop====
;
#FGCHANGES:;

//--------------- dance-single - forcednature ----------------
#NOTEDATA:;
#STEPSTYPE:dance-single;
#DESCRIPTION:forcednature;
#DIFFICULTY:Beginner;
#METER:2;
#RADARVALUES:0,0,0,0,0;
#CREDIT:forcednature;
#NOTES:
0000
0000
0000
0000
,
0000
0000
0000
0000
,
0000
0000
0000
0000
,
0000
0000
0000
0000
,
0000
0000
0000
0000
,
1000
0000
0000
0000
,
0000
0000
0000
0000
,
0001
0000
0000
0000
,
0000
0000
0000
0000
,
1001
0000
0000
0000
,
0000
0000
0000
0000
,
0000
0000
0000
0000
,
0000
0000
0000
0000
,
0010
0000
0000
0000
,
0000
0000
0000
0000
,
0000
0000
0000
0000
,
0100
0000
0000
0000
,
1001
0000
0000
0000
,
0000
0000
0000
0000
,
0001
0000
0000
0000
,
0001
0000
0000
0000
,
0010
0000
0000
0000
,
0000
0000
0000
0000
,
1000
0000
0000
0000
,
1000
0000
0000
0000
,
0010
0000
0000
0000
,
0000
0000
0000
0000
,
0100
0000
0000
0000
,
0001
0000
0000
0000
,
0010
0000
0000
0000
,
0000
0000
0000
0000
,
0100
0000
0000
0000
,
1000
0000
0000
0000
,
0000
0000
0000
1000
,
0010
0000
0000
0000
,
0000
0000
0000
0010
,
0100
0000
0000
0000
,
0000
0000
0000
0100
,
0001
0000
0000
0000
,
0000
0000
0000
0001
,
0010
0000
0000
0000
,
1001
0000
0000
0000
,
0000
0000
0000
0000
,
1000
0000
0000
0000
,
1000
0000
0000
0000
,
0010
0000
0000
0000
,
0000
0000
0000
0000
,
0001
0000
0000
0000
,
0001
0000
0000
0000
,
0010
0000
0000
0000
,
0100
0000
0000
0000
,
1000
0000
0000
0000
,
0001
0000
0000
0000
,
0100
0000
0000
0000
,
0010
0000
0000
0000
,
1000
0000
0000
0000
,
0001
0000
0000
0000
,
1001
0000
0000
0000
,
0000
0000
0000
0000
,
0010
0000
0000
0000
,
0100
0000
0000
0000
,
1001
0000
0000
0000
,
0000
0000
0000
0000
,
0100
0000
0000
0000
,
0010
0000
0000
0000
,
1001
0000
0000
0000
,
0000
0000
0000
0000
,
1000
0000
0000
0000
,
0010
0000
0010
0000
,
0100
0000
0000
0000
,
0001
0000
0000
0000
,
0010
0000
0000
0000
,
0001
0000
0000
0000
,
1000
0000
0000
0000
,
1001
0000
0000
0000
;

//--------------- dance-single - forcednature ----------------
#NOTEDATA:;
#STEPSTYPE:dance-single;
#DESCRIPTION:forcednature;
#DIFFICULTY:Easy;
#METER:6;
#RADARVALUES:0,0,0,0,0;
#CREDIT:forcednature;
#NOTES:
0000
0000
0000
0000
,
0000
0000
0000
0000
,
0000
0000
0000
0000
,
0000
0000
0000
0000
,
0000
0000
0000
0000
,
1000
1000
0000
0000
,
0100
0100
0000
0000
,
0010
0010
0000
0000
,
0001
0001
0000
0000
,
1001
0000
0000
0000
,
2000
0000
3020
0000
,
0230
0000
0000
0000
,
0300
0000
0000
0000
,
0000
0000
0002
0000
,
0023
0000
0230
0000
,
2300
0000
0000
0000
,
3010
0010
0010
0000
,
0110
0000
0001
0000
,
0010
0000
0100
1000
,
0001
0000
0100
0000
,
0010
0000
1000
1000
,
0001
0000
0010
0000
,
0100
0000
1000
0010
,
0100
0000
0001
0000
,
1000
0000
0100
0010
,
0110
0000
0100
1000
,
0001
0000
0100
0001
,
1000
0000
0010
0100
,
0001
0010
0100
1000
,
1001
0000
0001
0100
,
0010
0000
1000
0100
,
0010
0000
0001
1000
,
0020
0000
0230
0000
,
0301
0010
0100
1000
,
0020
0000
0230
0000
,
0301
0010
0100
1000
,
0200
0000
0320
0000
,
0031
0100
0010
1000
,
0200
0000
0320
0000
,
0031
0100
0010
0010
,
2002
0000
3003
0000
,
1000
0000
0100
1000
,
0100
0010
0100
0000
,
0010
0001
1000
0000
,
1000
0001
0100
0000
,
0110
0000
0001
0100
,
0010
1000
0010
0000
,
1000
0100
0010
0000
,
0001
0100
0010
0000
,
2001
0000
3200
0000
,
0310
0001
1000
0100
,
0020
0000
0032
0000
,
1003
0010
0100
0001
,
2000
0000
3020
0000
,
0130
0001
0010
0100
,
2000
0000
3002
0000
,
1003
0100
0010
0001
,
2000
0000
0000
0000
,
3010
0000
0000
0100
0000
0000
0000
1001
,
0000
0001
0000
0001
0000
0010
0000
0010
,
0000
0001
0000
1000
0000
0100
0000
0000
,
0120
0000
0032
0000
,
1003
0000
0000
0000
0010
0000
0000
0110
,
0000
0100
0000
0100
0000
0001
0000
1000
,
0000
0000
0010
0000
,
2001
0000
3200
0000
,
0320
0000
0000
0030
,
0002
0000
0203
0000
,
0310
0010
0010
0000
,
0110
0000
0100
0001
,
0010
0100
0010
0001
,
0100
0000
0010
1000
,
0001
0001
0000
0100
,
1000
1000
0000
0100
,
0220
0000
0000
0330
;

//--------------- dance-single - forcednature ----------------
#NOTEDATA:;
#STEPSTYPE:dance-single;
#DESCRIPTION:forcednature;
#DIFFICULTY:Medium;
#METER:11;
#RADARVALUES:0,0,0,0,0;
#CREDIT:forcednature;
#NOTES:
0000
0000
0000
0000
,
0000
0000
0000
0000
,
0000
0000
0000
0000
,
0000
0000
0000
0000
,
0000
0000
0000
0000
,
1000
0000
0100
0000
0000
0010
0010
0010
,
0001
0000
0100
0000
0000
0010
0010
0010
,
1000
0000
0001
0000
0000
0100
0100
0100
,
0001
0000
1000
0000
0000
0100
0100
0100
,
0010
0000
0000
0000
0001
0200
0000
0310
,
2000
0000
0000
3002
0000
0013
0001
0000
,
0010
0100
2000
0000
0000
0000
0000
0000
,
3000
0000
0000
0000
,
0000
0000
0000
0010
0200
0000
0000
0301
,
0020
0000
0000
0230
0000
1300
0001
0000
,
0100
0001
0200
0000
0000
0000
0300
0000
,
0110
0000
0010
1000
0001
0100
0010
0000
,
2000
0000
3100
0010
0002
0000
0103
0010
,
2000
0000
3100
0010
0001
0000
1001
0000
,
0002
0000
0103
0010
2000
0000
3100
0010
,
0002
0000
0103
0010
2000
0000
3100
0000
,
0120
0000
0031
0100
0020
0000
1030
0100
,
0020
0000
0031
0100
0010
0000
0110
0000
,
2001
0000
3010
0100
0002
0000
0013
0100
,
2000
0000
3010
0100
0001
0000
0010
0100
,
0110
0000
0010
0001
0100
0001
1000
0100
,
1000
0000
0010
1000
0100
1000
0001
0100
,
0001
0000
0010
0100
1000
0010
0100
0001
,
0010
0000
0000
0011
0000
0000
0110
0000
0000
1100
0000
0000
1001
0000
0000
0000
,
0001
0000
0100
0010
1000
0100
0010
0100
,
1000
0000
0010
0100
0001
0010
0100
0010
,
0001
0000
0100
0010
1000
0001
0010
0100
,
2000
0000
3001
0100
2000
0000
3100
0001
,
1000
1000
0100
0001
0001
0100
0110
0000
,
0002
0000
1003
0100
0002
0000
0103
1000
,
0001
0001
0100
1000
1000
0100
0110
0000
,
2000
0000
3001
0010
2000
0000
3010
0001
,
1000
1000
0010
0001
0001
0010
0110
0000
,
0002
0000
1003
0010
0002
0000
0013
1000
,
0001
0001
0010
1000
1000
0010
0110
0000
,
2002
0000
3003
0000
,
1000
0100
0010
0000
0100
0010
0001
0000
,
0100
0010
1000
0000
0001
0010
0100
0000
,
0010
0001
1000
0000
0010
0100
0001
0000
,
1001
0000
1000
0100
0010
0001
0010
0100
,
1000
0000
0001
0100
0010
0000
0100
0010
,
1000
0000
0001
0010
0100
0000
0010
0100
,
1000
0000
0010
0100
0001
0000
0010
0000
,
1001
0000
1000
0100
0010
0010
0010
0000
,
0002
0000
1003
0100
0002
0000
0103
1000
,
0002
0000
1003
0100
0001
0000
0110
0000
,
2000
0000
3001
0100
2000
0000
3100
0001
,
2000
0000
3001
0100
1000
0100
0001
0000
,
2001
0000
3001
0010
2000
0000
3010
0001
,
2000
0000
3001
0010
0100
0000
0110
0000
,
1002
0000
1003
0010
0002
0000
0013
1000
,
0002
0000
1003
0010
0001
0010
1000
0000
,
1002
0203
0320
2030
,
3001
0010
0000
0110
0000
0100
1000
1020
,
0000
0130
0001
0100
0001
0010
0001
0010
,
0100
0000
1000
0010
0100
0100
0100
0000
,
1002
0023
0230
2300
,
3010
0100
0000
0110
0000
0100
0001
0021
,
0000
0130
1000
0100
1000
0001
0010
0100
,
1000
0000
0010
0100
0002
0000
0013
0000
,
2001
0000
3100
0010
,
0002
0000
0103
0010
,
2000
0000
3001
0010
,
0110
0000
0000
1100
0000
0000
0011
0000
0000
0110
0000
0000
1001
0000
0000
0000
,
1000
0010
0100
0001
0010
0001
0100
0000
,
0010
1000
0100
0010
0001
0100
0010
0000
,
1000
0001
0010
0100
1000
0000
0001
0000
,
0100
0010
0100
0010
0000
1000
1000
0000
,
0100
0010
0100
0010
0000
0001
0001
0000
,
2002
0000
0000
3003
;

//--------------- dance-single - forcednature ----------------
#NOTEDATA:;
#STEPSTYPE:dance-single;
#DESCRIPTION:forcednature;
#DIFFICULTY:Hard;
#METER:15;
#RADARVALUES:0,0,0,0,0;
#CREDIT:forcednature;
#NOTES:
0000
0000
0000
0000
,
0000
0000
0000
0000
,
0000
0000
0000
0000
,
0000
0000
0000
0000
,
0000
0000
0000
0000
,
1000
0100
1000
0000
0100
0010
0100
0000
0000
0000
0010
0001
0010
0001
0010
0000
,
0001
0100
0001
0000
0100
0010
0100
0000
0000
0000
0010
1000
0010
1000
0010
0000
,
1000
0001
1000
0000
0100
0010
0100
0000
0000
0000
1000
0010
1000
0010
1000
0000
,
0001
1000
0001
0000
0100
0010
0100
0000
0000
0000
0001
0010
0001
0010
0001
0000
,
0010
0000
0000
0100
1000
0002
0000
0103
,
0020
0000
0000
2030
0000
3100
0010
0001
,
1000
0000
0010
0000
0200
0000
0000
0000
0001
0000
0000
0001
0000
0000
0001
0000
,
0000
0000
0000
0000
0310
0000
0000
0000
0100
0000
0000
0001
0000
0000
1000
0000
,
0000
0000
0000
0100
0010
0002
0000
1003
,
0020
0000
0000
0230
0000
0301
0010
0100
,
1000
0000
0010
0000
0200
0000
0000
0000
0001
0000
0000
0001
0000
0000
0310
0000
,
2001
0000
0000
0000
3100
0010
0100
0010
0001
0010
0001
0010
0100
1000
0001
0000
,
0200
0000
0000
0000
0310
0000
1000
0001
0020
0000
0000
0000
0130
0000
0010
0001
,
2000
0000
0000
0000
3010
0000
0100
0001
1000
0000
0000
0000
1100
0000
0000
0000
,
0002
0000
0000
0000
0013
0000
0100
1000
0002
0000
0000
0000
0103
0000
0010
1000
,
0002
0000
0000
0000
0013
0000
0100
1000
0001
0100
0010
0100
0001
1000
0010
0000
,
2000
0000
0000
0000
3100
0000
0010
0001
0200
0000
0000
0000
0310
0000
1000
0001
,
0020
0000
0000
0000
0130
0000
1000
0001
0100
0000
0000
0000
0110
0000
0000
0000
,
0020
0000
0000
0000
1030
0000
0001
0010
0200
0000
0000
0000
0310
0000
0001
1000
,
0020
0000
0000
0000
0130
0001
1000
0001
0100
0000
0000
0000
0010
0000
0100
0000
,
1001
0000
1000
0100
1000
0100
0010
0000
0001
0000
1000
0010
1000
0010
0100
0000
,
0001
0000
0010
0100
0010
0100
1000
0000
0020
0000
0230
0000
0302
0000
2003
0000
,
3100
0000
0010
0001
0010
0001
1000
0000
0010
0000
0100
0000
0001
0000
0010
0000
,
0001
0100
0000
0010
0100
0000
0001
1000
0000
0010
1000
0001
0100
0000
0010
0000
,
1001
0000
0001
0010
0001
0010
0100
0000
1000
0000
0001
0100
0001
0100
0010
0000
,
1000
0000
0100
0010
0100
0010
0001
0000
0200
0000
0320
0000
2030
0000
3002
0000
,
0013
0000
0100
1000
0100
1000
0001
0000
0100
0000
0010
0100
0000
0010
1000
0000
,
0002
0000
0000
0000
0013
0100
1000
0100
0020
0000
0000
0000
0130
1000
0001
1000
,
0100
0010
0000
0001
0010
0000
0100
1000
0001
0000
0101
0000
1010
0000
0000
0000
,
2000
0000
0000
0000
3010
0100
0001
0100
0020
0000
0000
0000
0130
0001
1000
0001
,
0100
0010
0000
1000
0010
0000
0100
0001
1000
0000
1100
0000
0011
0000
0000
0000
,
0002
0000
0000
0000
0103
0010
1000
0010
0200
0000
0000
0000
0310
1000
0001
1000
,
0010
0100
0000
0001
0100
0000
0010
1000
0001
0000
0011
0000
1100
0000
0000
0000
,
2000
0000
0000
0000
3100
0010
0001
0010
0200
0000
0000
0000
0310
0001
1000
0001
,
0010
0100
0000
1000
0100
0000
0010
0001
1000
0000
0010
0100
0001
0100
0010
0100
,
0002
0000
0000
0000
0000
0000
0003
0000
1000
0100
1000
0100
0010
0001
0010
0001
,
1000
0010
0100
0010
1000
0001
0100
1000
,
0100
0001
0010
0001
1000
0010
1000
0100
,
0001
0100
1000
0001
0010
0001
1000
0000
,
0010
0100
0001
0000
0010
0100
1000
0001
1000
0100
0010
0001
1000
0001
0010
0000
,
0001
0100
0010
0001
0010
1000
0100
0001
,
0100
1000
0001
0010
0100
0001
0100
1000
,
0010
0001
0010
1000
0001
0100
0010
0000
,
1000
0000
1000
0000
0010
0100
0001
1000
0001
0100
0010
1000
0001
1000
0010
0000
,
0200
0000
0000
0000
0301
0000
0010
0100
2000
0000
0000
0000
3010
0000
0100
0001
,
2000
0000
0000
0000
3100
0000
0010
0001
1000
0000
0000
0000
1001
0000
0000
0000
,
0002
0000
0000
0000
0103
0000
0010
1000
0002
0000
0000
0000
0013
0000
0100
1000
,
0020
0000
0000
0000
0130
0000
0001
1000
0100
0010
0100
0010
0001
1000
0010
0000
,
0210
0000
0000
0000
0301
0000
1000
0010
0200
0000
0000
0000
0301
0000
0010
0100
,
2000
0000
0000
0000
3001
0000
0100
0001
0010
0000
0000
0000
0110
0000
0000
0000
,
0200
0000
0000
0000
1300
0000
0010
0100
0002
0000
0000
0000
0013
0000
0100
1000
,
0002
0000
0000
0000
0103
0000
0010
1000
0001
0010
0001
0010
0100
1000
0001
1000
,
0200
0320
0032
1003
,
1001
0200
0000
0310
0000
0110
0110
1001
,
0000
0000
1000
0100
1000
0000
0100
0010
0100
0000
0010
0001
0010
0000
0100
0000
,
1000
0000
0001
0100
0001
0000
0100
0000
0010
1000
0001
1000
0010
0100
0001
0100
,
0020
2030
3002
0013
,
0110
2000
0000
3001
0000
1001
1001
0110
,
0000
0000
0001
0100
0001
0000
0100
0010
0100
0000
0010
1000
0010
0000
0100
0000
,
0001
0000
1000
0100
1000
0000
0010
0000
0210
0000
0000
0000
0301
0000
0000
0000
,
1020
0000
0000
0000
0000
0000
0130
0001
0200
0000
0000
0000
0310
0000
1000
0000
,
0002
0000
0000
0000
0000
0000
0013
0100
0010
0000
0000
0000
0100
0000
1000
0000
,
0002
0000
0000
0000
0000
0000
0103
0001
0100
0000
0010
0000
1000
0000
0001
0000
,
0010
0100
0000
1000
0010
0000
0100
0001
0000
0010
0100
1000
0100
0010
0001
1000
,
0010
0000
0100
0001
1000
0001
0100
0000
0010
0000
1000
0001
0010
0001
1000
0000
,
0100
0000
0010
0001
0010
0100
0010
0000
0001
0000
0101
0000
1000
0000
1100
0000
,
0001
0000
0010
0100
0010
0001
1000
0000
0010
0000
0100
0001
0000
0010
0100
0000
,
1000
0010
1000
0000
0001
0010
0001
0000
0000
0000
0100
0010
1000
0010
0100
0000
,
0001
0010
0001
0000
1000
0010
1000
0000
0000
0000
0100
0010
0001
0010
0100
0000
,
2002
0000
0000
3003
;

//--------------- dance-double - forcednature ----------------
#NOTEDATA:;
#STEPSTYPE:dance-double;
#DESCRIPTION:forcednature;
#DIFFICULTY:Easy;
#METER:6;
#RADARVALUES:0,0,0,0,0;
#CREDIT:forcednature;
#NOTES:
00000000
00000000
00000000
00000000
,
00000000
00000000
00000000
00000000
,
00000000
00000000
00000000
00000000
,
00000000
00000000
00000000
00000000
,
00000000
00000000
00000000
00000000
,
00001000
00001000
00000000
00000000
,
00010000
00010000
00000000
00000000
,
00000100
00000100
00000000
00000000
,
00001000
00001000
00000000
00000000
,
00001001
00000000
00000000
00000000
,
00000002
00000000
00000203
00000000
,
00000320
00000000
00000000
00000000
,
00000030
00000000
00000000
00000000
,
00000000
00000000
00001000
00000000
,
00000100
00000000
00010000
00000000
,
00002000
00000000
00000000
00003000
,
00100000
00100000
00100000
00000000
,
01100000
00000000
01000000
00000000
,
10000000
00000000
00100000
10000000
,
00010000
00000000
00100000
00000000
,
00001000
00000000
00010000
00010000
,
00000100
00000000
00001000
00000000
,
00000001
00000000
00000010
00000001
,
00001000
00000000
00000010
00000000
,
00010000
00000000
00001000
00000000
,
00011000
00000000
00010000
00001000
,
01000000
00000000
00010000
01000000
,
00010000
00000000
10000000
00100000
,
10000000
10000000
01000000
00100000
,
00010000
00000000
01000000
00001000
,
00010000
00000000
00001000
00010000
,
00000010
00000000
00001000
00000001
,
00000200
00000000
00000000
00000000
,
00000310
00010000
00001000
01000000
,
00020000
00000000
00000000
00000000
,
00130000
00001000
00010000
00000100
,
00002000
00000000
00000000
00000000
,
00003010
00010000
00001000
01000000
,
00020000
00000000
00000000
00000000
,
00130000
00001000
00010000
00010000
,
00022000
00000000
00033000
00000000
,
00001000
00000000
00010000
00000100
,
00001000
00000000
00000100
00000000
,
00000010
00000001
00001000
00000000
,
00000010
00000010
00000010
00000000
,
00000110
00000000
00000100
00000001
,
00001000
00000000
00000010
00000000
,
00010000
00001000
00010000
00000000
,
00001000
00001000
00001000
00000000
,
02000000
00000000
03020000
00000000
,
02030000
00000000
03100000
10000000
,
00200000
00000000
20300000
00000000
,
30020000
00000000
00130000
00100000
,
00002000
00000000
00023000
00000000
,
00032000
00000000
00013000
00000100
,
00002000
00000000
00003002
00000000
,
00000203
00000000
00000310
00001000
,
00000002
00000000
00000000
00000000
,
00000013
00000000
00000000
00000100
00000000
00000000
00000000
00001001
,
00000000
00001000
00001000
00000100
,
00010000
00001000
00100000
00100000
,
10020000
00000000
02030000
00000000
,
03100000
00000000
00000000
00000000
10000000
00000000
00000000
10010000
,
00000000
00010000
00010000
01000000
,
00001000
00010000
00000010
00000000
,
00002000
00000000
00000000
00000000
,
00003200
00000000
00000000
00000300
,
00020000
00000000
00032000
00000000
,
00103000
00100000
00100000
00010000
,
01000000
00000000
00010000
01000000
,
00001000
00000000
00010000
00000000
,
00000010
00000000
00001000
00000001
,
00000010
00000010
00000000
00000000
,
00000100
00000100
00000000
00000000
,
00002002
00000000
00000000
00003003
;

//--------------- dance-double - forcednature ----------------
#NOTEDATA:;
#STEPSTYPE:dance-double;
#DESCRIPTION:forcednature;
#DIFFICULTY:Medium;
#METER:12;
#RADARVALUES:0,0,0,0,0;
#CREDIT:forcednature;
#NOTES:
00000000
00000000
00000000
00000000
,
00000000
00000000
00000000
00000000
,
00000000
00000000
00000000
00000000
,
00000000
00000000
00000000
00000000
,
00000000
00000000
00000000
00000000
,
00001000
00000000
00010000
00000000
00000000
00000100
00000100
00000100
,
00010000
00000000
00001000
00000000
00000000
00100000
00100000
00100000
,
00001000
00000000
00010000
00000000
00000000
00000010
00000010
00000010
,
00010000
00000000
00001000
00000000
00000000
01000000
01000000
01000000
,
00010000
00000000
00000000
00000000
10000000
02000000
00000000
13000000
,
00200000
00000000
00000000
00320000
00000000
00031000
00010000
00000000
,
00001000
00000010
00000002
00000000
00000000
00000000
00000000
00000000
,
00000003
00000000
00000000
00000000
,
00000000
00000000
00000000
00000100
00000002
00000000
00000000
00000103
,
00002000
00000000
00000000
00023000
00000000
00130000
00010000
00000000
,
00100000
10000000
00020000
00000000
00000000
00000000
00030000
00000000
,
01100000
00000000
10000000
00010000
01000000
00100000
10000000
00000000
,
02000000
00000000
03010000
00001000
00200000
00000000
00301000
00010000
,
02000000
00000000
03010000
00001000
00100000
00000000
00011000
00000000
,
00000020
00000000
00000130
00001000
00020000
00000000
00030100
00001000
,
00000020
00000000
00000130
00001000
00020000
00000000
00031000
00000000
,
00200000
00000000
00301000
00010000
02000000
00000000
13000000
00010000
,
00200000
00000000
00301000
00010000
01000000
00000000
01100000
00000000
,
00200000
00000000
00301000
00010000
00000020
00000000
00010030
00001000
,
02000000
00000000
03001000
00010000
00000100
00000000
00001000
00001000
,
00000001
00000100
00001000
00000100
00001000
00010000
01000000
00010000
,
01000000
10000000
00100000
10000000
01000000
00010000
00001000
00000010
,
00000100
00001000
00000100
00010000
00001000
00000010
00000001
00000100
,
00001000
00000000
00000000
00001000
00000000
00000000
00010000
00000000
00000000
00100000
00000000
00000000
10000000
00000000
10000000
00000000
,
01000000
00010000
00001000
00100000
00010000
00100000
00001000
00000010
,
00000100
00010000
00001000
00000010
00000001
00001000
00000001
00000100
,
00001000
00000100
00001000
00010000
00100000
01000000
00100000
10000000
,
00020000
01000000
10000000
00100000
,
10030000
01000000
00010000
00001000
00000100
00000001
00000011
00000000
,
00002000
00000100
00000001
00000010
,
00003001
00000100
00001000
00010000
01000000
10000000
11100000
00000000
,
00020000
01000000
10000000
00100000
,
10030000
01000000
00010000
00001000
00000100
00000001
00000011
00000000
,
00002000
00000100
00000001
00000010
,
00003001
00000100
00001000
00010000
01000000
10000000
10100000
00000000
,
20020000
00000000
30030000
00000000
,
10000000
01000000
00010000
00000000
00001000
00010000
01000000
00000000
,
00100000
00001000
00010000
00000100
00010000
00001000
00000010
00000000
,
00000001
00001000
00000010
00000000
00001000
00000001
00000100
00000000
,
00001000
00001000
00010000
00010000
00100000
10000000
01000000
00010000
,
00001000
00000000
00100000
00010000
00100000
00000000
00001000
00000010
,
00000100
00000000
00001000
00000001
00000100
00000000
00001000
00000100
,
00000001
00001000
00000010
00000000
00010000
00001000
01000000
00000000
,
00100000
00100000
10000000
00010000
00100000
01000000
00010000
00000000
,
00002000
00000000
00003010
00000001
00000200
00000000
00000310
00010000
,
00002000
00000000
00003010
00000001
00000100
00000000
00001001
00000000
,
00020000
00000000
00031000
01000000
00200000
00000000
10300000
01000000
,
00020000
00000000
00031000
01000000
00100000
00100000
00100000
00000000
,
20010000
00000000
31000000
00010000
00002000
00000000
00103000
00010000
,
20000000
00000000
31000000
00010000
00001000
00000000
00011000
00000000
,
00000020
00000000
00000130
00001000
00020000
00000000
00130000
00010000
,
00002000
00000000
00013000
00100000
10000000
10000000
10000000
00000000
,
20010000
32000000
03020000
00032000
,
00003010
00000100
00000000
00000110
00000000
00000010
00000001
00000021
,
00000000
00000130
00001000
00000100
00010000
00001000
00100000
00010000
,
00100000
00000000
01000000
10000000
00100000
00100000
00100000
00000000
,
10020000
02030000
23000000
32000000
,
03001000
00010000
00000000
00011000
00000000
00001000
00100000
00020000
,
00000000
01030000
00010000
01000000
00001000
00010000
00000010
00001000
,
00000010
00000000
00000100
00000001
00000020
00000000
00000130
00000000
,
00002001
00000000
00003200
00000000
,
00020300
00000000
00032000
00000000
,
02003000
00000000
03020000
00230000
,
01300000
00000000
00000000
00010000
00000000
00000000
00001000
00000000
00000000
00000010
00000000
00000000
00000110
00000000
00000000
00000000
,
00000100
00010000
00001000
00000010
00000001
00001000
00000010
00000100
,
00001000
00000100
00000001
00001000
00000010
00000100
00001000
00010000
,
00100000
00000000
01000000
00000000
00001000
00000000
00010000
00000000
00100000
00000000
00000000
10000000
00000000
00000000
00010000
00000000
,
00100000
01000000
00100000
01000000
00000000
00010000
00001000
00010000
,
00000010
00000100
00000010
00000100
00000000
00001000
00010000
00001000
,
00022000
00000000
00000000
00033000
;

//--------------- dance-double - forcednature ----------------
#NOTEDATA:;
#STEPSTYPE:dance-double;
#DESCRIPTION:forcednature;
#DIFFICULTY:Hard;
#METER:16;
#RADARVALUES:0,0,0,0,0;
#CREDIT:forcednature;
#NOTES:
00000000
00000000
00000000
00000000
,
00000000
00000000
00000000
00000000
,
00000000
00000000
00000000
00000000
,
00000000
00000000
00000000
00000000
,
00000000
00000000
00000000
00000000
,
00001000
00010000
00001000
00000000
00000010
00001000
00000010
00000000
00000000
00000000
00000100
00000000
00000100
00000000
00000100
00000000
,
00010000
00001000
00010000
00000000
00100000
00010000
00100000
00000000
00000000
00000000
01000000
00000000
01000000
00000000
01000000
00000000
,
00001000
00010000
00001000
00000000
00000100
00001000
00000100
00000000
00000000
00000000
00000010
00000000
00000010
00000000
00000010
00000000
,
00010000
00001000
00010000
00000000
01000000
00010000
01000000
00000000
00000000
00000000
00100000
00000000
00100000
00000000
00100000
00000000
,
10010000
00000000
00000000
10000000
01000000
00020000
00000000
00031000
,
00200000
00000000
00000000
00302000
00000000
00003010
00000100
00010000
,
00001000
00000000
00000010
00000000
00000002
00000000
00000000
00000000
00000100
00000000
00000000
00000100
00000000
00000000
00000100
00000000
,
00000000
00000000
00000000
00000000
00000013
00000000
00000000
00000000
00000001
00000000
00000000
00000100
00000000
00000000
00001000
00000000
,
00000000
00010000
00001000
00010000
00100000
20000000
00000000
30010000
,
02000000
00000000
00000000
03002000
00000000
00003100
00001000
00000100
,
00000001
00000000
00001000
00000000
00000020
00000000
00000000
00000000
00001000
00000000
00000000
00001000
00000000
00000000
00010030
00000000
,
00011000
00000000
00000000
00000000
00100000
00010000
00100000
00010000
00100000
01000000
00100000
01000000
10000000
00010000
00100000
00000000
,
01000000
00000000
00010000
00000000
00001000
00000000
00100000
00010000
00100000
00000000
00001000
00000000
00000010
00000000
00000100
00001000
,
00000100
00000000
00010000
00000000
00001000
00000000
00000010
00000001
00000010
00000000
00000000
00000000
00000101
00000000
00000000
00000000
,
00000100
00000000
00001000
00000000
00010000
00000000
00000010
00001000
00000010
00000000
00010000
00000000
00100000
00000000
01000000
00010000
,
01000000
00000000
00001000
00000000
00010000
00000000
00100000
10000000
00100000
01000000
00100000
01000000
00100000
01000000
00010000
00000000
,
10000000
00000000
01000000
00000000
00010000
00000000
00001000
00100000
00010000
00000000
00100000
00000000
00001000
00000000
00000010
00000100
,
00001000
00000000
00000001
00000000
00000010
00000000
00000001
00001000
00000010
00000000
00000000
00000000
00000110
00000000
00000000
00000000
,
00000001
00000000
00000100
00000000
00001000
00000000
00010000
00000010
00001000
00000000
00000010
00000000
00010000
00000000
00100000
01000000
,
00010000
00000000
10000000
00000000
00100000
00000000
10000000
00010000
00100000
00000000
00000000
00000000
01000000
00000000
01100000
00000000
,
10010000
00000000
10000000
01000000
00100000
01000000
00100000
00000000
00010000
00000000
00100000
00010000
00100000
00001000
00010000
00000000
,
00000010
00000000
00001000
00000010
00001000
00000001
00000100
00000000
00002000
00000000
00023000
00000000
00230000
00000000
02300000
00000000
,
03010000
00000000
10000000
00100000
10000000
00010000
01000000
00000000
00010000
00000000
00100000
00000000
00001000
00000000
00000010
00000000
,
00000100
00001000
00000000
00000100
00000010
00000000
00000001
00000010
00000000
00000001
00000100
00000000
00000110
00000000
00000000
00000000
,
00001000
00000000
00000001
00000100
00000010
00000100
00000010
00000000
00001000
00000000
00000010
00001000
00000010
00010000
00001000
00000000
,
00100000
00000000
00010000
00100000
00010000
10000000
01000000
00000000
00020000
00000000
00032000
00000000
00003020
00000000
00000230
00000000
,
00001300
00000000
00000001
00000010
00000001
00001000
00000100
00000000
00000010
00000000
00000000
00001000
00000000
00000000
00100000
00000000
,
00020000
01000000
10000000
00130000
,
10000000
01000000
10000000
01000000
00100000
00010000
00100000
00010000
00100000
00000000
00002000
00000000
00003020
00000000
00000130
00000000
,
00002000
00000100
00000001
00003010
,
00000001
00000100
00000001
00000100
00000010
00001000
00000010
00001000
00000010
00000000
00020000
00000000
00230000
00000000
01300000
00000000
,
00020000
00100000
10000000
01030000
,
10000000
00100000
10000000
00100000
01000000
00010000
01000000
00010000
00100000
00000000
00002000
00000000
00003020
00000000
00000130
00000000
,
00002000
00000010
00000001
00003100
,
00000001
00000010
00000001
00000010
00000100
00001000
00000100
00001000
00000010
00000000
00020000
00000000
00130000
01000000
00100000
01000000
,
00020000
00000000
00000000
00000000
00000000
00000000
00030000
00000000
10000000
01000000
10000000
01000000
10000000
01000000
10000000
01000000
,
00010000
01000000
00100000
00001000
00000010
00000100
00010000
00001000
,
00000010
00000001
00001000
00000010
00000100
00001000
00010000
00100000
,
01000000
00001000
00010000
00100000
10000000
00010000
01000000
00000000
,
00100000
10000000
00100000
00000000
10000000
01000000
10000000
00000000
01000000
00100000
01000000
00100000
00010000
00100000
00010000
00000000
,
10000000
01000000
00010000
00001000
00100000
00010000
00100000
00001000
,
00000010
00000100
00010000
00001000
00000010
00000001
00000100
00000001
,
00000010
00001000
00010000
01000000
00100000
00001000
00010000
00000000
,
00100000
01000000
00100000
00000000
01000000
00010000
01000000
00000000
00001000
00010000
00001000
00010000
00000010
00001000
00000010
00000000
,
00000100
00000000
00001000
00000000
00010000
00000000
00000010
00001000
00000010
00000000
00010000
00000000
00100000
00000000
01000000
00010000
,
01000000
00000000
00001000
00000000
00010000
00000000
00100000
10000000
00100000
00000000
00000000
00000000
11000000
00000000
00000000
00000000
,
01000000
00000000
00010000
00000000
00001000
00000000
00100000
00010000
00100000
00000000
00001000
00000000
00000010
00000000
00000100
00001000
,
00000100
00000000
00010000
00000000
00001000
00000000
00000010
00000001
00000010
00000100
00000010
00000100
00000010
00000100
00001000
00000000
,
00000001
00000000
00000100
00000000
00001000
00000000
00010000
00000010
00001000
00000000
00000010
00000000
00010000
00000000
00100000
01000000
,
00010000
00000000
10000000
00000000
00100000
00000000
10000000
00010000
00100000
00000000
00000000
00000000
01100000
00000000
00000000
00000000
,
10000000
00000000
01000000
00000000
00010000
00000000
00001000
00100000
00010000
00000000
00100000
00000000
00001000
00000000
00000010
00000100
,
00001000
00000000
00000001
00000000
00000010
00000000
00000001
00001000
00000010
00000000
00000000
00000000
00000100
00000010
00000100
00000010
,
00002000
00203000
02300000
03010000
,
10010000
02000000
00000000
03100000
00000000
01100000
01100000
10010000
,
00000000
00000000
10000000
01000000
10000000
00000000
01000000
00010000
01000000
00000000
00010000
00001000
00010000
00000000
00001000
00000000
,
00000010
00000000
00000001
00000100
00000001
00000000
00000100
00000000
00001000
00000000
00010000
00001000
00010000
00001000
00010000
00001000
,
00200000
00302000
00003020
00000130
,
00001001
00000200
00000000
00000310
00000000
00000110
00000110
00001001
,
00000000
00000000
00000001
00000100
00000001
00000000
00000100
00001000
00000100
00000000
00001000
00010000
00001000
00000000
00010000
00000000
,
00100000
00000000
10000000
01000000
10000000
00000000
01000000
00000000
00020000
00000000
00000000
00000000
00032000
00000000
00000000
00000000
,
00003020
00000000
00000000
00000031
00000200
00000000
00002300
00000000
,
00023000
00000000
00000000
00130000
20000000
00000000
30020000
00000000
,
00230000
00000000
00000000
01300000
00020000
00000000
00032000
00000000
,
00103000
00010000
00000000
00100000
00001000
00000000
00000010
00000100
00000000
00001000
00000001
00000010
00000100
00000010
00000100
00000010
,
00000100
00000000
00001000
00000001
00000100
00000001
00000100
00000000
00001000
00000000
00010000
00001000
00100000
00010000
00100000
00000000
,
01000000
00000000
10000000
00010000
10000000
01000000
00100000
00000000
02000000
00000000
03020000
00000000
00030200
00000000
00002300
00000000
,
00003001
00000000
00000010
00000100
00000010
00000100
00001000
00000000
00000010
00000000
00000000
00001000
00000000
00000000
00100000
00000000
,
01000000
00010000
01000000
00000000
00100000
10000000
00100000
00000000
00000000
00000000
00010000
00001000
00010000
00001000
00010000
00000000
,
00000100
00001000
00000100
00000000
00000010
00000001
00000010
00000000
00000000
00000000
00001000
00010000
00001000
00010000
00001000
00000000
,
00022000
00000000
00000000
00033000
;
