#VERSION:0.83;
#TITLE:口カラ凸ゲキ;
#SUBTITLE:;
#ARTIST:SARUKANI × Blacklolita;
#TITLETRANSLIT:Kuchi kara totsugeki;
#SUBTITLETRANSLIT:;
#ARTISTTRANSLIT:;
#GENRE:HUMAN BEATBOX ELECTRO;
#CREDIT:;
#MUSIC:Kuchi kara totsugeki.ogg;
#BANNER:Kuchi kara totsugeki.png;
#BACKGROUND:Kuchi kara totsugeki-bg.png;
#CDTITLE:./CDTitles/bm IIDX 29 CastHour.png;
#SAMPLESTART:92.991;
#SAMPLELENGTH:15.000;
#SELECTABLE:YES;
#OFFSET:0.601;
#BPMS:0.000=150.000
,99.500=75.000
,115.000=150.000
,149.000=75.000
,157.000=150.000
;
#STOPS:38.000=0.100
,38.250=0.100
,38.500=0.100
,38.750=0.100
,39.000=0.100
,39.250=0.100
,39.500=0.100
,39.750=0.100
,68.000=0.100
,68.250=0.100
,68.500=0.100
,68.750=0.100
,69.000=0.100
,69.250=0.100
,69.500=0.100
,69.750=0.100
,98.000=0.100
,98.250=0.100
,98.500=0.100
,98.750=0.100
,99.000=0.050
,99.125=0.050
,99.250=0.050
,99.375=0.050
,169.000=0.100
,169.250=0.100
,169.500=0.100
,169.750=0.100
,170.000=0.100
,170.250=0.100
,170.500=0.100
,170.750=0.100
,201.000=0.400
,262.000=0.100
,262.250=0.100
,262.500=0.100
,262.750=0.100
,263.000=0.100
,263.250=0.100
,263.500=0.100
,263.750=0.100
,264.000=0.400
;
#TIMESIGNATURES:0.000=4=4,
68.000=2=4,
70.000=4=4,
98.000=2=4,
100.000=4=4,
112.000=5=4,
117.000=4=4,
169.000=2=4,
171.000=4=4,
199.000=3=4,
202.000=4=4,
262.000=2=4,
264.000=4=4
;
#BGCHANGES:2.000=Kuchi kara totsugeki.mp4=1.000=0=0=0=StretchNoLoop====,
99999.000=-nosongbg-=1.000=0=0=0=StretchNoLoop====
;
#FGCHANGES:;

//--------------- dance-single - forcednature ----------------
#NOTEDATA:;
#STEPSTYPE:dance-single;
#DESCRIPTION:forcednature;
#DIFFICULTY:Beginner;
#METER:3;
#RADARVALUES:0,0,0,0,0;
#CREDIT:forcednature;
#NOTES:
0000
0000
0000
0000
,
0000
0000
0000
0000
,
0000
0000
0000
0000
,
0000
0000
0000
0000
,
0000
0000
0000
0000
,
0000
0000
0000
0000
,
0000
0000
1000
0000
,
0000
0000
1000
0000
,
0000
0000
0001
0000
,
0000
0000
0100
0000
,
1001
0000
0000
0000
,
1000
0000
0000
0000
,
0010
0000
0000
0000
,
1000
0000
0000
0000
,
1001
0000
0000
0000
,
0001
0000
0000
0000
,
0010
0000
0000
0000
,
0001
0000
1001
0000
,
0000
0000
1000
0000
,
0000
0000
0100
0000
,
0000
0000
1000
0000
,
0000
0000
1001
0000
,
0000
0000
0001
0000
,
0000
0000
0100
0000
,
0000
0000
0001
0000
,
0010
0000
0010
0000
,
0100
0000
0100
0000
,
1000
0000
1000
0000
,
0001
0000
0001
0000
,
0000
0100
0000
0100
,
0000
0100
0000
0000
,
0000
1001
0000
0000
,
0000
1000
0000
0100
,
0000
1000
0000
0000
,
0000
0001
0000
0100
,
0000
0001
0000
0000
,
0000
0010
0000
0010
,
0000
0020
0000
0000
,
0000
0000
0000
0000
,
0030
1001
0000
0000
,
0000
0001
0000
0001
,
0000
1000
0000
1000
,
0000
0010
0000
1001
,
0000
0000
0000
1000
,
0000
0001
0000
1000
,
0000
0000
0000
0010
,
0000
0100
0000
0010
,
0000
0000
0000
1000
,
0000
0001
0000
0010
,
0000
0000
0000
0100
,
0000
0000
1000
0000
,
0100
0000
1000
0000
,
0001
0000
0010
0000
,
0001
0000
1000
0000
,
0001
0000
0100
0000
,
0010
0000
1000
0000
,
0010
0000
0100
0000
,
0001
0000
2002
0000
,
0000
0000
3003
0000
,
0010
0000
0010
0000
,
0010
0000
0100
0000
,
0100
0000
0100
0000
,
0000
0000
1000
0000
,
1000
0000
0001
0000
,
0001
0000
0100
0000
,
0010
0000
2002
0000
,
3003
0000
0000
0000
;

//--------------- dance-single - forcednature ----------------
#NOTEDATA:;
#STEPSTYPE:dance-single;
#DESCRIPTION:forcednature;
#DIFFICULTY:Easy;
#METER:8;
#RADARVALUES:0,0,0,0,0;
#CREDIT:forcednature;
#NOTES:
0000
0000
0000
0000
,
0000
0000
0000
0000
,
0000
0000
0000
0000
,
0000
0000
0000
0000
,
0000
0000
0000
0000
,
0000
0000
0000
0000
0000
0000
0000
0000
1000
0000
0000
1000
0000
0000
0001
0000
,
0000
0001
0000
0000
0000
0000
0000
0000
0200
0000
0000
0000
0001
0000
0000
0000
,
0001
0301
0020
1000
,
1000
1030
0010
0100
,
0001
0000
1000
0000
0100
0100
0010
0010
,
1001
0000
1000
1000
,
0100
1000
0100
1000
,
1001
0000
0001
0100
,
0001
0001
0100
0001
,
1001
0000
1000
1000
,
0010
1000
0010
1000
,
1001
0000
0001
0001
,
0010
0100
0010
0100
1000
0000
0000
0000
,
0001
0100
1000
0100
,
0001
0100
0010
0000
,
1000
0100
0001
0100
,
1000
0100
0110
0000
,
1000
0010
0001
0010
,
1000
0010
0100
0000
,
0001
0000
0000
0000
0010
0010
0200
0300
,
1001
0000
0110
0000
1000
0001
1000
0000
,
1001
0000
0110
0000
0001
1000
0001
0000
,
0101
0000
1010
0000
1000
0100
1000
0000
,
1100
0000
0011
0000
0001
0100
0002
0000
,
0003
1000
1000
1000
,
1000
0002
0000
0000
,
0003
0110
1000
0001
,
0010
0110
0001
1000
,
0010
1001
1000
0100
,
0010
1001
0001
0100
,
1000
0101
1000
0010
,
1000
0200
0010
0010
,
0010
0300
0000
0000
,
0000
0000
0000
0000
,
0000
0001
0001
0100
,
0100
0010
0010
1000
,
1000
0100
0010
0100
,
0010
0000
0001
0001
1000
1000
0020
0000
,
0000
0000
0000
0130
,
0001
0100
0000
0110
,
0000
0010
1000
0001
,
1000
0100
0000
0110
,
0000
1000
0001
0020
,
0000
0130
1000
1001
,
0000
0001
0100
0020
,
0030
0110
1001
1000
,
1100
0010
1001
0001
,
0101
0010
1100
0001
,
0011
0100
0101
1000
,
1010
0100
1001
0001
,
0110
0100
1001
1000
,
0110
0100
1010
0001
,
0011
1000
0020
0001
,
0001
0031
0000
2002
,
0000
0000
0000
0000
,
0000
0000
0000
0000
,
0000
0000
0000
0000
3003
0000
0000
0000
0010
0000
0000
0010
0000
0000
0100
0000
,
0000
0100
0000
0000
0000
0000
0000
0000
0001
0000
0000
0000
0010
0000
0000
0000
,
0100
0010
0001
1000
,
0100
0000
1000
0000
0010
0100
0010
0000
,
0100
0010
0100
0000
0001
0001
1000
1000
,
1001
0000
0000
0000
;

//--------------- dance-single - forcednature ----------------
#NOTEDATA:;
#STEPSTYPE:dance-single;
#DESCRIPTION:forcednature;
#DIFFICULTY:Medium;
#METER:12;
#RADARVALUES:0,0,0,0,0;
#CREDIT:forcednature;
#NOTES:
0000
0000
0000
0000
,
0000
0000
0000
0000
,
0000
0000
0000
0000
,
0000
0000
0000
0000
,
0000
0000
0000
0000
,
0000
0000
0000
0000
0000
0000
0000
0000
1000
0000
0000
1100
0000
0000
0001
0000
,
0000
0101
0000
0000
0000
0000
0000
0000
1000
0000
0000
0000
1000
0000
0000
0000
,
0001
0000
0001
0000
0100
0010
1000
0010
,
0100
0001
0010
0000
0001
0100
0001
0100
,
1000
0000
0100
0000
1000
0000
0100
0000
0010
1000
0010
1000
0001
0010
0001
0010
,
0200
0000
1300
0010
1000
0100
1000
0010
,
1000
0100
0001
0100
1000
0001
0010
0000
,
1001
0000
0001
0010
0001
0100
0001
0010
,
0001
0100
1000
0100
0001
1000
0010
0000
,
0110
0000
0100
0001
0010
0001
0100
0001
,
0010
0100
0001
0100
1000
0001
0010
0000
,
0110
0000
0100
1000
0010
1000
0100
1000
,
0001
0010
0001
0010
0200
0000
1300
0001
0100
0000
0000
0000
0010
0000
1000
0000
,
0100
0000
0001
0000
0100
0000
1000
0000
0010
0000
0000
0100
0000
0000
0001
0000
,
0000
1000
0000
0000
0010
0000
0000
0000
0110
0000
0000
0000
0100
0000
0001
0000
,
0010
0000
1000
0000
0010
0000
0001
0000
0100
0000
0000
0010
0000
0000
1000
0000
,
0000
1000
0000
0000
1000
0000
0000
0000
0002
0000
0000
0000
0013
0000
0100
0000
,
0001
0000
0100
0000
1000
0000
0001
0000
0100
0000
0000
0010
0000
0000
1000
0000
,
0000
0001
0000
0000
0010
0000
0000
0000
0210
0000
0000
0000
0001
0000
0000
0000
,
2300
0000
3200
0000
0320
0000
0032
0000
1003
0010
1000
0010
0200
0000
0302
0000
,
1003
0100
0110
0010
0001
0100
0110
0010
,
1000
0001
1100
0001
0010
0001
2100
0010
,
3001
0100
1010
0100
0001
0010
1100
0010
,
0001
0000
1000
0000
0110
0000
0001
0000
0010
0100
0010
0100
2000
0000
0000
0000
,
3002
0000
0000
0000
0103
0010
0100
0010
0200
0000
0000
0000
0010
0000
0000
0000
,
0010
0310
0000
0000
0000
0000
0000
0000
,
0000
0000
1000
0100
0010
0001
0100
0001
,
0011
0000
0001
0100
0010
1000
0100
1000
,
1010
0000
0010
0100
0001
1000
0100
0010
,
0110
0000
0000
0000
0100
0000
0000
1000
0000
0000
0100
0000
0010
0000
0000
0001
,
0000
0010
0100
1000
0010
1000
0001
0010
,
0011
0002
0203
0320
,
2030
3002
0000
0000
,
0000
0000
0000
0000
,
0003
1001
1000
0001
,
0001
0000
0100
0010
0100
0010
1000
0001
,
1000
0000
0100
0010
0100
0010
0001
1000
,
0001
0000
1000
0000
0010
0100
0010
0100
0001
1000
0001
1000
0200
0000
0000
0000
,
0000
0000
0300
0110
,
0010
0001
0100
0001
1000
0000
1010
0000
,
0100
0000
0001
0000
0100
0000
0010
0000
1000
0000
0000
0000
0100
0000
0000
0001
,
0000
0000
0100
0000
0000
1000
0000
0000
0010
0000
0000
0000
0110
0000
0000
0000
,
0100
0001
0010
0100
0001
0000
0200
0000
,
1300
0001
0000
0000
0100
0000
0010
0000
0001
0000
0000
0000
0011
0000
0000
0000
,
0010
1000
0001
1000
0100
0010
0002
0000
,
0103
0000
0010
0000
2002
3003
0000
0000
1000
0000
0100
0000
0001
0000
0100
0000
,
1000
0010
1010
0000
0001
0100
1000
0100
,
0001
0010
0011
0000
0001
0100
0010
0001
,
1000
0000
0100
0000
0101
0000
0000
0000
0002
0000
0000
0023
0000
0000
0230
0000
,
0000
2300
0000
0000
3010
0000
0000
0000
1000
0000
0100
0000
0010
0000
1000
0000
,
0001
0100
1100
0000
0001
0100
1000
0001
,
0010
1000
1100
0000
0110
0000
0010
0001
,
0100
0001
1000
0001
0020
0000
0230
0000
,
0320
0000
0000
0000
0031
1000
0001
1000
0001
0000
0000
0000
0200
0000
0000
0000
,
0010
0000
0310
0100
0010
0100
0001
1000
,
0001
1000
0100
0010
0100
0010
0001
1000
,
0001
0000
1000
0000
0010
0000
0100
0000
0010
0000
0000
0110
0000
0000
0100
0000
,
0000
1001
0000
0000
0000
0000
0000
0000
1000
0000
0100
0000
0010
0000
0100
0000
,
1000
0010
0100
0100
0001
0010
0100
0010
,
0001
0100
0010
0010
1000
0100
0001
0100
,
1000
0000
0010
0000
0001
0000
0010
0000
0100
0001
0100
0001
1000
0100
0010
0001
,
0100
0000
0000
0000
;

//--------------- dance-single - forcednature ----------------
#NOTEDATA:;
#STEPSTYPE:dance-single;
#DESCRIPTION:forcednature;
#DIFFICULTY:Hard;
#METER:16;
#RADARVALUES:0,0,0,0,0;
#CREDIT:forcednature;
#NOTES:
0000
0000
0000
0000
,
0000
0000
0000
0000
,
0000
0000
0000
0000
,
0000
0000
0000
0000
,
0000
0000
0000
0000
,
0000
0000
0000
0000
0000
0000
0000
0000
1100
0000
0000
0011
0000
0000
0101
0000
,
0000
1010
0000
0000
0000
0000
0000
0000
2100
0000
0000
0000
0001
0000
0000
0000
,
0010
3000
0001
0000
1000
0010
1000
0010
,
0100
0000
0001
1000
0100
0000
0000
0000
1000
0010
1000
0000
0001
0100
0001
0000
,
1000
0100
1000
0000
0001
0010
0001
0000
1000
1000
0001
0001
0100
0100
0010
0010
,
1001
0000
0000
0000
0001
0100
0001
0100
0010
0100
0010
0100
0001
0100
0001
0100
,
0010
0000
1000
0100
1000
0100
0010
0000
0001
0100
0000
0010
1000
0000
0000
0000
,
1001
0000
0000
0000
1000
0100
1000
0100
0010
0100
0010
0100
1000
0100
1000
0100
,
0010
0000
0001
1000
0000
0100
1000
0000
0001
0100
0000
0010
1000
0000
0000
0000
,
1001
0000
0000
0000
0001
0100
0001
0100
0010
1000
0010
1000
0001
0100
0001
0100
,
0010
0000
1000
0100
1000
0100
0010
0000
0001
1000
0000
0010
0100
0000
0000
0000
,
1001
0000
0000
0000
1000
0100
1000
0100
0010
0001
0010
0001
1000
0100
1000
0100
,
0010
0010
0001
0001
2000
0000
3010
0100
1001
0000
0000
0000
1000
0100
1000
0001
,
0000
0100
0001
1000
0000
0100
1000
0001
0100
0000
0010
1000
0000
0100
1000
0000
,
0001
0100
0000
0001
0010
0000
0100
0000
1001
0000
0000
0000
0001
0100
0001
1000
,
0000
0100
1000
0001
0000
0100
0001
1000
0100
0000
0010
0001
0000
0100
0001
0000
,
1000
0000
0000
0200
0000
0000
0000
0000
0000
0320
0000
0000
0000
0000
0000
0000
0000
0000
0000
0000
0000
0031
0000
0000
0100
0000
0000
0000
0100
0000
0000
0000
0100
0000
0000
0000
0001
0000
0000
0010
0000
0000
0001
0000
0000
1000
0000
0000
,
0000
0010
1000
0001
0000
0010
0001
1000
0010
0000
0100
0001
0000
0010
0001
0000
,
1000
0010
0100
0001
2000
0000
0000
0000
3100
0010
0100
0010
0100
0010
0100
0010
,
0002
0000
0000
0000
0000
0000
0000
0000
1003
0000
0100
0000
0010
0000
0001
0000
1000
0000
1000
0000
0001
0000
0001
0000
0100
0010
0100
0010
0200
0000
0300
0000
,
0002
0000
0000
0000
0000
0000
1003
0100
0010
0001
0100
0010
1000
0100
1000
0001
0100
0001
0010
0100
1000
0010
0100
0001
,
0020
0000
0000
0000
0000
0000
0000
0000
0000
0000
0000
0000
0000
0000
0000
0000
0000
0000
0000
0000
0000
0000
0000
0000
0000
0000
0000
0000
0000
0000
0000
0000
0000
0000
0000
0000
0000
0000
0000
0000
0000
0000
0000
0000
0000
0000
0000
0000
0130
0000
0000
0000
0000
0000
0000
0000
1000
0000
0000
0000
0000
0000
0000
0000
0001
0000
0000
0000
0000
0000
0000
0000
0100
0000
0000
0000
0000
0000
0000
0000
0001
0000
0000
0000
0000
0000
0000
0000
1000
0000
0000
0000
0000
0000
0000
0000
0010
0000
0000
0000
0000
0000
0000
0000
0100
0000
0000
0000
0000
0000
0000
0000
0100
0000
0000
0000
0000
0000
0000
0000
0001
0000
0000
0000
0000
0000
0000
0000
1000
0000
0000
0000
0000
0000
0000
0000
1000
0000
0000
0000
0000
0000
0000
0000
0100
0000
0000
0000
0000
0000
0000
0000
0010
0000
0000
0000
0000
0000
0000
0000
0100
0000
0000
0000
0000
0000
0000
0000
0020
0000
0000
0000
0000
0000
0000
0000
0000
0000
0000
0000
0000
0000
0000
0030
0000
0000
0000
0000
0000
0000
0000
0000
,
2001
0000
0000
0000
0000
0000
3100
0010
0001
0100
0010
0100
0001
1000
0100
0001
0100
1000
0001
0100
0010
1000
0100
0010
,
0002
0000
0000
0000
0000
0000
1003
0010
0100
1000
0100
0001
1000
0010
0010
0100
0001
0001
0020
0000
0000
0000
0000
0000
,
0230
0000
0000
0000
0000
0000
0000
0000
0000
0000
0000
0000
1300
0000
0000
0001
0000
0000
1000
0000
0000
0001
0000
0000
1000
0000
0000
0000
0100
0000
0000
0000
0001
0000
0000
0000
0100
0000
0000
0000
0000
0000
0010
0000
0100
0000
0010
0000
,
0100
0000
1000
0000
0020
0000
0000
0000
0000
0000
0000
0000
0100
0000
0000
0100
0000
0000
0100
0000
0000
0100
0000
0000
,
0130
0000
0010
0000
1001
0000
1000
0000
0100
0010
0001
0010
0000
0100
1000
0100
,
0010
0000
0001
0000
0110
0000
1000
0000
0001
0100
0010
0100
0000
0010
0100
0010
,
1000
0000
0001
0000
0011
0000
1000
0000
0010
0100
0001
0010
0000
0001
0100
0010
,
1000
0000
0000
0000
1100
0000
1000
0001
0000
0010
0001
0000
0101
0000
0001
1000
,
0000
0010
1000
0000
0110
0000
0001
0000
1000
0100
0010
0001
0000
1000
0010
0100
,
0001
0000
0000
0000
0000
0000
0010
0000
0000
0000
0000
0000
0001
0000
0000
1000
0000
0000
0001
0000
0000
1000
0000
0000
0010
0000
0000
0000
0100
0000
0000
0000
0001
0000
0000
0000
0010
0000
0000
0000
0100
0000
0000
0000
1000
0000
0000
0000
,
0010
0010
0100
2002
0000
0000
0000
0000
0000
0000
0000
0000
,
0000
0000
0000
3003
,
0001
1000
0001
1000
0001
1000
0020
0000
0000
0000
0000
0000
1000
0000
0000
0000
0000
0000
0100
0000
0000
0000
0000
0000
,
0001
0000
0000
0000
1030
0000
0100
0000
1000
0000
0010
0000
0100
0000
0001
0010
,
0100
0000
0000
0000
0010
0001
0010
0000
0001
0100
0001
0000
1000
0100
1000
0000
,
0010
1000
0010
0000
1000
1000
0001
0001
0100
0100
0010
0010
2002
0000
0000
0000
,
0000
0000
0000
0000
0000
0000
0000
0000
3003
0000
0000
0000
1000
0100
0000
0001
,
0000
0100
0010
0000
0001
0100
0000
1000
0100
0010
1000
0000
1002
0000
0000
0000
,
0013
0100
1000
0001
0000
1000
0100
0010
0001
0000
0100
0000
0010
0000
1000
0100
,
0000
0001
0100
0000
1000
0010
0000
0100
0001
1000
0001
0010
0000
0100
0001
0000
,
0101
0000
0100
1000
0000
0010
1000
0000
1010
0000
0000
0000
0001
0010
0100
1000
,
0000
0020
0000
0000
1030
0100
0001
0000
0100
1000
0000
0000
0021
0000
0000
0000
,
0031
0000
0100
1000
0000
0100
0001
0000
1000
0000
0010
0000
0110
0000
0001
0000
,
1000
0100
0010
0001
0200
0300
0000
0000
0001
0000
1000
0000
0001
0010
0100
0010
,
0000
0001
1000
0100
1000
0000
0010
0000
0110
0000
0001
0000
1000
0010
0100
0010
,
0000
1000
0001
0100
0002
0000
0023
0000
0130
0000
1000
0000
0010
0100
0001
0100
,
0000
0010
1000
0001
0010
0000
0100
0000
0001
0000
0100
1000
0000
1000
0010
0000
,
0100
0001
0000
0001
0010
0100
1000
0000
1001
0000
0000
0000
0001
0010
0100
1000
,
0000
0010
0100
0001
1000
0000
0100
0000
0110
0000
0001
0000
1000
0010
0100
0001
,
0000
0010
0100
1000
0001
0000
0100
0000
1001
0000
1000
0000
0001
0000
0001
0100
,
0000
0010
0100
0010
1000
0000
0001
0000
0020
0000
0100
0000
0230
0000
1000
0000
,
1300
0001
1000
0001
0100
0010
0100
0010
0000
0000
0000
0000
1000
0100
1000
0100
,
0010
0001
0010
0000
0010
0000
0001
0100
0001
0100
0010
1000
0010
0000
0100
0001
,
0100
0001
1000
0000
1000
0000
0100
0010
0100
0010
0100
0010
0001
0000
0100
0010
,
0100
0010
1000
0000
0100
0000
0010
0000
0011
0000
0000
0101
0000
0000
1100
0000
,
0000
1010
0000
0000
0000
0000
0000
0000
1000
0001
0010
0000
0001
1000
0010
0000
,
0100
0001
1000
0000
0100
1000
0001
0000
0010
0100
1000
0000
0010
0100
0001
0000
,
1000
0100
0010
0000
0001
0100
0010
0000
1000
0001
1000
0001
0010
0100
0010
0100
,
1000
0001
1000
0001
0100
0010
0100
0010
1000
1000
0001
0001
0100
0100
0010
0010
,
1001
0000
0000
0000
;

//--------------- dance-double - forcednature ----------------
#NOTEDATA:;
#STEPSTYPE:dance-double;
#DESCRIPTION:forcednature;
#DIFFICULTY:Easy;
#METER:8;
#RADARVALUES:0,0,0,0,0;
#CREDIT:forcednature;
#NOTES:
00000000
00000000
00000000
00000000
,
00000000
00000000
00000000
00000000
,
00000000
00000000
00000000
00000000
,
00000000
00000000
00000000
00000000
,
00000000
00000000
00000000
00000000
,
00000000
00000000
00000000
00000000
00000000
00000000
00000000
00000000
00001000
00000000
00000000
00001000
00000000
00000000
00010000
00000000
,
00000000
00010000
00000000
00000000
00000000
00000000
00000000
00000000
00000200
00000000
00000000
00000000
00001000
00000000
00000000
00000000
,
00001000
00001300
00000020
00000001
,
00000001
00000031
00001000
00000100
,
00010000
00000000
00001000
00000000
01000000
01000000
00010000
00010000
,
10010000
00000000
10000000
10000000
,
01000000
10000000
01000000
00010000
,
00011000
00000000
00001000
00001000
,
00010000
00001000
00000100
00000001
,
00001001
00000000
00001000
00001000
,
00000100
00001000
00000100
00010000
,
00011000
00000000
00010000
00010000
,
00001000
01000000
00010000
01000000
00100000
00000000
00000000
00000000
,
10000000
01000000
00010000
01000000
,
10000000
01000000
00010000
00000000
,
00001000
00000100
00000001
00000100
,
00001000
00000100
00001001
00000000
,
00010000
00001000
00010000
00100000
,
00010000
00001000
00020000
00000000
,
01030000
00000000
00000000
00000000
10000000
10000000
00020000
00030000
,
10010000
00000000
01100000
00000000
00010000
00001000
00010000
00000000
,
00001001
00000000
00000110
00000000
00001000
00010000
00001000
00000000
,
01100000
00000000
10010000
00000000
00001000
00010000
00001000
00000000
,
00000110
00000000
00001001
00000000
00010000
00001000
00020000
00000000
,
00030000
00100000
00100000
00100000
,
00100000
20000000
00000000
00000000
,
30000000
01100000
00010000
00001000
,
00000010
00000110
00001000
00010000
,
00100000
01100000
00010000
00001000
,
00000010
00000110
00001000
00010000
,
00100000
01100000
00010000
00001000
,
00000010
00000200
00000010
00000010
,
00000010
00000300
00000000
00000000
,
00000000
00000000
00000000
00000000
,
00000000
00000001
00000001
00000100
,
00000100
00001000
00001000
00010000
,
00010000
00100000
01000000
00100000
,
01000000
00000000
00010000
00010000
10000000
10000000
02000000
00000000
,
00000000
00000000
00000000
03010000
,
00001000
00010000
00000000
00001001
,
00000000
00010000
00001000
01000000
,
00010000
00100000
00000000
01100000
,
00000000
10000000
00010000
00200000
,
00000000
01300000
00010000
00011000
,
00000000
00001000
00000010
00000002
,
00000000
00000103
00001001
00010000
,
00001000
01000000
10010000
00001000
,
00010000
00000100
00001001
00010000
,
00001000
01000000
10010000
00001000
,
00010000
00000100
00001001
00010000
,
00001000
00100000
10010000
00001000
,
00010000
00000010
00001001
00010000
,
00001000
00100000
02000000
00100000
,
00100000
03100000
00000000
00022000
,
00000000
00000000
00000000
00000000
,
00000000
00000000
00000000
00000000
,
00000000
00000000
00000000
00000000
00033000
00000000
00000000
00000000
00000100
00000000
00000000
00010000
00000000
00000000
00001000
00000000
,
00000000
00100000
00000000
00000000
00000000
00000000
00000000
00000000
00002000
00000000
00000000
00000000
01000000
00000000
00000000
00000000
,
00010000
00100000
00023000
00000100
,
00001000
00000000
00000010
00000000
00031000
00010000
00001000
00000000
,
00010000
00001000
00010000
00000000
00100000
00100000
01000000
01000000
,
10010000
00000000
00000000
00000000
;

//--------------- dance-double - forcednature ----------------
#NOTEDATA:;
#STEPSTYPE:dance-double;
#DESCRIPTION:forcednature;
#DIFFICULTY:Medium;
#METER:13;
#RADARVALUES:0,0,0,0,0;
#CREDIT:forcednature;
#NOTES:
00000000
00000000
00000000
00000000
,
00000000
00000000
00000000
00000000
,
00000000
00000000
00000000
00000000
,
00000000
00000000
00000000
00000000
,
00000000
00000000
00000000
00000000
,
00000000
00000000
00000000
00000000
00000000
00000000
00000000
00000000
00001000
00000000
00000000
01001000
00000000
00000000
00010000
00000000
,
00000000
00010100
00000000
00000000
00000000
00000000
00000000
00000000
00010000
00000000
00000000
00000000
00010000
00000000
00000000
00000000
,
00100000
00000000
00100000
00000000
10000000
01000000
00100000
01000000
,
00010000
00001000
00010000
00000000
00000010
00001000
00000010
00001000
,
00000100
00000000
00000001
00000000
00000100
00000000
00000001
00000000
00000100
00001000
00000100
00001000
00000010
00010000
00000010
00010000
,
00002000
00000000
01003000
00010000
01000000
00100000
01000000
10000000
,
01000000
00010000
00100000
01000000
00010000
00001000
00100000
00000000
,
00011000
00000000
00000100
00010000
00000100
00001000
00000100
00000010
,
00000001
00000100
00001000
00000100
00000010
00010000
00001000
00000000
,
00011000
00000000
00001000
01000000
00010000
01000000
10000000
01000000
,
00100000
10000000
01000000
00010000
00001000
00100000
00010000
00000000
,
01100000
00000000
01000000
00010000
00001000
00010000
00000010
00010000
,
00000100
00000010
00000100
00000010
00000002
00000000
00000103
00001000
00010000
00000000
00000000
00000000
00100000
00000000
10000000
00000000
,
01000000
00000000
00010000
00000000
00001000
00000000
00100000
00000000
00010000
00000000
00000000
01000000
00000000
00000000
10000000
00000000
,
00000000
01000000
00000000
00000000
00010000
00000000
00000000
00000000
00110000
00000000
00000000
00000000
00100000
00000000
01000000
00000000
,
00010000
00000000
00001000
00000000
00000010
00000000
00000100
00000000
00010000
00000000
00000000
00000010
00000000
00000000
00000200
00000000
,
00000000
00001000
00000000
00000000
00000301
00000000
00000000
00000000
00000020
00000000
00000000
00000000
00001030
00000000
00000100
00000000
,
00000001
00000000
00000100
00000000
00010000
00000000
00001000
00000000
00100000
00000000
00000000
00010000
00000000
00000000
10000000
00000000
,
00000000
00010000
00000000
00000000
01000000
00000000
00000000
00000000
01200000
00000000
00000000
00000000
00010000
00000000
00000000
00000000
,
20300000
00000000
32000000
00000000
03020000
00000000
00032000
00000000
00103000
00010000
00100000
00010000
00002000
00000000
00003200
00000000
,
00000310
00000001
00000101
00001000
00010000
00100000
11000000
00010000
,
01000000
00001000
00110000
00001000
00010000
00000010
00001200
00000010
,
00000301
00000100
00011000
01000000
00010000
00100000
00011000
00000010
,
00000100
00000000
00000001
00000000
00011000
00000000
01000000
00000000
00010000
10000000
00010000
10000000
02000000
00000000
00000000
00000000
,
03020000
00000000
00000000
00000000
00031000
00010000
00001000
00010000
00002000
00000000
00000000
00000000
00100000
00000000
00000000
00000000
,
00010000
01003000
00000000
00000000
00000000
00000000
00000000
00000000
,
00000000
00000000
00001000
00000010
00000001
00000100
00000001
00000010
,
00001000
00010000
01000000
00100000
00001000
00010000
00100000
01000000
,
01100000
00000000
00100000
10000000
01000000
00010000
00001000
00100000
,
00110000
00000000
00000000
00000000
00010000
00000000
00000000
01000000
00000000
00000000
10000000
00000000
01000000
00000000
00000000
00001000
,
00000000
00010000
00000010
00001000
00000100
00000001
00000100
00001000
,
00001010
00000002
00002003
00023000
,
20030000
30200000
00000000
00000000
,
00000000
00000000
00000000
00000000
,
00300000
10000000
10000000
00010000
,
00010000
00000000
00001000
00000100
00001000
00000100
00000010
00000001
,
00001000
00000000
00000010
00000100
00000010
00000100
00001000
00010000
,
00100000
00000000
01000000
00000000
00010000
10000000
00010000
10000000
01000000
00010000
01000000
00010000
00002000
00000000
00000000
00000000
,
00000000
00000000
00003000
00000110
,
00000010
00000001
00000100
00001000
00010000
00000000
00011000
00000000
,
00001000
00000000
00100000
00000000
01000000
00000000
00100000
00000000
00010000
00000000
00000000
00000000
01000000
00000000
00000000
10000000
,
00000000
00000000
01000000
00000000
00000000
00010000
00000000
00000000
00100000
00000000
00000000
00000000
01100000
00000000
00000000
00000000
,
01000000
00010000
00001000
00100000
01000000
00000000
00020000
00000000
,
00031000
00100000
00000000
00000000
00001000
00000000
00000010
00000000
00000001
00000000
00000000
00000000
00000101
00000000
00000000
00000000
,
00000100
00001000
00000100
00000001
00000010
00001000
00020000
00000000
,
01000000
00000000
00000000
00000000
00000200
00030300
00000000
00000000
00010000
00000000
00001000
00000000
00010000
00000000
00100000
00000000
,
10000000
01000000
00010000
00001000
00100000
01000000
00010000
00001000
,
00000010
00000100
00000110
00000000
00000010
00000001
00000100
00001000
,
00010000
00000000
00000100
00000000
00000110
00000000
00000000
00000000
00000002
00000000
00000000
00000203
00000000
00000000
00002300
00000000
,
00000000
00023000
00000000
00000000
00230000
00000000
00000000
00000000
10300000
00000000
01000000
00000000
00010000
00000000
00001000
00000000
,
00000010
00000100
00010000
00000010
00000100
00000001
00000010
00001000
,
00010000
01000000
01100000
00000000
10010000
00000000
10000000
00100000
,
01000000
00100000
00010000
00100000
20000000
00000000
32000000
00000000
,
03020000
00000000
00000000
00000000
00031000
00010000
00001000
00010000
00001000
00000000
00000000
00000000
00000020
00000000
00000000
00000000
,
00000100
00000000
00000130
00000010
00000100
00000010
00000001
00001000
,
00000001
00001000
00000010
00000100
00000010
00000100
00001000
00010000
,
00001000
00000000
00010000
00000000
00100000
00000000
01000000
00000000
00100000
00000000
00000000
01100000
00000000
00000000
01000000
00000000
,
00000000
10010000
00000000
00000000
00000000
00000000
00000000
00000000
10000000
00000000
01000000
00000000
00100000
00000000
00010000
00000000
,
01000000
00100000
00010000
00001000
00100000
00010000
00001000
00000100
,
00010000
00001000
00000100
00000010
00001000
00000100
00000001
00000100
,
00001000
00000000
00000010
00000000
00000001
00000000
00000010
00000000
00001000
00000100
00001000
00000100
00010000
00001000
01000000
00010000
,
00100000
00000000
00000000
00000000
;

//--------------- dance-double - forcednature ----------------
#NOTEDATA:;
#STEPSTYPE:dance-double;
#DESCRIPTION:forcednature;
#DIFFICULTY:Hard;
#METER:16;
#RADARVALUES:0,0,0,0,0;
#CREDIT:forcednature;
#NOTES:
00000000
00000000
00000000
00000000
,
00000000
00000000
00000000
00000000
,
00000000
00000000
00000000
00000000
,
00000000
00000000
00000000
00000000
,
00000000
00000000
00000000
00000000
,
00000000
00000000
00000000
00000000
00000000
00000000
00000000
00000000
00011000
00000000
00000000
00101000
00000000
00000000
00011000
00000000
,
00000000
01001000
00000000
00000000
00000000
00000000
00000000
00000000
10020000
00000000
00000000
00000000
00100000
00000000
00000000
00000000
,
10000000
00000000
01000000
00000000
00031000
00000010
00001000
00000001
,
00001000
00000000
00000100
00000010
00000001
00000000
00000000
00000000
00001000
00000010
00001000
00000000
00000100
00010000
00000100
00000000
,
00010000
00001000
00010000
00000000
00001000
01000000
00001000
00000000
00010000
00010000
00100000
00100000
10000000
10000000
01000000
01000000
,
01100000
00000000
00000000
00000000
00100000
00010000
00100000
00010000
00100000
00001000
00100000
00001000
00100000
00010000
00100000
00010000
,
00100000
00000000
00001000
00010000
00001000
00010000
00000010
00000000
00001000
00000100
00000000
00000010
00000001
00000000
00000000
00000000
,
00001001
00000000
00000000
00000000
00001000
00000100
00001000
00000100
00010000
00000100
00010000
00000100
00001000
00000100
00001000
00000100
,
00000010
00000000
00000001
00001000
00000000
00000010
00010000
00000000
00001000
01000000
00000000
00010000
10000000
00000000
00000000
00000000
,
10010000
00000000
00000000
00000000
00010000
01000000
00010000
01000000
00001000
01000000
00001000
01000000
00010000
01000000
00010000
01000000
,
00001000
00000000
00010000
00000100
00010000
00000100
00001000
00000000
00000001
00000100
00000000
00000010
00001000
00000000
00000000
00000000
,
00011000
00000000
00000000
00000000
01000000
00001000
01000000
00001000
00010000
00001000
00010000
00001000
01000000
00001000
01000000
00001000
,
00010000
00010000
00000100
00000100
00000020
00000000
00000031
00000100
00001001
00000000
00000000
00000000
00001000
00000100
00010000
00001000
,
00000000
01000000
00001000
00010000
00000000
00000010
00010000
00001000
00100000
00000000
00010000
10000000
00000000
01000000
10000000
00000000
,
01000000
00010000
00000000
00001000
00010000
00000000
00000100
00000000
00001001
00000000
00000000
00000000
00001000
00000100
00010000
00001000
,
00000000
00100000
00001000
00010000
00000000
00000010
00010000
00001000
01000000
00000000
00010000
00100000
00000000
01000000
00100000
00000000
,
00001000
00000000
00000000
00020000
00000000
00000000
00000000
00000000
00000000
00030200
00000000
00000000
00000000
00000000
00000000
00000000
00000000
00000000
00000000
00000000
00000000
00000310
00000000
00000000
00000001
00000000
00000000
00000000
00000001
00000000
00000000
00000000
00000001
00000000
00000000
00000000
00000100
00000000
00000000
00000010
00000000
00000000
00001000
00000000
00000000
00000010
00000000
00000000
,
00000000
00010000
00001000
00100000
00000000
00001000
00010000
00000010
00010000
00000000
00001000
01000000
00000000
00010000
01000000
00000000
,
00100000
10000000
00010000
10000000
02000000
00000000
00000000
00000000
03010000
00001000
00010000
00001000
00010000
00001000
00010000
00001000
,
00000020
00000000
00000000
00000000
00000000
00000000
00000000
00000000
00000130
00000000
00001000
00000000
00000001
00000000
00000010
00000000
00000100
00000000
00000100
00000000
00010000
00000000
00010000
00000000
00001000
00100000
00001000
00100000
00020000
00000000
00030000
00000000
,
20000000
00000000
00000000
00000000
00000000
00000000
31000000
00010000
00001000
00100000
00001000
00010000
00000010
00010000
00001000
00000010
00000100
00010000
00001000
00000100
00000001
00001000
00000010
00010000
,
00002000
00000000
00000000
00000000
00000000
00000000
00000000
00000000
00000000
00000000
00000000
00000000
00000000
00000000
00000000
00000000
00000000
00000000
00000000
00000000
00000000
00000000
00000000
00000000
00000000
00000000
00000000
00000000
00000000
00000000
00000000
00000000
00000000
00000000
00000000
00000000
00000000
00000000
00000000
00000000
00000000
00000000
00000000
00000000
00000000
00000000
00000000
00000000
00103000
00000000
00000000
00000000
00000000
00000000
00000000
00000000
01000000
00000000
00000000
00000000
00000000
00000000
00000000
00000000
00010000
00000000
00000000
00000000
00000000
00000000
00000000
00000000
01000000
00000000
00000000
00000000
00000000
00000000
00000000
00000000
00100000
00000000
00000000
00000000
00000000
00000000
00000000
00000000
00001000
00000000
00000000
00000000
00000000
00000000
00000000
00000000
00010000
00000000
00000000
00000000
00000000
00000000
00000000
00000000
00000010
00000000
00000000
00000000
00000000
00000000
00000000
00000000
00000010
00000000
00000000
00000000
00000000
00000000
00000000
00000000
00001000
00000000
00000000
00000000
00000000
00000000
00000000
00000000
00000010
00000000
00000000
00000000
00000000
00000000
00000000
00000000
00000010
00000000
00000000
00000000
00000000
00000000
00000000
00000000
00000100
00000000
00000000
00000000
00000000
00000000
00000000
00000000
00001000
00000000
00000000
00000000
00000000
00000000
00000000
00000000
00000100
00000000
00000000
00000000
00000000
00000000
00000000
00000000
00000002
00000000
00000000
00000000
00000000
00000000
00000000
00000000
00000000
00000000
00000000
00000000
00000000
00000000
00000000
00000003
00000000
00000000
00000000
00000000
00000000
00000000
00000000
00000000
,
00002001
00000000
00000000
00000000
00000000
00000000
00003100
00000010
00000100
00010000
00001000
00010000
00000010
00001000
00000100
00010000
00001000
01000000
00010000
00100000
01000000
00010000
01000000
10000000
,
00200000
00000000
00000000
00000000
00000000
00000000
10300000
00010000
01000000
10000000
01000000
00010000
00100000
00001000
00010000
00000100
00010000
00001000
00000020
00000000
00000000
00000000
00000000
00000000
,
00000032
00000000
00000000
00000000
00000000
00000000
00000000
00000000
00000000
00000000
00000000
00000000
00000103
00000000
00000000
00000010
00000000
00000000
00000100
00000000
00000000
00000010
00000000
00000000
00000100
00000000
00000000
00000000
00001000
00000000
00000000
00000000
00010000
00000000
00000000
00000000
00001000
00000000
00000000
00000000
00020000
00000000
00000000
00000000
00000000
00000000
00000000
00000000
,
00130000
00000000
10000000
00000000
02000000
00000000
00000000
00000000
00000000
00000000
00000000
00000000
00100000
00000000
00000000
00100000
00000000
00000000
00100000
00000000
00000000
00100000
00000000
00000000
,
03100000
00000000
01000000
00000000
10010000
00000000
00010000
00000000
01000000
00001000
00010000
00000010
00000000
00010000
00001000
01000000
,
00010000
00000000
00100000
00000000
01100000
00000000
10000000
00000000
00010000
01000000
00001000
00010000
00000000
00000100
00001000
00000100
,
00000010
00000000
00000001
00000000
00000101
00000000
00001000
00000000
00000100
00000010
00000100
00010000
00000000
00001000
00100000
00010000
,
01000000
00000000
00000000
00000000
00110000
00000000
00010000
01000000
00000000
00001000
00010000
00000000
00001010
00000000
00001000
00000100
,
00000000
00010000
00001000
00000000
00110000
00000000
00100000
00000000
01000000
00100000
00001000
00010000
00000000
00000100
00001000
00000001
,
00000100
00000000
00000000
00000000
00000000
00000000
00001000
00000000
00000000
00000000
00000000
00000000
00010000
00000000
00000000
00001000
00000000
00000000
00010000
00000000
00000000
00001000
00000000
00000000
01000000
00000000
00000000
00000000
00010000
00000000
00000000
00000000
00100000
00000000
00000000
00000000
01000000
00000000
00000000
00000000
00010000
00000000
00000000
00000000
00001000
00000000
00000000
00000000
,
00000100
00001000
00010000
00200000
00000000
00000000
00000000
00000000
00000000
00000000
00000000
00000000
,
00000000
00000000
00000000
00300000
,
00010000
00001000
00010000
00001000
00010000
00001000
00200000
00000000
00000000
00000000
00000000
00000000
10000000
00000000
00000000
00000000
00000000
00000000
01000000
00000000
00000000
00000000
00000000
00000000
,
00010000
00000000
00000000
00000000
00301000
00000000
00000010
00000000
00000001
00000000
00001000
00000000
00000001
00000000
00000100
00001000
,
00010000
00000000
00000000
00000000
00000010
00010000
00000010
00000000
00001000
00000100
00001000
00000000
00010000
01000000
00010000
00000000
,
00100000
00001000
00100000
00000000
00010000
00010000
00100000
00100000
10000000
10000000
01000000
01000000
20020000
00000000
00000000
00000000
,
00000000
00000000
00000000
00000000
00000000
00000000
00000000
00000000
30030000
00000000
00000000
00000000
10000000
01000000
00000000
00010000
,
00000000
00001000
00100000
00000000
00010000
01000000
00000000
00001000
00010000
00000010
00010000
00000000
00012000
00000000
00000000
00000000
,
00003010
00000100
00001000
00000001
00000000
00000100
00000010
00010000
00001000
00000000
01000000
00000000
00010000
00000000
00100000
01000000
,
00000000
00010000
01000000
00000000
10000000
00100000
00000000
01000000
00001000
00010000
00001000
00000010
00000000
00000100
00001000
00000000
,
00001010
00000000
00010000
00001000
00000000
01000000
00010000
00000000
00110000
00000000
00000000
00000000
00001000
00010000
00000100
00001000
,
00000000
00000020
00000000
00000000
00001030
00000100
00000001
00000000
00000100
00001000
00000000
00000000
00001020
00000000
00000000
00000000
,
00000130
00000000
00001000
00010000
00000000
00100000
00010000
00000000
00100000
00000000
10000000
00000000
11000000
00000000
00010000
00000000
,
00100000
00001000
00010000
00000100
00002000
00003000
00000000
00000000
00000001
00000000
00000100
00000000
00001000
00010000
00001000
01000000
,
00000000
00010000
00100000
01000000
00100000
00000000
00001000
00000000
00011000
00000000
00010000
00000000
00000010
00001000
00000010
00000100
,
00000000
00001000
00010000
00001000
02000000
00000000
03020000
00000000
00130000
00000000
01000000
00000000
00010000
01000000
10000000
01000000
,
00000000
00100000
00001000
00010000
00000100
00000000
00001000
00000000
00000010
00000000
00000100
00001000
00000000
00001000
00010000
00000000
,
01000000
00010000
00000000
00010000
00001000
00100000
00010000
00000000
10010000
00000000
00000000
00000000
00010000
00100000
00001000
00010000
,
00000000
00000010
00001000
00000100
00000010
00000000
00000001
00000000
00001001
00000000
00001000
00000000
00000010
00010000
00001000
01000000
,
00000000
00010000
00100000
01000000
10000000
00000000
00100000
00000000
01100000
00000000
01000000
00000000
00001000
00000000
00001000
00010000
,
00000000
00010000
00000100
00001000
00000100
00000000
00000010
00000000
00000002
00000000
00000203
00000000
00002300
00000000
00023000
00000000
,
00130000
01000000
00100000
01000000
00010000
10000000
00010000
10000000
00000000
00000000
00000000
00000000
01000000
00010000
01000000
00010000
,
00001000
00010000
00001000
00000000
00000000
00000000
00000100
00001000
00000100
00001000
00010000
00001000
00010000
00000000
00000010
00010000
,
00000010
00010000
00001000
00000000
00000000
00000000
00100000
00010000
00100000
00010000
00100000
00010000
01000000
00000000
00001000
00010000
,
00001000
00010000
00000100
00000000
00000000
00000000
00000100
00000000
00000110
00000000
00000000
00010100
00000000
00000000
01001000
00000000
,
00000000
01100000
00000000
00000000
00000000
00000000
00000000
00000000
00100000
01000000
00010000
00000000
00100000
00001000
00010000
00000000
,
00000010
00001000
00000100
00000000
00000010
00000001
00001000
00000000
00000010
00010000
00001000
00000000
00100000
00010000
10000000
00000000
,
01000000
00100000
00001000
00000000
00010000
00000100
00000010
00000000
00000001
00000100
00000001
00000100
00000010
00010000
00000010
00010000
,
00001000
00100000
00001000
00100000
01000000
10000000
01000000
10000000
00100000
00100000
00010000
00010000
00001000
00001000
00000100
00000100
,
00000001
00000000
00000000
00000000
;
