#VERSION:0.83;
#TITLE:恋歌疾風!かるたクイーンいろは;
#SUBTITLE:;
#ARTIST:ねこまんまチーム!;
#TITLETRANSLIT:Koiuta shippuu! Karuta queen Iroha;
#SUBTITLETRANSLIT:;
#ARTISTTRANSLIT:Nekomanma chimu!;
#GENRE:;
#CREDIT:;
#MUSIC:Koiuta shippuu! Karuta queen Iroha.ogg;
#BANNER:Koiuta shippuu! Karuta queen Iroha.png;
#BACKGROUND:Koiuta shippuu! Karuta queen Iroha-bg.png;
#CDTITLE:./CDTitles/pnm eclale.png;
#SAMPLESTART:85.907;
#SAMPLELENGTH:15.000;
#SELECTABLE:YES;
#OFFSET:1.499;
#BPMS:0.000=120.000
,37.000=168.000
;
#STOPS:;
#BGCHANGES:0.000=Koiuta shippuu! Karuta queen Iroha.mp4=1.000=0=0=0=StretchNoLoop====,
99999.000=-nosongbg-=1.000=0=0=0=StretchNoLoop====
;
#FGCHANGES:;

//--------------- dance-single - forcednature ----------------
#NOTEDATA:;
#STEPSTYPE:dance-single;
#DESCRIPTION:forcednature;
#DIFFICULTY:Beginner;
#METER:3;
#RADARVALUES:0,0,0,0,0;
#CREDIT:forcednature;
#NOTES:
0000
0000
0000
0000
,
0000
0000
0000
0000
,
0000
0000
0000
0000
,
0000
0000
0000
0000
,
0000
0000
0000
0000
,
0001
0000
0000
0000
,
0000
0000
0000
0000
,
1000
0000
0000
0000
,
0100
0000
0000
0000
,
0000
0010
0000
0000
,
0000
0000
0001
0000
,
0000
0000
0001
0000
,
0000
0000
1000
0000
,
0000
0000
1000
0000
,
0000
0000
0010
0000
,
0000
0000
0100
0000
,
0000
0000
0010
0000
,
0000
0000
0100
0000
,
0000
0000
0001
0000
,
0000
0000
0000
0000
,
0000
0000
0010
0000
,
0000
0000
0000
0000
,
0000
0000
0100
0000
,
0000
0000
0100
0000
,
0000
0000
1000
0000
,
0000
0000
0001
0000
,
0000
0000
0100
0000
,
0100
0000
0100
0000
,
0000
0000
0010
0000
,
0010
0000
0010
0000
,
0000
0000
1000
0000
,
0000
0000
0001
0000
,
0000
0000
0010
0000
,
0000
0000
0100
0000
,
0000
0000
1000
0000
,
0000
0000
0001
0000
,
0000
0000
0100
0000
,
0000
0000
0010
0000
,
0000
0000
1000
0000
,
0000
1000
0001
0000
,
0000
0001
0100
0000
,
0000
0000
0100
0000
,
0100
0000
0001
0000
,
0000
0001
1000
0000
,
0000
1000
0100
0000
,
0000
0000
0100
0000
,
0010
0000
0001
0000
,
0000
0000
0000
0000
,
0000
0000
0100
0000
,
0000
0000
0000
0000
,
0000
0000
0010
0000
,
0000
0000
1000
0000
,
0000
0000
0001
0000
,
0000
0000
0010
0000
,
0010
0000
0100
0000
,
0100
0000
1000
0000
,
1000
0000
0000
0000
,
0000
0000
1001
0000
,
0000
0000
0001
0000
,
0000
0000
0100
0000
,
0000
0000
0001
0000
,
0000
0000
1001
0000
,
0000
0000
1000
0000
,
0000
0000
0100
0000
,
0100
0000
0100
0000
,
0000
0000
0110
0000
,
0000
0000
0000
0000
,
0000
0000
0010
0000
,
0000
0000
0001
0000
,
0000
0000
0100
0000
,
0100
0000
0100
0000
,
0000
0000
1001
0000
,
0000
0000
0110
0000
,
0000
0000
1001
0000
,
0000
0000
0110
0000
,
0000
0000
0001
0000
,
0001
0000
1000
0000
,
1000
0000
1001
0000
,
0000
0000
0110
0000
,
0000
0000
1000
0000
,
0001
0000
0100
0000
,
0010
0000
2002
0000
,
0000
0000
0000
0000
,
0000
0000
3003
0000
;

//--------------- dance-single - forcednature ----------------
#NOTEDATA:;
#STEPSTYPE:dance-single;
#DESCRIPTION:forcednature;
#DIFFICULTY:Easy;
#METER:7;
#RADARVALUES:0,0,0,0,0;
#CREDIT:forcednature;
#NOTES:
0000
0000
0000
0000
,
0000
0000
0000
0000
,
0000
0000
0000
0000
,
0000
0000
0000
0000
,
0000
0000
0000
0000
,
0001
0000
0000
0000
,
0100
0000
0000
0000
,
0010
0000
1000
0000
,
0001
0000
0020
0000
,
0000
0030
0000
0000
0000
0000
0000
0000
0000
0000
0000
0000
0000
0000
0000
0000
0220
0000
0000
0000
0000
0000
0000
0000
0000
0000
0000
0000
0000
0000
0000
0000
,
0330
0000
1000
0000
,
1000
0000
0001
0000
,
0001
0000
1000
0000
,
1000
0000
0001
0000
,
0001
0000
0100
0010
,
0000
0010
0100
0010
,
0000
0010
1000
0001
,
0000
0001
1000
0001
,
1000
0000
0100
0000
,
0000
0000
0010
0000
,
0000
0000
0001
0000
,
0000
0000
1000
0000
,
0000
0000
0001
0100
,
0001
0000
0001
1000
,
0001
0000
0001
0010
,
0100
1000
0001
1000
,
0010
0000
1000
0100
,
1000
0001
1000
0100
,
1000
0000
0001
0100
,
0001
1000
0010
0100
,
0010
0100
0001
0000
,
0001
0000
1000
0100
,
0010
0000
0100
1000
,
0001
1000
0010
0000
,
0100
0000
0110
0000
,
0010
0000
1000
0001
,
0010
0000
0100
1000
,
0100
0010
0001
1000
,
0001
0000
0100
0001
,
0000
1001
0100
1000
,
0000
1001
0010
0100
,
0010
1000
0001
1000
,
0100
0100
1000
0010
,
0000
0110
0001
0010
,
0000
0110
1000
0001
,
0100
0010
1000
0001
,
0010
0100
1000
0000
,
0001
0000
0200
0000
,
0300
0000
0001
0000
,
1000
0000
0200
0000
,
0300
0000
0110
0000
,
0010
0001
1000
0001
,
0100
0000
0010
0000
,
1000
0001
0010
0010
,
0100
0100
1000
1000
,
0001
0001
0100
0010
,
1000
0001
0000
0000
,
0000
0000
1001
0110
,
0001
1000
0010
0100
,
0001
1000
0100
0010
,
0001
0100
0010
1000
,
0001
0010
0110
1001
,
0000
0000
1000
0010
,
1000
0000
0001
0010
,
0100
1000
0001
0100
,
0000
0010
1001
0000
,
1000
0100
1000
0001
,
1000
0000
0010
0100
,
0001
0000
1000
0001
,
0010
0000
0100
1000
,
0100
0010
0100
1000
,
0100
0000
0010
0000
0001
0000
0000
0001
,
0000
0000
1000
0000
0010
0000
0000
0010
,
0000
0100
1001
0000
,
0100
0010
1001
0000
,
0010
0100
0001
1000
,
0100
0010
0001
0100
,
0010
1000
0110
0000
,
1000
0001
0110
0000
,
0001
1000
0100
1000
,
0001
0100
0010
1000
,
0001
0010
2002
0000
,
0000
0000
0000
0000
,
0000
0000
3003
0000
;

//--------------- dance-single - forcednature ----------------
#NOTEDATA:;
#STEPSTYPE:dance-single;
#DESCRIPTION:forcednature;
#DIFFICULTY:Medium;
#METER:12;
#RADARVALUES:0,0,0,0,0;
#CREDIT:forcednature;
#NOTES:
0000
0000
0000
0000
,
0000
0000
0000
0000
,
0000
0000
0000
0000
,
0000
0000
0000
0000
,
0000
0000
0000
0000
,
0001
0000
0100
0000
,
0010
1000
0001
1000
,
0100
0000
0010
0000
,
0001
0100
0020
0000
,
0000
0030
0000
0000
0000
0000
0000
0000
1000
0000
0000
0000
0001
0000
0000
0000
0020
0000
0000
0000
0000
0000
0000
0000
0000
0000
0000
0000
0000
0000
0000
0000
,
0000
0030
0100
1000
,
0010
1000
0100
1000
,
0010
1000
0001
0010
,
0001
0100
0001
0010
,
0001
0100
0001
0000
1000
0100
0010
0001
,
1000
0100
0010
0001
1000
0100
0010
0001
,
0010
0100
1000
0000
0001
0100
0010
1000
,
0001
0100
0010
1000
0001
0100
0010
1000
,
0010
0100
0001
0000
2000
0000
0000
0000
,
0100
0000
3002
0000
,
0100
0000
2003
3020
,
0230
0302
2003
0000
,
0000
3000
0100
0010
,
0001
0010
0001
0000
0100
0000
0010
0000
,
1000
0010
1000
0000
0001
0010
0001
0010
,
0100
0000
1000
0000
0100
0000
0000
0000
1000
0000
0000
1000
0010
0000
0100
0000
,
0002
0000
0013
0000
0001
0100
0010
1000
,
0001
0100
0010
1000
0001
0100
0010
1000
,
0010
0100
0001
0000
1000
0100
0010
0001
,
1000
0100
0010
0001
0100
0010
0100
0010
,
1000
0001
1000
0001
0010
0000
0010
0100
,
1000
0000
1000
0000
0010
0100
0001
0000
,
0100
0010
1000
0000
0001
0000
0011
0000
,
1000
0000
1010
0000
0001
0100
0010
1000
,
0001
1000
0100
0000
0010
0001
1000
0000
,
1000
0010
0100
0000
0001
1000
0100
0000
,
0010
0001
0100
0000
0010
0000
1010
0000
,
0100
0101
0011
1010
,
2002
0000
3003
0000
1000
0100
0010
0001
,
0000
0100
0100
0000
0001
0100
0010
1000
,
0000
0100
0100
0000
1000
0010
1000
0001
,
1000
0100
1000
0001
0100
0010
0100
0001
,
1000
1000
0001
0001
0010
0100
1000
0001
,
0000
0100
0100
0000
0010
0100
0001
1000
,
0000
0100
0100
0000
0010
0001
0100
0001
,
1000
0100
1000
0000
0010
0100
0001
1000
,
0100
0010
0001
0000
0200
0000
0000
0000
,
0320
2030
3002
0000
,
0010
0000
0203
0000
,
0302
2003
3200
0010
,
1000
0000
0310
0000
2002
0000
0000
3003
,
0001
0100
0001
0100
0010
0100
0010
0100
,
1000
0000
0100
0001
0200
0000
0000
1300
,
0010
0000
0000
0000
1000
0000
0000
0000
0001
1000
0001
0000
1000
0000
0000
0000
,
1000
0001
1000
0000
0001
0000
0000
0000
0010
0100
0010
0000
0100
0000
0000
0000
,
0100
0010
0100
0000
0010
0000
0000
0000
0001
0000
0100
0000
0001
0000
0100
0000
,
0010
1000
0010
1000
0000
0002
0000
0000
,
0023
0000
0000
0000
0130
0000
0000
0000
1000
0010
0000
0100
0000
0001
1000
0000
,
0000
0000
0001
0000
0010
0000
0000
0000
0100
0000
0000
1000
0000
0000
0001
0000
,
1000
0010
0100
0001
1000
0000
0100
0010
,
0001
0000
0001
0100
0010
0000
0010
1000
,
0100
0000
0100
0000
0010
0000
0010
0000
0001
1000
0001
1000
0002
0000
0000
0000
,
0003
0000
0100
0000
0001
0100
0010
1000
,
0002
0000
0003
0000
1000
0100
0001
0000
,
0001
0100
1000
0000
1000
0010
0100
0001
,
0000
0010
0010
0100
2002
0000
0000
0000
,
0000
0000
3003
0001
,
0100
0010
0010
0000
1000
0000
0001
0000
,
0010
0001
1000
0010
,
1000
0100
0100
0000
1000
0010
0100
0001
,
1000
0100
0010
0001
1000
0010
0100
0001
,
0100
0010
1000
0000
0002
0000
0010
0010
,
0000
0100
0103
0000
2000
0000
0010
0010
,
0000
0000
0100
0000
3100
0000
0000
0000
0102
0000
0000
0100
0000
0000
1003
0000
,
0000
0000
0001
0000
0010
0000
0000
0000
2100
0000
0000
0100
0000
0000
3001
0000
,
0000
1000
0010
0000
0100
0001
1000
0001
,
0010
0000
0100
1000
0001
0000
0100
0000
,
0010
0000
1000
0000
0001
0000
0000
0000
2100
0000
0000
0001
0000
0000
3010
0000
,
0000
0000
1000
0000
0001
0000
0000
0000
0102
0000
0000
1000
0000
0000
0013
0000
,
0000
0001
1000
0000
0100
0010
0001
0100
,
0010
0000
1000
0001
0010
0000
0110
0000
,
0100
1000
0000
0001
0000
0001
0000
1000
0020
0000
0000
0000
0000
0000
0000
0000
,
0000
0000
0000
0000
,
0000
0000
0030
0000
;

//--------------- dance-single - forcednature ----------------
#NOTEDATA:;
#STEPSTYPE:dance-single;
#DESCRIPTION:forcednature;
#DIFFICULTY:Hard;
#METER:17;
#RADARVALUES:0,0,0,0,0;
#CREDIT:forcednature;
#NOTES:
0000
0000
0000
0000
,
0000
0000
0000
0000
,
0000
0000
0000
0000
,
0000
0000
0000
0000
,
0000
0000
0000
0000
,
1000
0000
0100
0010
0001
0000
1000
0000
,
0001
0100
0001
0000
0001
1000
0010
0000
,
0100
0000
0001
1000
0100
0000
0010
0001
,
1000
0010
0100
0001
0020
0000
0000
0000
,
0000
0030
0000
0000
0000
0000
0000
0000
0100
0000
0000
0000
0010
0000
0000
0000
2002
0000
0000
0000
0000
0000
0000
0000
0000
0000
0000
0000
0000
0000
0000
0000
,
0000
0000
0000
0000
3003
0000
0000
0000
1000
0000
0100
0000
1000
0010
0000
0000
,
0001
0000
0100
0000
0001
0010
0000
0000
1000
0000
0100
0000
1000
0010
0000
0000
,
0001
0000
0100
0000
0001
0010
0000
0000
1000
0000
0010
0000
1000
0100
0000
0000
,
0001
0000
0010
0000
0001
0100
0000
0000
1000
0000
0010
0000
1000
0100
0000
0000
,
0001
0010
0001
0010
0100
1000
0001
0000
0100
0000
0001
0000
0100
0010
1000
0000
,
0100
0000
1000
0000
0100
0010
0001
0000
0100
0000
0001
0000
0100
0010
1000
0000
,
0100
0000
1000
0100
0010
0001
1000
0000
0001
0000
0100
0000
0010
1000
0001
0000
,
1000
0000
0100
0000
0010
0001
1000
0000
0001
0000
0100
0000
0010
1000
0001
0000
,
1000
0100
0010
0001
1000
0000
0000
0000
0001
0000
0100
0000
0010
0000
0100
0000
,
2000
0000
3200
0000
0310
2000
0000
3001
,
0010
0100
1000
0100
0020
0000
0032
0000
,
0203
0320
2030
0000
,
3100
0000
1000
0100
1000
0000
0000
0000
0001
0000
0010
0000
0001
0000
0100
0010
,
2000
0000
3002
0000
0013
0100
0001
0100
,
1000
0001
0010
0001
0101
0100
0110
0010
,
1010
0000
1000
0000
1001
0000
0000
0000
0110
0000
0000
1000
0001
0000
0010
0000
,
0110
0000
0100
1000
0001
0000
0000
0000
1000
0000
0010
0000
0100
1000
0100
0000
,
0001
0000
0010
0000
0100
0001
0100
0000
1000
0000
0010
0000
0100
1000
0100
0000
,
0001
0000
1001
0000
0110
0000
0000
0000
0001
0000
0100
0000
0010
0001
0010
0000
,
1000
0000
0100
0000
0010
1000
0010
0000
0100
1000
0001
0000
0100
0001
1000
0000
,
0010
0100
0010
0100
0001
1000
0001
0000
0010
0000
0100
0000
0010
0000
0001
1000
,
0010
0000
0100
0000
1000
0000
0100
0000
0010
0000
1000
0000
0100
0010
0001
0010
,
0100
1000
0010
0100
0101
0100
1010
0000
,
1100
0000
0100
0000
0011
0000
0000
0000
1000
0000
0001
0000
0100
0010
1000
0000
,
0001
0000
0011
0000
1100
0000
0000
1000
0001
0000
0100
0000
0010
0000
0001
0010
,
0100
0000
0001
0000
1000
0000
0001
0000
0010
0000
0010
0000
0100
0000
1000
0001
,
0100
0010
0001
0010
1010
1000
1100
0000
,
0011
0001
0101
0100
0110
0010
1001
0100
,
1010
0000
0011
0000
1001
0000
0000
0000
1000
0100
0010
0000
0001
0000
0011
0000
,
0000
0000
0110
0000
2002
0000
3003
0000
0001
0100
0010
0000
1000
0000
1010
0000
,
0000
0000
0110
0000
2002
0000
3003
0000
1000
0100
0010
0000
0001
0100
0001
0100
,
0010
1000
0010
1000
0001
0000
1000
0000
0001
0010
0100
1000
0001
0000
0100
0000
,
0101
0000
1010
0000
1100
0000
0011
0000
0001
1000
0010
0000
0100
0000
1001
0000
,
0000
0000
1010
0000
0202
0000
0303
0000
1000
0001
0010
0000
0100
0000
1001
0000
,
0000
0000
0011
0000
2200
0000
3300
0000
1000
0001
0100
0000
0010
1000
0010
1000
,
0001
0010
0001
0010
0100
0000
1000
0000
0010
0100
0000
0001
0100
0010
1000
0001
,
0010
0000
0100
0000
0110
0000
0000
1000
0002
0000
0000
0000
0000
0000
0100
0000
,
0100
0000
0010
0000
2003
0000
0000
0100
,
0100
0000
0010
0000
3002
0000
0000
0010
,
0010
0000
1000
0000
0103
0000
0000
0100
0010
0000
0001
0000
0010
0000
1000
0001
,
0100
0010
0110
0100
1002
0000
1000
0000
,
0013
0001
0010
0000
0100
0010
0100
0000
1000
0100
1000
0000
0010
1000
0001
0000
,
0101
0000
0100
0010
2010
0000
3100
1000
,
0001
0000
0010
0000
1000
0000
0010
0000
0001
1000
0100
1000
0020
0000
0030
0000
,
1000
0001
0100
0001
0020
0000
0030
0000
0001
1000
0010
1000
0200
0000
0300
0000
,
1000
0001
0010
0001
0200
0000
0300
0000
0010
1000
0010
1000
0100
1000
0100
1000
,
0001
0100
0001
0100
0001
0010
0001
0010
0000
0000
0001
0000
0100
0000
1000
0000
,
0001
0000
0010
0000
1000
0000
0001
0000
0100
0010
0000
1001
0000
0100
0020
0000
,
0030
0000
1000
0100
0010
0000
0100
0010
0001
1000
0000
1000
0010
0000
0100
0000
,
1000
0000
0001
0000
0010
0000
1000
0000
0100
0010
0100
1000
0100
0000
1000
0000
,
0010
0100
0001
0100
0010
0000
1000
0000
0001
0010
0100
0010
0001
0000
1000
0001
,
0100
0000
0110
0000
0010
0000
1001
0000
0001
0100
1000
0100
0020
0000
0000
0000
,
0130
0000
0001
0010
0100
0000
0010
0100
1000
0100
0010
0001
1000
0010
0100
0002
,
0000
0000
0010
0000
0013
0000
0000
0000
0001
0100
0010
1000
0001
0000
0101
0000
,
1000
0100
0010
0001
1000
0000
1100
0000
0001
1000
0010
0000
1000
0001
0010
0000
,
0100
0000
0110
0000
1001
0000
1000
0010
0200
0000
0001
0000
0010
0000
0001
0000
,
0010
0000
1000
0000
0010
0000
0301
0000
0100
0010
1000
0000
0100
0010
0001
1000
,
0010
0000
0101
0000
0011
0000
0000
0000
1000
0001
0100
0000
0001
1000
0100
0000
,
1000
0001
0010
0000
0001
1000
0010
0000
0100
0001
0010
0000
0100
1000
0010
0000
,
0110
0000
0010
0000
1001
0000
1000
0100
0010
0000
0001
1000
0010
0000
0010
1000
,
0001
0000
0001
1000
0100
0000
0100
1000
0001
0000
1000
0001
0010
0000
0010
0001
,
1000
0000
0110
0000
0001
0100
0010
1000
0002
0000
0010
0000
1000
0000
0103
0001
,
1000
0000
0010
0100
0001
1000
0010
0000
2000
0000
0100
0000
0001
0000
3010
1000
,
0001
0000
0010
0100
1000
0001
0010
0000
0100
1000
0000
0100
0001
0000
0100
1000
,
0000
0000
1100
0000
1000
0000
1010
0000
0100
0001
0000
0100
1000
0000
0100
0001
,
0000
0010
0100
0000
0110
0000
1001
0000
1000
0000
0010
0100
0001
0000
1000
0000
,
0100
0010
0001
0010
0100
0000
0001
0000
0100
0000
1000
0001
0100
0000
0010
0000
,
1000
0100
0000
0010
0001
0000
0100
0001
1000
0100
0000
0001
0100
0000
1000
0100
,
0000
0000
0101
0000
0001
0000
0011
0000
0001
0100
0000
1000
0100
0000
0001
0100
,
0000
0010
1000
0000
1100
0000
0001
0000
0010
0000
0100
1000
0001
0000
0100
0000
,
0010
1000
0100
1000
0010
0000
0100
0000
0001
1000
0100
0000
1000
0001
0100
0000
,
0010
1000
0000
1100
0000
0101
0000
0001
0020
0000
0000
0000
0000
0000
0000
0000
,
0000
0000
0000
0000
,
0000
0000
0030
0000
;

//--------------- dance-double - forcednature ----------------
#NOTEDATA:;
#STEPSTYPE:dance-double;
#DESCRIPTION:forcednature;
#DIFFICULTY:Easy;
#METER:8;
#RADARVALUES:0,0,0,0,0;
#CREDIT:forcednature;
#NOTES:
00000000
00000000
00000000
00000000
,
00000000
00000000
00000000
00000000
,
00000000
00000000
00000000
00000000
,
00000000
00000000
00000000
00000000
,
00000000
00000000
00000000
00000000
,
00001000
00000000
00000000
00000000
,
01000000
00000000
00010000
00000000
,
01000000
00000000
00100000
00000000
,
10000000
00000000
00020000
00000000
,
00030000
00000000
00200000
00000000
,
00300000
00000000
00001000
00001000
,
00010000
00010000
00001000
00001000
,
00010000
00010000
00001000
00001000
,
00010000
00010000
00001000
00001000
,
00010000
00001000
00000000
00010000
,
00000100
00001000
00000001
00001000
,
00000100
00010000
00000000
00001000
,
01000000
00010000
10000000
00010000
,
01000000
00001000
00010000
00000000
,
00000010
00000000
00001000
00000001
,
00000010
00000100
00001000
00000000
,
00000010
00000000
00020000
00000000
,
00030000
00000000
00001000
00100000
,
00001000
00000000
00100000
00010000
,
00100000
00000000
01000000
10000000
,
00010000
10000000
00100000
01000000
,
00010000
00000000
00100000
00001000
,
00010000
00001000
01000000
00001000
,
00010000
00000000
00000010
00010000
,
00001000
00010000
00000100
00010000
,
00001000
00000000
00011000
00000000
,
00010000
00000100
00001000
00000001
,
00000010
00000000
00000100
00010000
,
00001000
00100000
00020000
00000000
,
00030000
00000000
10000000
00100000
,
01000000
00000000
00010000
01000000
,
00001000
00000000
00010000
00000100
,
00001000
00000001
00001000
00000010
,
00010000
00000000
00001000
00100000
,
00000000
01100000
00100000
00001000
,
00000000
00011000
00010000
00000010
,
00001000
00000010
00000100
00000001
,
00000010
00000010
00000010
00000000
00000100
00000000
00010000
00000000
,
00000000
00011000
00001000
00100000
,
00000000
01100000
01000000
10000000
,
00100000
10000000
01000000
00010000
,
00001000
00011000
00010000
00000000
,
00000100
00000000
00001000
00000000
,
00000000
00000000
00000010
00000000
,
00010000
00000000
00001000
00000000
,
00000000
01000000
00010000
00010000
,
10000000
10000000
01000000
00100000
,
01000000
00000000
10000000
00010000
,
00100000
00001000
00011000
00010000
,
00011000
00001000
00011000
00010000
,
00011000
00001000
00010000
00000010
,
00001000
00000010
00000000
00000100
,
00000001
00000000
00001000
00000000
00000100
00000010
00000100
00000010
,
00000000
00000001
00001000
00000010
,
00010000
00001000
00100000
00010000
,
10000000
00100000
01000000
00010000
,
10000000
00000000
01000000
00000000
00100000
01000000
00100000
00000000
,
00000000
00010000
01000000
00001000
,
00022000
00033000
00010000
00000100
,
00001000
00000010
00010000
00001000
,
00100000
01000000
20020000
00000000
,
00000000
30030000
10000000
00010000
,
01000000
00001000
00010000
00000100
,
00001000
00000001
00001000
00000010
,
00010000
00011000
00000000
00001000
,
00100000
00010000
00100000
01000000
,
01100000
10010000
00000000
00010000
,
01000000
00001000
00010000
00000000
,
00000100
00001000
00000001
00000001
,
00000000
00000100
00001000
00001000
,
00000000
00010000
00100000
01000000
,
00010000
10000000
01000000
00010000
,
00001000
00100000
01000000
01000000
,
00000000
00010000
00001000
00001000
,
00000000
00010000
00000010
00001000
,
00000001
00000010
00000100
00010000
,
00011000
00011000
00200000
00000000
,
00000000
00000000
00000000
00000000
,
00000000
00000000
00300000
00000000
;

//--------------- dance-double - forcednature ----------------
#NOTEDATA:;
#STEPSTYPE:dance-double;
#DESCRIPTION:forcednature;
#DIFFICULTY:Medium;
#METER:13;
#RADARVALUES:0,0,0,0,0;
#CREDIT:forcednature;
#NOTES:
00000000
00000000
00000000
00000000
,
00000000
00000000
00000000
00000000
,
00000000
00000000
00000000
00000000
,
00000000
00000000
00000000
00000000
,
00000000
00000000
00000000
00000000
,
00000000
00010000
00001000
00000000
00010000
00100000
00010000
00000000
,
00100000
10000000
00100000
00000000
10000000
00000000
01000000
00000000
,
00000000
00010000
00001000
00000000
00000010
00000001
00000010
00000000
,
00000001
00000100
00000001
00001000
00000020
00000000
00000000
00000000
,
00000030
00000000
00000100
00001001
00000020
00000000
00000000
00000000
,
00000030
00000000
00000000
00000000
00001000
00000100
00010000
00000000
,
00001000
01000000
00010000
00000000
00100000
00001000
00010000
00000000
,
00000010
00010000
00001000
00000000
01000000
00010000
10000000
00000000
,
01000000
00010000
00001000
00000000
00100000
00010000
01000000
00000000
,
01010000
00000000
00011000
00000000
00001000
00010000
00000100
00010000
,
00001000
00010000
00000010
00010000
00001000
00010000
00000100
00010000
,
00001000
00010000
00000010
00000000
00010000
00001000
01000000
00001000
,
00010000
00001000
00100000
00001000
00010000
00001000
01000000
00001000
,
00100000
00001000
00010000
00000000
00100000
00000000
10000000
00010000
,
10000000
00000000
01000000
00000000
00010000
00000000
00001000
00010000
,
00001000
00000010
00000002
00000203
,
00000320
00020030
00032000
00000000
,
00003000
00000000
00000000
00000000
00100000
00000000
00010000
10000000
,
00010000
00000000
01000000
00000000
00001000
00000000
00100000
00010000
,
00100000
00001000
00011000
00010010
,
00001010
00000000
00001100
00000000
00000100
00000010
00000001
00000100
,
00000020
00000000
00000030
00000000
00001000
00000100
00010000
00001000
,
00010000
00000010
00001000
00000010
00010000
00001000
00010000
00000100
,
00001000
00000100
00010000
00000000
00001000
01000000
00010000
01000000
,
00001000
00010000
00001000
00100000
00010000
10000000
00100000
01000000
,
00010000
10000000
01000000
00100000
00001000
00020000
00000000
00030010
,
00001000
00000000
00001001
00000000
00000001
00000010
00000100
00000000
,
00000010
00000100
00010000
00000000
00001000
00000000
00101000
00000000
,
00010000
00010010
00012000
01000000
,
00013000
00001000
00000010
00000000
00000100
00010000
00000010
00001000
,
00000001
00000010
00000100
00000000
00010000
00001000
01000000
00010000
,
00100000
00001000
00010000
00000000
00100000
10000000
00010000
00000000
,
00110000
00000000
00100000
01000000
00010000
00000000
00011000
00000000
,
00001000
00000010
00000001
00000000
00000100
00001000
00010000
00100000
,
00000000
10000000
11000000
00000000
01000000
00010000
00001000
00000010
,
00000000
00000001
00000101
00000000
00000100
00001000
00010000
00001000
,
01000000
00001000
00010000
00001000
00100000
00010000
00100000
00000000
,
01000000
01000000
01000000
01000000
10000000
00010000
00100000
00001000
,
00000000
00000010
00000110
00000000
00000001
00001000
00000010
00010000
,
00000000
00100000
01100000
00000000
10000000
01000000
00010000
01000000
,
00100000
00001000
00010000
00000010
00000100
00001000
00000100
00000001
,
00000010
00000100
00001001
00000000
00001000
00000000
00000100
00010000
,
00001000
00000000
00100000
00010000
10000000
00000000
00000000
00000000
,
00000000
00000000
00100000
01000000
00010000
00100000
00000000
01000000
,
00010000
00001000
00011000
00000000
,
00000000
00000000
00000010
00001000
00000001
00000000
00000000
00000000
,
00000010
00000100
00001000
00000100
00010000
00001000
00100000
00010000
,
10000000
00000000
00100000
01000000
00010000
00000000
10000000
01000000
,
00010000
00001000
00100000
00010000
01000000
00001000
00011000
00000000
,
00000100
00010000
00011000
00000000
00100000
00001000
00011000
00000000
,
00000010
00010000
00011000
00000000
00001000
00000010
00000100
00000010
,
00000001
00000100
00000010
00000100
00000000
00001000
00010000
01000000
,
00100000
00000000
00001000
00000000
00010000
00000000
00100000
00000000
10000000
00010000
00000000
01000000
00000000
00010000
00100000
00000000
,
00000000
01000000
00010000
00001000
00100000
00010000
00100000
00001000
,
00010000
00000010
00001000
00000010
00000100
00001000
00010000
00000000
,
00000100
00010000
00001000
00000000
01000000
00001000
00010000
00000000
,
01000000
00000000
00100000
00000000
00001000
00000000
00010000
00000000
00000100
00001000
00000100
00001000
00000100
00000000
00000000
00000000
,
00000010
00000001
00001000
00000010
00000100
00001000
00010000
00002000
,
00000000
00100000
00103000
00000000
00001000
00010000
00100000
00000000
,
00010000
00100000
10000000
00000000
01000000
10000000
00010000
00100000
,
00000000
01000000
00010000
00001000
00021000
00000000
00000010
00000000
,
00001000
00000000
00030100
00000000
00010000
00001000
00000010
00000100
,
00001000
00000001
00000010
00000000
00000001
00000100
00001000
00010000
,
00000010
00001000
00000100
00000010
00001000
00010000
01000000
00100000
,
00001000
00010000
00011000
00000000
00001000
00100000
01000000
00100000
,
00001000
01000000
00100000
01000000
00001000
00100000
01000000
00100000
,
00001000
01000000
00010000
00000000
10000000
01000000
00010000
00001000
,
00000000
00000010
00000110
00000000
00000001
00000100
00001000
00010000
,
00000000
00000000
00100000
00000000
01100000
00000000
00000000
00000000
10000000
00010000
00000000
10000000
00010000
00000000
10000000
00010000
,
00000000
00000000
01000000
00000000
00001000
00000000
00000000
00000000
00010000
00001000
00000000
00010000
00001000
00000000
00010000
00001000
,
00000000
00010000
00000100
00000000
00001000
00000001
00000010
00000100
,
00000010
00000001
00001000
00000000
00000010
00000100
00001000
00010000
,
01000000
00000000
00100000
00000000
00001000
00000000
00000000
00000000
00010000
00000100
00000000
00010000
00000100
00000000
00010000
00000100
,
00000000
00000000
00001000
00000000
00000010
00000000
00000000
00000000
00000100
00000001
00000000
00000100
00000001
00000000
00000100
00000001
,
00000000
00000010
00000100
00000000
00001000
00000010
00010000
00001000
,
00000010
00000100
00001000
00000000
00000001
00000100
00001000
00010000
,
01000000
00100000
00000000
00010000
00000000
00100000
00000000
00001000
00020000
00000000
00000000
00000000
00000000
00000000
00000000
00000000
,
00000000
00000000
00000000
00000000
,
00000000
00000000
00030000
00000000
;

//--------------- dance-double - forcednature ----------------
#NOTEDATA:;
#STEPSTYPE:dance-double;
#DESCRIPTION:forcednature;
#DIFFICULTY:Hard;
#METER:16;
#RADARVALUES:0,0,0,0,0;
#CREDIT:forcednature;
#NOTES:
00000000
00000000
00000000
00000000
,
00000000
00000000
00000000
00000000
,
00000000
00000000
00000000
00000000
,
00000000
00000000
00000000
00000000
,
00000000
00000000
00000000
00000000
,
00000000
00001000
00010000
00001000
01000000
00010000
01000000
00001000
,
00100000
01000000
00010000
00001000
00000010
00000100
00001000
00000000
,
00000000
00000010
00000100
00000010
00001000
00000001
00001000
00000100
,
00010000
00001000
00100000
01000000
20000000
00000000
00000000
00000000
,
30000000
00000000
00100000
00010000
00022000
00000000
00003000
00000000
,
00000010
00000010
00030010
00000000
00010000
00001000
00000010
00000000
,
00001000
00010000
00100000
00000000
00010000
00001000
00000100
00000000
,
00001000
00010000
01000000
00000000
00010000
00001000
00100000
00000000
,
00001000
00010000
00100000
00000000
00010000
00001000
00000010
00000000
,
00000100
00001000
00000100
00001000
00000001
00000000
00000010
00000000
00000001
00000000
00000100
00000000
00000010
00000100
00000010
00000000
,
00001000
00000000
00000100
00000000
00010000
00000100
00010000
00000000
00001000
00000000
00100000
00000000
00010000
00100000
00010000
00000000
,
01000000
00000000
00010000
00000000
10010000
00000000
00000000
00000000
10000000
00000000
01000000
00000000
00100000
01000000
00100000
00000000
,
00010000
00000000
01000000
00000000
00010000
01000000
00010000
00000000
00100000
00000000
00001000
00000000
00010000
00001000
00010000
00000000
,
00000010
00001000
00000010
00001000
00000001
00000000
00000000
00000000
00000010
00000000
00000100
00000000
00010000
00000000
00001000
00000000
,
00200000
00000000
02300000
00000000
13000000
00010000
01000000
00100000
,
00010000
00001000
00100000
00010000
02000000
00000000
03002000
00000000
,
00023000
00030020
00002030
00000000
,
00000100
00000100
00003100
00000000
00001000
00000001
00000010
00001000
,
00010000
00000000
00011000
00000000
00001000
00100000
01000000
00100000
,
00001000
00010000
00100000
10000000
02000000
03020000
00032000
02003000
,
03200000
00000000
00320000
00000000
00032000
00000000
00003000
00000000
00011000
00000000
00000000
00010000
00000010
00000000
00001000
00000000
,
00000100
00000010
00000100
00000010
00000001
00000000
00000000
00000000
00000100
00000000
00001000
00000000
00010000
00001000
00010000
00000000
,
01000000
00000000
00010000
00000000
00001000
00010000
00001000
00000000
00000100
00000000
00001000
00000000
00010000
00001000
00010000
00000000
,
01000000
00000000
00100000
00000000
01100000
00000000
00000000
00000000
00100000
00000000
01000000
00000000
00010000
01000000
00010000
00000000
,
00001000
00000000
00010000
00000000
00001000
00000010
00001000
00000000
00000020
00000000
00000032
00000000
00000203
00000000
00002300
00000000
,
00023000
00000000
02030000
00000000
23000000
00000000
30200000
00000000
10300000
00000000
01000000
00000000
00010000
00000000
00001000
00100000
,
00001000
00010000
00200000
00000000
01300000
00001000
00010000
00000010
,
00010000
00000000
00001000
00000000
00000010
00000000
00000100
00000000
00001000
00000000
00000100
00001000
00000100
00000000
00000010
00000100
,
00000010
00000000
00000001
00000010
00000001
00000000
00000100
00000000
00001000
00000000
00010000
00000000
00001000
00000000
00100000
00000000
,
01000000
00000000
01100000
00000000
10010000
00000000
00000000
00000000
10000000
00000000
01000000
00000000
00100000
01000000
00100000
01000000
,
00100000
00001000
00021000
00000000
00030010
00000100
00001000
00010000
,
00000100
00000010
00000001
00001000
00000010
00000100
00001000
00000000
,
00011000
00000000
00000000
00000000
00010000
00000000
01000000
00000000
00100000
00000000
00010000
00000000
10000000
00010000
10000000
00000000
,
00100000
01000000
10010000
00000000
10000000
01000000
00010000
00001000
,
00000000
00001010
00000011
00000000
00000001
00000100
00001000
00010000
,
00000000
00000000
00110000
00000000
10100000
00000000
00000000
00000000
10000000
00000000
01000000
00000000
10000000
01000000
00100000
00000000
,
01000000
00100000
00010000
00100000
00001000
00000000
00010000
00000000
00000010
00001000
00000001
00000100
00000010
00000000
00001000
00000000
,
00001100
00000000
00010100
00000000
00011000
00000000
00101000
00000000
00100000
00000000
00010000
10000000
00010000
00000000
01000000
00000000
,
00100000
00000000
10000000
00000000
11000000
00000000
00000000
00000000
01000000
00000000
00010000
00000000
00001000
00010000
00001000
00000000
,
00000010
00000000
00000100
00000000
00000110
00000000
00000000
00000000
00000010
00000001
00000010
00000000
00000001
00000100
00000010
00000100
,
00000001
00001000
00000010
00001000
00000001
00000000
00000010
00000000
00001000
00010000
00000000
00010000
00001000
00100000
00010000
00100000
,
01000000
00100000
10010000
00000000
20000000
00000000
31000000
00010000
,
00001000
00000000
00000110
00000000
00000002
00000000
00000103
00001000
,
00010000
00000000
01100000
00000000
20000000
00000000
30100000
00010000
,
00001000
00000000
00010000
00000100
00000020
00000000
00000000
00000000
00000031
00000000
00000100
00000000
00001000
00000000
00010000
00001000
,
00010000
00100000
01100000
01000000
10020000
00000000
10000000
00000000
,
00230000
02300000
03020000
00030200
00002300
00003020
00000032
00000013
,
00000110
00000000
00000100
00000001
00000021
00000000
00001030
00000010
,
00000100
00000000
00010000
00000000
00001000
00000000
00100000
00000000
00010000
10000000
01000000
10000000
00200000
00000000
00300000
00000000
,
01000000
00001000
00010000
00001000
00200000
00000000
00300000
00000000
00001000
00010000
00000100
00001000
00000020
00000000
00000030
00000000
,
00010000
00001000
01000000
00010000
00200000
00000000
00300000
00000000
01000000
10000000
01000000
10000000
01000000
00100000
01000000
00100000
,
00010000
00100000
00001000
00010000
00001000
01000000
00010000
01000000
00000000
00000000
00100000
00000000
10000000
00000000
01000000
00000000
,
00010000
00000000
00001000
00000000
00000100
00000000
00000001
00000000
00000010
00000100
00000000
00010000
00000000
00000010
00000200
00000000
,
00000300
00000000
00001000
00000000
00010000
00000000
00100000
00000000
01000000
00010000
00000000
10000000
00010000
00000000
00100000
00000000
,
01000000
00000000
00010000
00000000
00001000
00000000
00000010
00000000
00000100
00001000
00000100
00001000
00000001
00000000
00000100
00000000
,
00000010
00001000
00000010
00010000
00001000
00000000
00100000
00000000
01000000
10000000
01000000
00100000
00010000
00000000
00100000
00001000
,
00010000
00000000
00100000
00000000
10000000
00000000
00010000
00000000
00100000
01000000
00010000
00001000
00200000
00000000
00000000
00000000
,
00300000
00000000
01000000
00000000
00010000
00000000
00001000
00000000
00010000
00000100
00001000
00000100
00010000
00001000
00010000
00000020
,
00000000
00000000
00001000
00000000
00001030
00000000
00000000
00000000
00000010
00000100
00000000
00000001
00000100
00000000
00001000
00000000
,
00010000
00001000
01000000
00010000
01000000
00000000
00100000
00000000
10000000
00010000
00000000
10000000
01000000
00100000
01000000
00000000
,
00100000
00000000
00001000
00000000
00010000
00000000
00000100
00001000
00000001
00000000
00000100
00000000
00001000
00000000
00000100
00000000
,
00000001
00000000
00000100
00000000
00001000
00000000
00010000
00000000
00001000
01000000
00001000
00000000
01000000
00010000
01000000
00100000
,
10000000
00000000
01000000
00000000
10010000
00000000
00000000
00000000
10000000
01000000
00100000
00000000
01000000
00100000
00010000
00000000
,
00100000
00001000
00010000
00000000
00000010
00000000
00001000
00000000
00000001
00000010
00000100
00000000
00000010
00000100
00010000
00000000
,
00011000
00000000
00001000
00000000
00101000
00000000
00000000
00000000
00100000
00000000
01000000
00100000
01000000
00000000
10000000
01000000
,
10000000
00000000
00100000
10000000
00100000
00000000
01000000
00100000
01000000
00000000
00001000
01000000
00001000
00000000
00010000
00001000
,
00010000
00000000
00000100
00000000
00001000
00000100
00000010
00000001
00001000
00000000
00000010
00000000
00010000
00000000
00011000
00000000
,
00000000
00000000
00001000
00010000
00001000
00000000
00100000
00000000
01000000
00000000
00010000
00000000
00001000
00000000
00101000
00000000
,
00000000
00000000
00100000
01000000
10000000
00000000
00010000
00000000
01000000
00001000
00000000
00010000
00001000
00000000
00100000
00001000
,
00000000
00000000
00010000
00000000
00000010
00000000
00001000
00000000
00000100
00010000
00000000
00001000
00010000
00000000
00000010
00010000
,
00000000
00001000
01000000
00000000
00010000
00000000
10000000
00000000
01000000
00000000
00100000
00001000
00010000
00000000
00000100
00000000
,
00001000
00000001
00000100
00000001
00001000
00000000
00000010
00000000
00010000
00000000
00001000
00100000
00010000
00000000
10000000
00000000
,
01000000
00100000
00000000
00010000
00100000
00000000
01000000
00000000
00010000
00001000
00000000
00100000
00010000
00000000
00001000
00000100
,
00000000
00000000
00001000
00000000
00000010
00000000
00000100
00000000
00001000
00010000
00000000
00000010
00001000
00000000
00010000
01000000
,
00000000
00010000
10000000
00000000
01000000
00000000
00010000
00000000
00001000
00000000
00010000
00000100
00001000
00000000
00000010
00000000
,
00000100
00000001
00001000
00000001
00000100
00000000
00001000
00000000
00010000
00001000
00100000
00000000
00001000
00010000
00000010
00000000
,
00001000
00000100
00000000
00000110
00000000
00000011
00000000
00000001
00000200
00000000
00000000
00000000
00000000
00000000
00000000
00000000
,
00000000
00000000
00000000
00000000
,
00000000
00000000
00000300
00000000
;
