#VERSION:0.83;
#TITLE:恋する☆宇宙戦争っ!! (Y&Co. Remix);
#SUBTITLE:;
#ARTIST:Prim;
#TITLETRANSLIT:Koisuru uchuu sensou!! (Y&Co. Remix);
#SUBTITLETRANSLIT:;
#ARTISTTRANSLIT:;
#GENRE:Hi-EUROBEAT;
#CREDIT:;
#MUSIC:Koisuru uchuu sensou!! (Y&Co. Remix).ogg;
#BANNER:Koisuru uchuu sensou!! (Y&Co. Remix).png;
#BACKGROUND:Koisuru uchuu sensou!! (Y&Co. Remix)-bg.png;
#CDTITLE:;
#SAMPLESTART:70.578;
#SAMPLELENGTH:15.000;
#SELECTABLE:YES;
#OFFSET:1.400;
#BPMS:0.000=170.000
,235.000=166.000
,236.000=170.000
;
#STOPS:;
#TIMESIGNATURES:0.000=4=4;
#DISPLAYBPM:170.000;
#BGCHANGES:0.000=../BGAs/19po.mp4=1.000=0=0=0=StretchNoLoop====,
99999.000=-nosongbg-=1.000=0=0=0=StretchNoLoop====
;
#FGCHANGES:;

//--------------- dance-single - Pandemonium X ----------------
#NOTEDATA:;
#STEPSTYPE:dance-single;
#DESCRIPTION:Pandemonium X;
#CREDIT:Pandemonium X;
#DIFFICULTY:Beginner;
#METER:5;
#RADARVALUES:0.156353,0.375658,0.115207,0,0,133,119,14,0,0,0,0.156353,0.375658,0.115207,0,0,133,119,14,0,0,0;
#NOTES:
0000
0000
0000
0000
,
0000
0000
0000
0000
,
0000
0000
0000
0000
,
0000
0000
0000
0000
,
0000
0000
0000
0000
,
1001
0000
0000
0000
,
1000
0000
0000
0000
,
0001
0000
0000
0000
,
0110
0000
0000
0000
,
1001
0000
0110
0000
,
1001
0110
1001
0000
,
0001
0000
0000
0000
,
1000
0000
0000
0000
,
0010
0000
1000
0000
,
0100
0000
0000
0000
,
0010
0000
0000
0000
,
0001
0000
0000
0000
,
0100
0000
0000
0000
,
0010
0000
0000
0000
,
1000
0000
0000
0000
,
0100
0000
0000
0000
,
0010
0000
0001
0000
,
0100
0000
0010
0000
,
1000
0000
0000
0000
,
0001
0000
0000
0000
,
1000
0000
0000
0001
0000
0000
1000
0000
,
0000
0001
0000
0000
1000
0000
1000
0000
,
0010
0000
0000
0000
,
0100
0000
0000
0000
,
0001
0000
0000
0000
,
0010
0000
0000
0000
,
0100
0000
0000
0000
,
1000
1000
1000
0000
,
0001
0000
1000
0000
,
0010
0010
0010
0010
,
0100
0000
0000
0000
,
0010
0000
0000
0000
,
1000
0000
0000
0000
,
0100
0000
0000
0010
,
0001
0000
0000
0000
,
0100
0000
0000
0000
,
0010
0000
0000
0000
,
0100
0100
0100
0000
,
1001
0000
0001
0000
,
1000
0000
0000
0000
,
0100
0000
0010
0000
,
0100
0000
0000
0000
,
0010
0000
0000
0000
,
0001
0000
0000
0000
,
0100
0000
0010
0000
,
1000
1000
1000
1000
,
1001
0000
0000
0000
,
0001
0000
0000
0000
,
0010
0000
0001
0000
,
0100
0100
0000
0000
,
0010
0000
0000
0000
,
1000
0000
0000
0000
,
0100
0000
1000
0000
,
0001
0000
0000
0000
,
0100
0000
0000
0000
,
0010
0000
0000
0000
,
1000
0000
0001
0000
,
1000
0000
0010
0010
,
0100
0000
0000
0000
,
0010
0000
0000
0000
,
1000
0000
0001
0000
,
0110
0000
0000
0000
,
1001
0000
0000
0000
,
0001
0000
0000
0000
,
1000
0000
0000
0000
,
0010
0000
0000
0000
,
1000
0000
0000
0000
,
0100
0000
0000
0000
,
0010
0000
0001
0000
,
1000
0000
0001
0000
,
0100
0000
0000
0000
,
0010
0000
0000
0000
,
1000
0000
0001
0000
,
1000
0000
0010
0000
,
1000
0000
0000
0000
,
0100
0000
0000
0000
,
0010
0000
0000
0010
0000
0000
0010
0000
,
0000
0010
0000
0000
0110
0000
1001
0000
,
0110
0000
0000
0000
;

//--------------- dance-single - Pandemonium X ----------------
#NOTEDATA:;
#STEPSTYPE:dance-single;
#DESCRIPTION:Pandemonium X;
#CREDIT:Pandemonium X;
#DIFFICULTY:Easy;
#METER:8;
#RADARVALUES:0.404401,0.524605,0.427913,0.098749,0,344,292,52,12,0,0,0.404401,0.524605,0.427913,0.098749,0,344,292,52,12,0,0;
#NOTES:
0000
0000
0000
0000
,
0000
0000
0000
0000
,
0000
0000
0000
0000
,
0000
0000
0000
0000
,
0000
0000
0000
0000
,
0000
0001
0000
0001
0000
1000
0000
1000
,
0000
0010
0000
0010
0000
0100
0000
0100
,
0000
0010
0000
1000
0000
0001
0000
0100
,
0020
0000
0000
0030
,
1001
0000
0010
0000
1001
0000
0100
0100
,
0100
0000
1001
0000
0010
0010
0010
0000
,
1001
0011
0000
0101
,
0000
0110
0000
1010
,
0000
1100
0000
0110
,
0001
0000
0000
0001
0000
0000
0001
0000
,
1000
0010
1000
0001
,
0010
0001
1000
0010
,
0100
0000
0000
0002
0000
0000
0003
0000
,
1000
1000
0000
2002
0000
0000
3003
0000
,
1000
1100
0000
0011
,
0000
0101
0000
0110
,
0000
1010
0000
0110
,
0000
0000
1001
0000
0000
1000
0001
0000
,
1000
0100
1000
0010
,
0100
0001
0010
0100
,
1000
0001
0000
1000
0001
0000
1000
0001
,
0000
1000
0001
0000
1001
0000
0110
0000
,
0001
0100
0010
1000
,
0100
0010
0100
1000
,
0001
0100
0010
0100
,
0001
1000
0100
0010
,
0100
1000
0010
0100
,
0001
0000
1000
0200
0000
0000
0000
0000
,
0310
0000
0001
0000
0100
0010
0100
0000
,
0010
0000
1000
0000
0100
0010
0100
0000
,
0010
0001
0100
0010
,
1000
0000
0001
0000
0010
0000
0100
1000
,
0010
0100
0001
0010
,
0100
0000
0010
0000
0001
0100
0020
0000
,
1030
0010
0100
0001
,
1000
0000
0001
0100
0000
0000
0000
0000
,
0001
0000
0100
0000
0010
1000
0001
0000
,
0011
1100
0011
1100
,
1001
0001
0100
0010
,
1000
0100
0001
0100
,
1000
0010
0001
0010
,
1000
0001
0100
1001
,
0001
0000
0001
0000
1000
0001
1000
0000
,
0001
0000
0001
0000
1000
0010
1000
0000
,
0001
0100
0010
1000
,
1001
0110
1001
0110
,
1001
0001
1000
0010
,
1000
0100
0010
0100
,
1000
0010
0100
0001
,
1000
0001
1000
0001
0000
0000
0000
0000
,
1000
0010
1000
0001
,
0010
0100
0010
0001
,
0100
0100
0001
0001
,
1000
0100
0010
0001
,
1000
0100
1000
0010
,
0100
0001
0010
0100
,
0010
0001
0100
0010
,
1000
0000
0010
0000
1000
0001
1000
0001
,
0010
0100
0010
0001
,
0100
0010
2000
0000
,
3001
0000
1000
0000
,
0010
0100
0000
0110
0000
1001
0000
0110
,
0010
1001
0000
1100
,
0000
0011
0000
0101
,
0000
0110
0000
1010
,
1000
0000
0000
1000
0000
0000
1000
0000
,
0001
0100
0000
0001
0000
0010
0000
0100
,
0000
1000
0100
0000
1000
0000
0001
0000
,
0100
0000
0000
0020
0000
0000
0000
0000
,
1030
0001
0000
0220
0000
0000
0330
0000
,
1000
1100
0000
0011
,
0000
0101
0000
0110
,
0000
1010
0000
0101
,
0000
1001
0000
0110
,
0001
0100
0000
0001
0000
0010
0000
0100
,
0000
1000
0100
0000
1000
0000
0001
0000
,
1000
0001
0000
0001
1000
0000
1000
0001
,
0000
0001
1000
0000
1001
0000
0110
0000
,
2002
0000
0000
0000
,
0000
0000
0000
0000
,
3003
0000
0000
0000
;

//--------------- dance-single - Pandemonium X ----------------
#NOTEDATA:;
#STEPSTYPE:dance-single;
#DESCRIPTION:Pandemonium X;
#CREDIT:Pandemonium X;
#DIFFICULTY:Medium;
#METER:12;
#RADARVALUES:0.571335,0.734447,0.608953,0.197498,0.012344,486,412,74,24,0,0,0.571335,0.734447,0.608953,0.197498,0.012344,486,412,74,24,0,0;
#NOTES:
0000
0000
0000
0000
,
0000
0000
0000
0000
,
0000
0000
0000
0000
,
0000
0000
0000
0000
,
0000
0000
0000
0000
,
0001
1000
0000
1000
0000
0001
0000
0001
,
0000
1000
0000
0001
0000
1000
0000
0001
,
0000
0100
0000
0100
0000
0010
0000
0010
,
1000
0010
0100
0001
0010
0100
1000
0001
,
1001
0000
0110
0000
1001
0000
0110
0110
,
1001
0000
0000
0000
0110
0000
0000
0000
1000
0001
1000
0001
1000
0000
0000
0001
,
1000
0010
0100
0000
0010
1000
0001
0000
,
0010
0100
1000
0000
0100
0010
0001
0000
,
0010
0001
0100
0000
0010
1000
0001
0010
,
0200
0000
1300
0020
0000
0130
0002
0000
,
1003
0010
0000
2001
0000
3010
0000
0201
,
0000
0010
0310
0000
0110
0000
1001
0000
,
0001
0100
0010
1000
0001
0100
0010
1000
,
0001
0010
0000
2200
0000
0000
3300
0000
,
1000
0000
1100
0000
1000
0010
0110
0000
,
0100
0000
0101
0000
0001
0010
0110
0000
,
0010
0000
0011
0000
0001
0100
0110
0000
,
1000
0001
0010
0001
2000
0000
0100
0000
,
3010
1000
0000
0201
0000
0320
0000
2030
,
0000
0001
3001
0000
1001
0000
0110
0000
,
0001
0100
0000
0100
0010
0000
0010
1000
,
0000
1000
0001
0000
1001
0000
0110
0000
,
1000
0010
0100
0001
,
0010
0001
0100
0010
1000
0000
0001
0000
,
1000
0100
0010
0100
,
1000
0100
0010
0100
1000
0000
0001
0000
,
0100
0000
0010
0000
1000
0001
0010
0000
,
0100
0000
1000
0020
0100
0000
0030
0000
,
0100
0000
0001
0000
0010
0100
1000
0000
,
1100
0101
1100
0101
,
0001
1000
0010
0000
1000
0001
0010
0000
,
0100
0010
0001
0100
0000
0010
1000
0001
,
0000
0010
0100
0000
0010
0001
0100
0000
,
0010
1000
0001
0010
0100
0000
2000
0000
,
0000
3001
1000
0100
0010
0000
0100
0000
,
1000
1000
0001
1000
0020
0000
0000
0000
,
0130
0001
0010
0100
,
1100
0101
1100
0101
,
1001
0000
0001
0000
0100
0010
1000
0000
,
0010
0000
0100
0000
0001
0010
0100
0000
,
0010
0000
0001
0000
0100
0010
1000
0000
,
0001
0000
1000
0100
0010
0000
1100
0000
,
0100
0000
1000
0000
0010
0100
0001
0000
,
0010
0000
0100
0010
0001
0000
1000
0000
,
0001
0100
0001
0100
0010
1000
0010
1000
,
0001
0001
1000
1000
0010
0010
0100
0100
,
0001
0000
0100
0010
0000
0010
1000
0001
,
0000
0001
0010
0100
0000
0100
0010
0001
,
0000
1000
0000
0010
0000
0100
0000
0001
,
1001
1000
0001
0011
0000
0001
0010
0001
,
0100
0000
0010
1000
0000
0001
0010
0100
,
0000
0100
0010
0002
0000
0000
0003
0000
,
1000
0001
0100
0010
,
1000
0010
0100
0001
1000
0000
1001
0000
,
0101
0000
1000
0010
0000
0010
1000
0100
,
0000
0100
0010
0001
0000
0001
0010
0100
,
0000
0010
0000
0001
0000
1000
0000
0110
,
0010
0001
1000
1001
1000
1000
1000
1000
,
0001
0000
1000
0100
0000
0010
0100
1000
,
0000
1000
0100
0020
0000
0000
0000
0000
,
0130
0000
1000
0000
0010
0100
0001
0000
,
0010
0110
0000
1100
0000
1010
0000
1001
,
1000
0000
1100
0000
1000
0100
0110
0000
,
0100
0000
0011
0000
0010
0001
0101
0000
,
0001
0000
0110
0000
0100
0010
1010
0000
,
2000
0000
3001
0020
0000
0031
0200
0000
,
0310
1000
0000
1010
0000
0101
0000
0011
,
0000
0010
0100
0000
0110
0000
1001
0000
,
0001
0100
0010
1000
0001
0100
0010
1000
,
0001
1000
0000
0220
0000
0000
0330
0000
,
1000
0000
1100
0000
0100
0010
0110
0000
,
0010
0001
0011
0000
0001
0100
0101
0000
,
0100
0010
0110
0000
0010
1000
1010
0000
,
0001
0100
0010
1000
0200
0000
0010
0000
,
1300
0100
0000
0011
0000
0110
0000
0011
,
0000
0001
0101
0000
0110
0000
1001
0000
,
0001
0101
0000
1000
1100
0000
0001
0101
,
0000
1000
1100
0000
0011
0000
1100
0000
,
2002
0000
0000
0000
,
0000
0000
0000
0000
,
3003
0000
0000
0000
;

//--------------- dance-single - The SuPrimacy (Pandy VS forced) ----------------
#NOTEDATA:;
#STEPSTYPE:dance-single;
#DESCRIPTION:The SuPrimacy (Pandy VS forced);
#CREDIT:The SuPrimacy (Pandy VS forced);
#DIFFICULTY:Hard;
#METER:16;
#RADARVALUES:0.813505,1.014236,0.534891,0.304477,0.522548,692,627,65,37,0,0,0.813505,1.014236,0.534891,0.304477,0.522548,692,627,65,37,0,0;
#NOTES:
0000
0000
0000
0000
,
0000
0000
0000
0000
,
0000
0000
0000
0000
,
0000
0000
0000
0000
,
0000
0000
0000
0000
,
1001
1000
0000
1000
0000
0001
0000
0001
,
0000
0100
0000
0100
0000
0010
0000
0010
,
0000
1000
0000
0010
0000
0100
0000
0001
,
0010
0100
1000
0100
0010
0001
1000
0001
1000
0010
0100
0001
1000
0100
0010
0001
,
1000
0100
1000
0000
0001
0100
0001
0000
1000
0100
1000
0000
0002
0000
2003
0000
,
3001
0010
0001
0000
1000
0010
1000
0000
0001
1000
0001
1000
0002
0000
1003
0010
,
0100
0001
0101
0001
1000
0100
0110
0010
,
0100
1000
1100
1000
0010
0100
0110
0010
,
1000
0010
1010
1000
0001
0010
0110
0010
,
0002
0000
0000
0000
0103
0000
0000
0010
1000
0000
0001
0000
1001
0000
0000
0000
,
0001
0100
0000
1010
0000
0011
0000
0110
,
0000
0100
1000
0000
0011
0000
1100
0000
,
1001
1000
0010
0110
0010
1000
0001
0010
,
0100
0110
0000
2002
0000
0000
3003
0000
,
1000
0001
0011
0010
0100
1000
1100
0100
,
1000
0010
1010
0010
0100
0001
0101
0001
,
0010
0100
0110
0010
0001
1000
1010
1000
,
0010
0000
0100
0000
0101
0000
0001
0100
0010
0000
1000
0001
0010
0000
0100
0000
,
1000
0100
2000
0000
0000
0000
3020
0000
0000
0000
0230
0000
0000
0000
2300
0000
,
0000
0000
3100
0010
2000
0000
0000
0000
3001
0000
0000
0000
1001
0000
0000
0000
,
0001
1010
0000
1000
0011
0000
0001
1100
,
0000
1000
0101
0000
1001
0000
0110
0000
,
1001
1000
0010
1000
0001
0000
0010
0001
,
0100
0010
1000
0100
0000
0001
0100
1000
,
0000
0100
1000
0010
0100
0001
0010
0100
,
1000
0100
1000
0010
0000
0001
0010
1000
,
0000
0001
0100
0010
1000
0100
0010
0000
,
2100
0000
0001
0002
0000
0000
3000
1003
,
0001
0000
0000
0001
0010
0000
0000
0010
0100
0000
0010
0000
0001
0000
0000
1000
,
0010
0000
0000
0010
0100
0000
0000
0100
0002
0000
0000
0000
0010
0000
0013
0000
,
0100
1000
0100
0010
0100
1000
0010
0100
,
0001
0010
0100
1000
0000
0100
0100
0100
,
0000
1000
0100
0010
0100
1000
0010
0100
,
0001
0010
0100
1000
0000
0100
0020
0001
,
0000
0130
1000
0001
0100
0001
0010
0000
,
0100
0100
1000
0010
0200
0000
0000
0000
,
0301
0000
0000
1000
0010
0000
0000
0010
0100
0000
0000
0100
0001
0000
0000
0001
,
1000
0100
1000
0100
0010
0001
0010
0001
1000
0001
0100
0010
1000
0001
0010
0100
,
1000
0000
0000
1000
0100
0000
0000
0010
0001
0000
0100
0000
0001
0000
0000
1000
,
0010
0000
0000
0010
0100
0000
0000
0100
0001
0000
1000
0000
0020
0000
0000
0000
,
1030
0000
0000
0001
0100
0000
0000
0010
1000
0000
0100
0000
1000
0000
0001
0000
,
0100
0010
1000
0100
0010
0001
0011
0000
,
0101
0000
0000
0001
0010
0000
0000
0100
1000
0000
0010
0000
0100
0000
0010
0000
,
0000
0100
0001
2000
0000
0000
3000
0000
,
1001
1000
0010
0010
0100
0001
0100
0010
,
1000
0100
1000
0100
0010
0100
0010
0001
0010
0001
1000
0001
1000
0010
0100
0001
,
1000
0000
0100
0010
0001
0000
1000
0000
0100
0000
0001
0000
0100
0000
1000
0000
,
0001
0000
0100
0010
1000
0000
0001
0000
0100
0000
1000
0000
0100
0000
0001
1000
,
0010
0000
1000
0100
0010
0000
0001
0010
0000
0001
0100
0000
0010
0000
1000
0001
,
0020
0230
2300
3002
0103
0100
0010
0010
,
1000
0000
0001
0010
0100
0000
1000
0000
0010
0100
0010
0000
1000
0000
0001
0000
,
0010
0000
0001
0100
0010
0000
2000
0000
0001
0000
0001
0000
3100
0000
0000
1000
,
0010
0000
0100
0000
1000
0000
0100
0000
0001
0010
0100
0000
1000
0000
0001
1000
,
0010
0000
0100
0000
0001
0010
0100
0000
1000
0000
0001
0100
0001
0100
0010
0000
,
1000
0000
0100
0010
0001
0000
0100
0000
0020
0000
1000
0000
0130
0000
0010
0000
,
1000
0000
0001
1000
0010
0000
0100
0000
0002
0000
0010
0000
1003
0000
0001
0010
,
0100
0000
1000
0001
0100
0000
0010
1000
0000
0001
0010
0000
0100
0000
1000
0001
,
0200
0000
0000
2300
0000
0000
3200
0000
0000
0302
0000
0000
0023
0000
0000
0100
0030
0000
0020
0000
0000
0100
0030
0000
,
1000
0000
0001
1000
0010
0000
0100
0000
0001
0010
0100
0000
1000
0000
0010
0000
,
0001
0000
0010
0100
0001
0000
2000
0000
0100
0000
0100
0000
3001
0000
0000
1000
,
0100
0000
0010
0001
1000
0000
0010
0000
0100
0001
1000
0001
0010
0000
0100
1000
,
0001
0100
0000
1010
0000
0011
0000
0110
,
0001
0000
1000
0100
0000
0000
0100
0010
0000
0000
0010
0001
0000
0000
0001
0100
,
0000
0000
0100
1000
0000
0000
1000
0100
0000
0000
0100
0001
0000
0000
0001
0010
,
0000
0000
0010
0100
0000
0000
0100
1000
0001
0100
0001
0100
0010
1000
0010
1000
,
0002
0000
0000
0000
0010
0000
0003
1000
0001
0000
1000
0100
0010
0001
0010
0001
,
1000
1001
0000
0101
0000
1100
0000
0110
,
0000
0010
1001
0000
0110
0000
1001
0000
,
1000
0100
0010
0001
1000
0000
0001
0100
0010
1000
0001
0000
0010
0000
0010
0000
,
0100
1000
0001
0000
0000
0000
0102
0000
0000
0000
0010
0000
1000
0000
0103
0000
,
1001
0000
0001
1000
0010
0000
0100
0000
0001
0000
1000
0100
0010
0000
0001
0000
,
1000
0000
0010
0100
0001
0000
0010
0000
1000
0000
0010
0100
1000
0000
0001
0000
,
0100
0001
0100
0001
1000
0100
1000
0100
0010
0001
1000
0001
0100
0010
1000
0000
,
0010
1000
0001
1000
0100
0010
0001
1000
0002
0000
0000
0010
0000
0000
1000
0000
,
0103
0001
0011
0010
0000
1000
1010
0010
,
0000
0100
1001
0000
0110
0000
1001
0000
,
1100
0011
0000
0101
1010
0000
1100
1010
,
0000
0101
0011
0000
1001
0000
0110
0000
,
2002
0000
0000
0000
,
0000
0000
0000
0000
,
3003
0000
0000
0000
;

//--------------- dance-double - forcednature ----------------
#NOTEDATA:;
#STEPSTYPE:dance-double;
#DESCRIPTION:forcednature;
#CREDIT:forcednature;
#DIFFICULTY:Easy;
#METER:8;
#RADARVALUES:0.36208,0.454658,0.131666,0.148124,0,308,292,16,18,0,0,0.36208,0.454658,0.131666,0.148124,0,308,292,16,18,0,0;
#NOTES:
00000000
00000000
00000000
00000000
,
00000000
00000000
00000000
00000000
,
00000000
00000000
00000000
00000000
,
00000000
00000000
00000000
00000000
,
00000000
00000000
00000000
00000000
,
00000000
00000000
00000000
00000000
,
00000000
00000000
00000000
00000000
,
00000000
00000000
00000000
00000000
,
00022000
00000000
00033000
00000000
00001000
00010000
00001000
00000000
,
00022000
00033000
00022000
00033000
,
00010100
00000000
00010100
00000000
00000100
00001000
00000100
00000000
,
00000010
00000001
00001000
00000001
,
00000100
00000010
00001000
00000010
,
00010000
00001000
00100000
00010000
,
00200000
00000000
01300000
10000000
,
00010000
00000000
00000000
01000000
00000000
00001000
00000000
00010000
,
00000000
00000010
00000000
00000000
00010000
00000000
00001000
00000000
,
00010000
00000100
00001000
00000010
,
00010000
00000000
00000000
00011000
00000000
00000000
00001000
00000000
,
00100000
00010000
01000000
00001000
,
00010000
00000100
00001000
00000010
,
00010000
00001000
00100000
00010000
,
10000000
00100000
02000000
00010000
,
03010000
00000000
00000000
10000000
00000000
01000000
00000000
00010000
,
00000000
00001000
00000000
00000000
00011000
00000000
00010100
00000000
,
00000100
00001000
00000000
00001000
00000100
00000000
00000010
00000001
,
00000000
00000001
00000010
00000000
00000100
00000000
00001001
00000000
,
00000001
00000100
00000010
00001000
,
00000100
00010000
00001000
00000000
,
01000000
00010000
00100000
01000000
,
10000000
00010000
01000000
00000000
,
00001000
00010000
00000010
00001000
,
00000110
00002002
00000000
00003003
,
00000001
00000100
00001000
00010000
,
00100000
01000000
00020000
20030000
,
31000000
00100000
00010000
00100000
,
00001000
00010000
00000010
00000000
,
00001000
00000100
00010000
00001000
,
01000000
00010000
00100000
00000000
,
01000000
10000000
00010000
01000000
,
00001000
00020000
00000000
00030000
,
00010000
00001000
00000010
00000100
,
00001000
00000001
00000000
00000100
00000000
00000100
00000000
00000010
,
00001000
00000001
00000010
00000100
,
00001000
00000010
00010000
00001000
,
00100000
00010000
01000000
00001000
,
00010000
00000100
00001000
00000010
,
00000110
00000100
00000001
00000010
,
00000100
00020000
00000000
00030000
,
00001000
01000000
00010000
10000000
,
00100000
01000000
00100000
00000000
01000000
00100000
01000000
00000000
,
00010000
00100000
00001000
00010000
,
00000100
00001000
00000001
00000100
,
00000010
00001000
00000100
00010000
,
00001000
00010000
00001000
00010000
00000000
00000000
00100000
00000000
,
01000000
00010000
10000000
01000000
,
00100000
00001000
00010000
00000000
,
00000010
00001000
00000001
00000010
,
00000100
00000100
00010000
00001000
,
00011000
00010000
00001000
01000000
,
00010000
10000000
00100000
10000000
,
00010000
00100000
01000000
10000000
,
00010000
01000000
00010000
01000000
00000000
00000000
00001000
00000000
,
00011000
00010000
00000100
00001000
,
00000001
00000100
00000010
00000000
,
00010000
00001000
00100000
00010000
,
01000000
00010000
00000000
00100000
00000000
00100000
00000000
01000000
,
10000000
00010000
01000000
00001000
,
00010000
00000100
00001000
00000001
,
00001000
00000010
00010000
00001000
,
00200000
00000000
00310000
00010000
,
10000000
00100000
01000000
00100000
,
00010000
00001000
00010000
00000100
,
00001000
00001000
00000001
00000001
,
00000100
00000010
00000000
00000100
00000000
00000100
00000000
00000001
,
00001000
00000100
00000010
00000100
,
00001000
00000010
00010000
00001000
,
00100000
00010000
01000000
00001000
,
00010000
00000100
00002000
00000000
,
00003001
00000000
00000000
00001000
00000000
00000010
00000000
00010000
,
00000000
00001000
00100000
00010000
,
01000000
00010000
00000000
00010000
01000000
00000000
00100000
10000000
,
00000000
10000000
00100000
00000000
01000000
00000000
01001000
00000000
,
00022000
00000000
00000000
00000000
,
00000000
00000000
00000000
00000000
,
00033000
00000000
00000000
00000000
;

//--------------- dance-double - forcednature ----------------
#NOTEDATA:;
#STEPSTYPE:dance-double;
#DESCRIPTION:forcednature;
#CREDIT:forcednature;
#DIFFICULTY:Medium;
#METER:12;
#RADARVALUES:0.596022,0.629526,0.485517,0.106978,0.020573,507,448,59,13,0,0,0.596022,0.629526,0.485517,0.106978,0.020573,507,448,59,13,0,0;
#NOTES:
00000000
00000000
00000000
00000000
,
00000000
00000000
00000000
00000000
,
00000000
00000000
00000000
00000000
,
00000000
00000000
00000000
00000000
,
00000000
00000000
00000000
00000000
,
00000000
00000000
00000000
00000000
,
00000000
00000000
00000000
00000000
,
00000000
00000000
00000000
00000000
,
00011000
00000000
00000000
00000000
00010000
00010000
00001000
00001000
,
01002000
00000000
00103000
00000000
00020100
00000000
00030010
00010000
,
00010100
00000000
00000000
00000000
01001000
00000000
00000000
00000000
01000000
00010000
01000000
00010000
10000000
00000000
00000000
00000000
,
01000000
00010000
00001000
00000000
00010000
00000100
00001000
00000000
,
00000010
00010000
00001000
00000000
00000010
00000100
00001000
00000000
,
00000001
00000100
00000010
00001000
00000100
00000010
00001000
00010000
,
00200000
00000000
00000000
00000000
10300000
00000000
00000000
00100000
00010000
00000000
00010000
00000000
00001000
00000000
00001000
00000000
,
00010000
00000100
00000000
00001010
00000000
00000011
00000000
00001001
,
00000000
00000001
00000100
00000000
00010010
00000000
00101000
00000000
,
01000000
00001000
00000000
00010000
01000000
00000000
10000000
00010000
,
10000000
10100000
00000000
01010000
00000000
01000000
00001000
00010000
,
00000100
00001000
00000010
00000000
00010000
00001000
00100000
00000000
,
00001000
00010000
00100000
00000000
01000000
00010000
00100000
00000000
,
01000000
00010000
00001000
00000100
00001000
00010000
00100000
10000000
,
00010000
00000000
10000000
00000000
01000000
00000000
00010000
00000000
00001000
00000000
00000000
00000010
00000000
00000000
00000010
00000000
,
00001000
00010000
00000000
00010100
00000000
00001100
00000000
00001001
,
00000000
00000001
00000100
00000000
00010010
00000000
00101000
00000000
,
10000000
01000000
00000000
01000000
00010000
00000000
00010000
00001000
,
00000000
00001000
00000100
00000000
00000101
00000000
00000011
00000000
,
00001001
00000000
00000001
00000100
00001000
00000000
00000100
00000000
,
00000010
00001000
00000010
00010000
00000000
00001000
00100000
00001000
,
00000000
00010000
00100000
01000000
00100000
10000000
00100000
01000000
,
00010000
01000000
00001000
00010000
00000000
00000100
00001000
00000100
,
00000000
00000010
00000001
00001000
00000001
00000100
00000010
00000000
,
00001100
00000000
00000100
00010000
00000000
00000000
00100000
00000000
,
00010000
00000000
00011000
00000000
00001000
01000000
00010000
00000000
,
00100000
01000000
00000000
10010000
00000000
10000000
00100000
00000000
,
00010000
00001000
00010000
00000100
00001000
00000100
00000010
00000001
,
00001000
00000001
00000100
00000010
00000000
00001000
00000001
00000010
,
00000000
00000100
00010000
00001000
01000000
00001000
00010000
00000010
,
00010000
00001000
00100000
00010000
00000000
00100000
00001000
00010000
,
00000000
01000000
01000000
00001000
00010000
00000100
00001000
00000000
,
00000010
00001000
00000001
00000020
00000000
00000100
00000000
00000031
,
00000010
00001100
00011000
01010000
,
10000000
10000000
00000000
00110000
00000000
01001000
00000000
00010000
,
00000100
00000000
00001020
00000000
00000031
00000010
00000100
00000000
,
00000011
00000000
00001100
00000000
00000010
00010000
00001000
00000000
,
00100000
00000000
00021000
00000000
00130000
00010000
00001000
00010000
,
00000100
00001000
00000010
00010000
00001000
00100000
00010000
00000000
,
01010000
00000000
10100000
00000000
10000000
01000000
00100000
00010000
,
00000000
01000000
00001000
00020000
00000000
00000000
00030010
00000000
,
00010000
00001000
00010000
00001000
00000100
00000001
00001000
00000001
,
00000010
00000010
00000100
00000100
00001000
00000001
00000100
00000000
,
00000110
00000000
00000010
00001000
00000000
00010000
01000000
00010000
,
00000000
00100000
01000000
10000000
00000000
00010000
01000000
00001000
,
00000000
00010100
00000000
00001100
00000000
00001001
00000000
00000001
,
00000100
00001000
00010000
00100000
00000000
01000000
00010000
10000000
,
00100000
00000000
10000000
01000000
00000000
00010000
00001000
00010000
,
00000000
00000010
00001000
00000200
00000000
00000001
00000301
00000000
,
00000100
00000010
00000001
00001000
00000001
00000100
00000010
00000000
,
00020000
00000000
00000100
00000000
00031000
00000000
00010000
00100000
,
01000000
00000000
00010000
10000000
00000000
01000000
00100000
00010000
,
00000000
01000000
00001000
00010000
00000000
00000010
00010000
00001000
,
00000000
00001010
00000000
00000011
00000000
00001001
00000000
00001000
,
00000100
00010000
00001000
00100000
01000000
10000000
01000000
10000000
,
00100000
00000000
01000000
00001000
00000000
00010000
00000100
00001000
,
00000000
00000010
00010000
00002000
00000000
00100000
00103000
00000000
,
00011000
00000000
00110000
00000000
00100000
10000000
00010000
00000000
,
10000000
01000000
00000000
01100000
00000000
00101000
00000000
00001000
,
00010000
00000010
00010000
00001000
00010000
00000100
00010000
00001000
,
00100000
00001000
00010000
00001000
01000000
00001000
00010000
00001000
,
00000010
00000100
00001000
00000001
00000100
00001000
00010000
00001000
,
00200000
00000000
00010000
00000000
01300000
00100000
00010000
00000000
,
10000000
00100000
00000000
01100000
00000000
01001000
00000000
00011000
,
00000000
00000100
00001000
00000000
00001010
00000000
00001001
00000000
,
00000001
00000100
00001000
00010000
00001000
00100000
00001000
00000000
,
01000000
00010000
00000000
10010000
00000000
10000000
01000000
00010000
,
00001000
00010000
00100000
00010000
00001000
00010000
00000100
00010000
,
00001000
00000010
00001000
00010000
00001000
01000000
00001000
00010000
,
00000100
00001000
00000010
00010000
00001000
00100000
00010000
01000000
,
00001000
00000000
00010000
00000000
01000000
00000000
10000000
00000000
00010000
00000000
00000000
00010000
00000000
00000000
00010000
00000000
,
10000000
00100000
00000000
01001000
00000000
00011000
00000000
00010100
,
00000000
00000100
00001000
00000000
00000110
00000000
00001001
00000000
,
00000001
00000100
00000000
00001000
00010000
00000000
01000000
10000000
,
00000000
00100000
00010000
00000000
00011000
00000000
00010100
00000000
,
00002002
00000000
00000000
00000000
,
00000000
00000000
00000000
00000000
,
00003003
00000000
00000000
00000000
;

//--------------- dance-double - forcednature ----------------
#NOTEDATA:;
#STEPSTYPE:dance-double;
#DESCRIPTION:forcednature;
#CREDIT:forcednature;
#DIFFICULTY:Hard;
#METER:16;
#RADARVALUES:0.79352,1.014236,0.353851,0.288018,0.571922,675,632,43,35,0,0,0.79352,1.014236,0.353851,0.288018,0.571922,675,632,43,35,0,0;
#NOTES:
00000000
00000000
00000000
00000000
,
00000000
00000000
00000000
00000000
,
00000000
00000000
00000000
00000000
,
00000000
00000000
00000000
00000000
,
00000000
00000000
00000000
00000000
,
00000000
00000000
00000000
00000000
,
00000000
00000000
00000000
00000000
,
00000000
00000000
00000000
00000000
,
00022000
00000000
00000000
00000000
00033000
00000000
00000000
00000000
00000100
00010000
00000100
00010000
00001000
01000000
00001000
01000000
,
00020000
00000000
00230000
00000000
00302000
00000000
00003020
00000032
,
00000203
00000000
00000000
00000000
00002300
00000000
00000000
00000000
01003000
00010000
01000000
00010000
10000000
00000000
01000000
00100000
,
00010000
00000000
00000000
00010000
01000000
00000000
00001000
00000000
00010000
00000000
00000000
00000100
00001000
00000000
00000010
00000000
,
00010000
00000000
00000000
00010000
00001000
00000000
00000010
00000000
00000100
00000000
00000000
00001000
00000001
00000000
00000010
00000000
,
00000100
00001000
00000100
00001000
00000100
00010000
00000100
00010000
00001000
01000000
00001000
01000000
00010000
01000000
00010000
01000000
,
00200000
00000000
00000000
00000000
10300000
00000000
00100000
00000000
01000000
00000000
00001000
00010000
00001000
00010000
00001000
00010000
,
00000100
00001100
00000000
00000011
00000000
00000101
00000000
00001100
,
00000000
00001000
00010000
00000000
01100000
00000000
10010000
00000000
,
10000000
01000000
00100000
00000000
00010000
00000000
01000000
00001000
00010000
00000000
00000100
00000000
00001000
00000000
00001000
00000001
,
00000100
00000000
00000110
00000000
00000000
00000000
00010010
00000000
00000000
00000000
00010000
00000000
00001000
00100000
00001000
00000000
,
00010000
00000000
00100000
10000000
00000000
00000000
10000000
01000000
00000000
00000000
01000000
00010000
00000000
00000000
00010000
00001000
,
00000000
00000000
00001000
00000010
00000000
00000000
00000010
00000001
00000000
00000000
00000001
00000100
00000000
00000000
00000100
00001000
,
00010000
00000000
00000100
00010000
00000100
00000000
00010000
00000000
00001000
01000000
00001000
01000000
00010000
10000000
01000000
00100000
,
00001000
01000000
00001000
01000000
00010000
10000000
01000000
00100000
00010000
00000000
01000000
00010000
00000000
01000000
00010000
00000000
,
00100000
01100000
00000000
11000000
00000000
00110000
00000000
00101000
,
00000000
00000000
00001000
00000000
00011000
00000000
00000000
00000000
00001010
00000000
00000000
00000000
00000101
00000000
00000000
00000001
,
00000010
00001000
00000000
00010000
00100000
00000000
01000000
00001000
,
00000000
00000100
00001000
00000000
00011000
00000000
00010100
00000000
,
00000100
00001000
00000010
00010000
00001000
00000010
00000100
00001000
,
00000001
00000100
00001000
00010000
00100000
01000000
00010000
00100000
,
01000000
00010000
00001000
00010000
00100000
10000000
00010000
00100000
,
01000000
00010000
00001000
00000100
00001000
00010000
00001000
00000010
,
00000100
00001000
00000001
00000100
00000010
00010000
00001000
00000000
,
00021000
00000000
10000000
20000000
00000000
00000000
30030000
00010000
,
00001000
01000000
00010000
00100000
01000000
00010000
00001000
00000000
,
00000100
00000000
00000100
00000000
00000001
00000000
00000010
00000000
00000100
00001000
00000100
00001000
00000100
00001000
00000001
00001000
,
00000010
00000100
00001000
00010000
01000000
00100000
00010000
10000000
,
00100000
01000000
10000000
01000000
00010000
00100000
01000000
00010000
,
00001000
00000010
00000100
00001000
00000001
00000100
00001000
00010000
,
00000100
00001000
00000010
00010000
00001000
00000010
00000001
00000100
,
00000010
00001000
00010000
01000000
00010000
00100000
01000000
00000000
,
00100000
00001000
00000010
00002000
00000000
02003000
00000000
03010000
,
10010000
00000000
11000000
00000000
00110000
00000000
00001000
00010000
,
00000010
00001000
00000010
00001000
00000001
00000010
00000100
00001000
00000100
00010000
00001000
00010000
00000010
00001000
00000010
00000100
,
00000001
00000000
00000011
00000000
00000010
00001000
00010000
00000000
,
01100000
00000000
10010000
00000000
10000000
01000000
00020000
00000000
,
00031000
00000000
00000010
00000100
00001000
00000001
00000100
00001000
,
00010000
00100000
01000000
00010000
10000000
01000000
00010000
00001000
,
00000010
00000100
00001000
00000000
00000001
00000000
00000100
00000000
00000010
00000000
00001000
00000000
00010000
00000000
00100000
00000000
,
01000000
00010000
00001000
00020000
00000000
00000000
00030010
00000000
,
00010000
00001000
00000010
00000100
00001000
00000001
00000100
00001000
,
00010000
00001000
00010000
00001000
01000000
00010000
01000000
00010000
00100000
00001000
00100000
00001000
00010000
00001000
00010000
00001000
,
00010000
00000000
00000100
00001000
00000001
00000000
00000100
00000000
00000010
00000000
00001000
00000000
00000010
00000000
00010000
00000000
,
00001000
00000000
00100000
00010000
10000000
00000000
00100000
00000000
01000000
00000000
00010000
00000000
01000000
00000000
00001000
00010000
,
00000100
00000000
00001000
00000001
00000010
00000000
00000001
00000100
00000000
00000010
00001000
00000000
00000100
00000000
00010000
00001000
,
02000000
03020000
20030000
32000000
03100000
00100000
00010000
00010000
,
00001000
00000000
00000100
00001000
00000001
00000000
00000100
00000000
00000010
00001000
00000001
00000000
00001000
00000000
00000100
00000000
,
00010000
00000000
00001000
01000000
00010000
00000000
00200000
00000000
01000000
00000000
01000000
00000000
10300000
00000000
00000000
00100000
,
00010000
00000000
10000000
00000000
00100000
00000000
01000000
00000000
00010000
00100000
00001000
00000000
00010000
00000000
00000010
00001000
,
00000001
00000000
00000010
00000000
00000100
00001000
00000001
00000000
00000100
00000000
00000010
00001000
00000010
00001000
00000100
00000000
,
00010000
00000000
00001000
01000000
00010000
00000000
00100000
00000000
02000000
00000000
00010000
00000000
13000000
00000000
01000000
00000000
,
00100000
00000000
00010000
10000000
00100000
00000000
01000000
00000000
00002000
00000000
00010000
00000000
01003000
00000000
00001000
00010000
,
00000010
00000000
00001000
00000001
00000010
00000000
00000100
00001000
00000000
00000010
00001000
00000000
00000100
00000000
00010000
00001000
,
02000000
00000000
00000000
03020000
00000000
00000000
00032000
00000000
00000000
00003020
00000000
00000000
00002030
00000000
00000000
00000100
00003000
00000000
00002000
00000000
00000000
00000100
00003000
00000000
,
00001001
00000000
00000000
00000001
00001000
00000000
00000100
00000000
00010000
00001000
01000000
00000000
00010000
00000000
00100000
00000000
,
01000000
00000000
10000000
00010000
01000000
00000000
00200000
00000000
00010000
00000000
00010000
00000000
01300000
00000000
00000000
00100000
,
10000000
00000000
00010000
10000000
01000000
00000000
00100000
00000000
00001000
00010000
00000010
00001000
00000010
00000000
00000100
00000001
,
00001000
00000100
00000000
00010100
00000000
01001000
00000000
10010000
,
10000000
00000000
01000000
00100000
00000000
00000000
00100000
00010000
00000000
00000000
00010000
01000000
00000000
00000000
01000000
00001000
,
00000000
00000000
00001000
00010000
00000000
00000000
00010000
00000100
00000000
00000000
00000100
00000010
00000000
00000000
00000010
00001000
,
00000000
00000000
00001000
00010000
00000000
00000000
00010000
00000010
00001000
00000100
00001000
00000100
00000010
00000001
00000010
00000001
,
00002000
00000000
00000000
00000000
00000010
00000000
00003000
00000100
00001000
00000000
00000010
00010000
00001000
00010000
00001000
00010000
,
00000100
00001100
00000000
00011000
00000000
01010000
00000000
00011000
,
00000000
00100000
10010000
00000000
01001000
00000000
00010100
00000000
,
00000100
00001000
00000001
00001000
00000010
00000000
00000100
00000001
00000100
00000010
00001000
00000000
00000100
00000000
00000100
00000000
,
00010000
00001000
01000000
00000000
00000000
00000000
10200000
00000000
00000000
00000000
00010000
00000000
01000000
00000000
10300000
00000000
,
01100000
00000000
01000000
00010000
10000000
00000000
01000000
00000000
00100000
00000000
00010000
01000000
00001000
00000000
00010000
00000000
,
00000100
00000000
00001000
00000001
00000010
00000000
00000100
00000000
00001000
00000000
00000010
00010000
00001000
00000000
00100000
00000000
,
00010000
01000000
00010000
01000000
00001000
00010000
00001000
00010000
00000100
00001000
00000001
00001000
00000010
00000100
00000001
00000000
,
00001000
00000100
00010000
00001000
00100000
00010000
10000000
00010000
02000000
00000000
00000000
00001000
00000000
00000000
00010000
00000000
,
13000000
01000000
00001000
00010000
00000000
00000100
00010000
00001000
,
00000000
00000010
00000001
00000000
00000101
00000000
00001010
00000000
,
00000001
00001000
00000000
00010000
10000000
00000000
10000000
00010000
,
00000000
00001000
00000001
00000000
00000110
00000000
00011000
00000000
,
02200000
00000000
00000000
00000000
,
00000000
00000000
00000000
00000000
,
03300000
00000000
00000000
00000000
;
