#VERSION:0.83;
#TITLE:恋するレインガール;
#SUBTITLE:;
#ARTIST:MasKaleido feat. ぁゅ;
#TITLETRANSLIT:Koisuru rain girl;
#SUBTITLETRANSLIT:;
#ARTISTTRANSLIT:;
#GENRE:;
#CREDIT:;
#MUSIC:Koisuru rain girl.ogg;
#BANNER:Koisuru rain girl.png;
#BACKGROUND:Koisuru rain girl-bg.png;
#CDTITLE:./CDTitles/SDVX VIVID WAVE.png;
#SAMPLESTART:58.258;
#SAMPLELENGTH:15.000;
#SELECTABLE:YES;
#OFFSET:0.000;
#BPMS:0.000=160.000;
#STOPS:;
#TIMESIGNATURES:0.000=4=4;
#BGCHANGES:0.000=../BGAs/17ho.mp4=1.000=0=0=0=StretchNoLoop====,
99999.000=-nosongbg-=1.000=0=0=0=StretchNoLoop====
;
#FGCHANGES:;

//--------------- dance-single - forcednature ----------------
#NOTEDATA:;
#STEPSTYPE:dance-single;
#DESCRIPTION:forcednature;
#DIFFICULTY:Beginner;
#METER:1;
#RADARVALUES:0,0,0,0,0;
#CREDIT:forcednature;
#NOTES:
0000
0000
0000
0000
,
0000
0000
0000
0000
,
0000
0000
0000
0000
,
0000
0000
0000
0000
,
0000
0000
0000
0000
,
1000
0000
0000
0000
,
0000
0000
0000
0000
,
0000
0000
0000
0000
,
0000
0000
0000
0000
,
0001
0000
0000
0000
,
0000
0000
0000
0000
,
0000
0000
0000
0000
,
0000
0000
0000
0000
,
0010
0000
0000
0000
,
0000
0000
0000
0000
,
0000
0000
0000
0000
,
0000
0000
0000
0000
,
0100
0000
0000
0000
,
0000
0000
0000
0000
,
0000
0000
0000
0000
,
0000
0000
0000
0000
,
1000
0000
0000
0000
,
0000
0000
0000
0000
,
0000
0000
0000
0000
,
0000
0000
0000
0000
,
0001
0000
0000
0000
,
0000
0000
0000
0000
,
0000
0000
0000
0000
,
0000
0000
0000
0000
,
0100
0000
0000
0000
,
0000
0000
0000
0000
,
0010
0000
0000
0000
,
0000
0000
0000
0000
,
1000
0000
0000
0000
,
0000
0000
0000
0000
,
0001
0000
0000
0000
,
0000
0000
0000
0000
,
0010
0000
0000
0000
,
0000
0000
0000
0000
,
0100
0000
0000
0000
,
0000
0000
0000
0000
,
0000
0000
0000
0000
,
0000
0000
0000
0000
,
1000
0000
0000
0000
,
0000
0000
0000
0000
,
0001
0000
0000
0000
,
0000
0000
0000
0000
,
1000
0000
0000
0000
,
0000
0000
0000
0000
,
0000
0000
0000
0000
,
0000
0000
0000
0000
,
0010
0000
0000
0000
,
0000
0000
0000
0000
,
0000
0000
0000
0000
,
0000
0000
0000
0000
,
0100
0000
0000
0000
,
0000
0000
0000
0000
,
0001
0000
0000
0000
,
0000
0000
0000
0000
,
0000
0000
0000
0000
,
0000
0000
0000
0000
,
0010
0000
0000
0000
,
0000
0000
0000
0000
,
0100
0000
0000
0000
,
0000
0000
0000
0000
,
1000
0000
0000
0000
,
0000
0000
0000
0000
,
0000
0000
0000
0000
,
0000
0000
0000
0000
,
0010
0000
0000
0000
,
0000
0000
0000
0000
,
0000
0000
0000
0000
,
0000
0000
0000
0000
,
0100
0000
0000
0000
,
0000
0000
0000
0000
,
0001
0000
0000
0000
,
0000
0000
0000
0000
,
1000
0000
0000
0000
,
0010
0000
0000
0000
;

//--------------- dance-single - forcednature ----------------
#NOTEDATA:;
#STEPSTYPE:dance-single;
#DESCRIPTION:forcednature;
#DIFFICULTY:Easy;
#METER:4;
#RADARVALUES:0,0,0,0,0;
#CREDIT:forcednature;
#NOTES:
0000
0000
0000
0000
,
0000
0000
0000
0000
,
0000
0000
0000
0000
,
0000
0000
0000
0000
,
0000
0000
0000
0000
,
1000
0000
0000
0000
,
0001
0000
0000
0000
,
0100
0000
0000
0000
,
0010
0000
0010
0000
,
1000
0000
0000
0000
,
0100
0000
0000
0000
,
1000
0000
0000
0000
,
0001
0000
0100
0000
,
0001
0000
0000
0000
,
0010
0000
0000
0000
,
0001
0000
0000
0000
,
1000
0000
0010
0000
,
1000
0000
0000
0000
,
0100
0000
0000
0000
,
0010
0000
0000
0000
,
0001
0000
0000
0000
,
1001
0000
0000
0000
,
1000
0000
0000
0000
,
0010
0000
0000
0000
,
0100
0000
0100
0000
,
0001
0000
0000
0000
,
1000
0000
0000
0000
,
0100
0000
0000
0000
,
1000
0000
1000
0000
,
0010
0000
0000
0000
,
0100
0000
0000
0000
,
1001
0000
0000
0000
,
1000
0000
0000
0000
,
1001
0000
0000
0000
,
0001
0000
0000
0000
,
0100
0000
0100
0000
,
0010
0000
0010
0000
,
1000
0000
0000
0000
,
0001
0000
0000
0000
,
0010
0000
0100
0000
,
0010
0000
0000
0000
,
0001
0000
0001
0000
,
1000
0000
0000
0000
,
0010
0000
0100
0000
,
0010
0000
0000
0000
,
1000
0000
1000
0000
,
0001
0000
0000
0000
,
0100
0000
0010
0000
,
0100
0000
0000
0000
,
0001
0000
0001
0000
,
1000
0000
0000
0000
,
0100
0000
0010
0000
,
0100
0000
0000
0000
,
1000
0000
1000
0000
,
0001
0000
0000
0000
,
1001
0000
0000
0000
,
0010
0000
0000
0000
,
0220
0000
0000
0000
,
0000
0000
0000
0000
,
0000
0000
0000
0330
,
0000
0000
0000
0000
,
1001
0000
0000
0000
,
1000
0000
0000
0000
,
0010
0000
0010
0000
,
0010
0000
0000
0000
,
0100
0000
0000
0000
,
0001
0000
0000
0000
,
1000
0000
1000
0000
,
1000
0000
0000
0000
,
0100
0000
0000
0000
,
0010
0000
0000
0000
,
0001
0000
1000
0000
,
0001
0000
0000
0000
,
0100
0000
0100
0000
,
0010
0000
0000
0000
,
1000
0000
1000
0000
,
0001
0000
0001
0000
,
0010
0000
0000
0000
,
1001
0000
0000
0000
;

//--------------- dance-single - forcednature ----------------
#NOTEDATA:;
#STEPSTYPE:dance-single;
#DESCRIPTION:forcednature;
#DIFFICULTY:Medium;
#METER:9;
#RADARVALUES:0,0,0,0,0;
#CREDIT:forcednature;
#NOTES:
0000
0000
0000
0000
,
0000
0000
0000
0000
,
0000
0000
0000
0000
,
0000
0000
0000
0000
,
0000
0000
0000
0000
,
0001
0100
0001
1000
,
1000
0001
1000
0001
,
0001
0100
0001
0100
0001
1000
0001
1000
,
0100
1000
0100
1000
0100
0000
0100
1000
,
0001
0000
0100
0000
0001
0010
0000
0100
,
1000
0000
0010
0000
1000
0001
0000
0100
,
0001
0000
1000
0000
0100
0010
0000
0110
,
0000
0100
0000
1001
0000
0001
0100
0010
,
1000
0000
0100
0000
0010
0001
0000
0100
,
0010
0000
1000
0000
0001
0100
0000
0001
,
1000
0000
0100
0000
0010
0001
0000
0101
,
0000
0010
0000
1100
0000
1000
0001
0000
,
0202
0000
0000
0303
,
0001
0001
1000
1000
,
0010
0100
0000
0100
,
0001
1000
0001
0000
0100
0000
0010
0000
,
1001
0000
1000
0000
0100
0000
1000
0001
,
0010
0000
0001
1000
0010
0000
1000
0001
,
0010
0000
0100
0000
1000
0001
0100
0000
,
0010
0000
0010
0000
1000
0001
1000
0000
,
1001
0110
0001
0110
,
1000
0000
0010
1000
0100
0000
0010
0001
,
0100
0010
1000
0101
,
0001
1000
0001
0000
0010
0100
0010
0000
,
2100
0010
0001
3010
,
0102
0010
1000
0013
,
1001
0000
0000
1001
0000
0000
0000
0000
,
0001
0100
0010
1000
,
1001
0000
0000
0110
0000
0000
0000
0000
,
1000
0100
0010
0001
,
1001
0001
1000
0001
,
1000
0001
1000
0001
1000
0001
1000
0001
,
0100
0000
0000
0010
0000
1001
0000
1000
,
0000
0001
0100
0001
0100
0000
0000
0010
,
1000
1001
0100
0110
,
0001
0010
0100
1000
,
0010
0000
0110
0000
0001
1000
0000
0002
,
0000
0203
0000
2300
0000
3020
0000
0031
,
0000
0000
1000
0000
0010
1000
0010
0000
,
0100
0000
0001
0000
0100
0001
0100
0000
,
0110
0000
0001
1000
0000
0110
0000
1001
,
0000
0100
0010
0100
0010
0000
0000
0000
,
1000
1100
0001
0101
,
1000
0010
0100
0001
,
1000
0000
1010
0000
1000
0001
0000
2000
,
0000
3200
0000
0302
0000
0023
0000
1030
,
0000
0000
0001
0000
0010
0001
0010
0000
,
0100
0000
1000
0000
0100
1000
0100
0000
,
0020
0100
1000
0100
,
0001
0000
0130
0000
0010
0001
0010
0000
,
0001
1000
0001
1000
0001
1000
0000
1001
,
0000
0100
0000
0100
,
1002
0000
1000
0000
,
0100
0000
1000
0000
,
2000
0000
0000
0000
3003
0000
0000
1001
,
0000
1001
0000
0110
0000
0110
0000
0000
,
0001
0000
1000
0000
0010
0100
0010
0000
,
0100
0000
0001
0000
0010
0001
0010
0000
,
0110
0000
1000
0100
0000
1001
0000
0110
,
0000
0001
0010
0000
0001
0000
1001
0000
,
1000
1010
0100
0110
,
0001
0010
0001
0000
1000
0100
1000
0000
,
0002
0000
0103
0000
0001
0000
0000
0011
,
0000
0011
0000
1100
0000
1100
0000
0000
,
1000
0000
0010
0100
0010
0000
1000
0000
,
0001
0000
0010
0100
0010
0000
0001
0000
,
0200
0010
0001
0010
,
1000
0000
0010
0300
0100
0010
0100
0000
,
0001
1000
0001
1000
0001
1000
0000
1001
,
0000
0010
0000
0010
,
2200
3300
0202
0303
,
0022
0033
2020
3030
,
2002
0000
0000
0000
0000
3003
0000
0000
,
1001
0000
0000
0000
;

//--------------- dance-single - forcednature ----------------
#NOTEDATA:;
#STEPSTYPE:dance-single;
#DESCRIPTION:forcednature;
#DIFFICULTY:Hard;
#METER:11;
#RADARVALUES:0,0,0,0,0;
#CREDIT:forcednature;
#NOTES:
0000
0000
0000
0000
,
0000
0000
0000
0000
,
0000
0000
0000
0000
,
0000
0000
0000
0000
,
0000
0000
0000
0000
,
0000
1000
0100
0010
0001
0100
0001
1000
,
0000
0010
1000
0001
1000
0100
0010
0001
,
0100
1000
0100
1000
0100
0001
0100
0001
,
0010
0100
1000
0001
0100
0010
0100
0002
,
0000
0003
1000
0000
0100
0010
0000
0200
,
0000
0300
1000
0000
0010
0100
0000
0002
,
0000
0003
1000
0000
0100
1000
0000
1010
,
0000
0100
0001
0101
0000
0001
0010
0200
,
0000
0300
1000
0000
0010
0100
0000
0002
,
0000
0003
1000
0000
0100
1000
0000
0020
,
0000
0030
0100
0000
0001
0010
0000
1001
,
0000
1000
0100
1100
0000
0001
0010
0001
,
0200
0010
0000
0310
,
0000
0100
0001
0100
0010
1000
0010
0100
,
0001
0000
0010
0200
0000
0000
1000
0000
,
1000
1000
1300
0000
0000
1000
0100
2000
,
0010
0000
0001
0000
3100
0000
2000
0002
,
0000
3003
0000
0000
0200
0000
0020
0000
0000
0330
0000
0000
2000
0000
0002
0000
,
0000
3003
0000
0000
1001
0000
0000
0000
0001
0000
0010
0000
0100
0000
1000
0000
,
0001
0000
0001
1000
0001
0100
0010
0010
,
0110
0000
0001
0000
0110
0000
1000
0001
,
1000
0000
0010
0100
0010
0000
1000
0100
,
0000
0010
0001
0000
0100
0000
0010
1000
,
0001
0100
0000
0110
0000
1000
0001
0001
,
0201
0010
1000
0010
,
0301
0100
0010
1000
0001
1000
1000
0000
,
1010
0000
0000
0101
0000
0000
0000
0000
,
0000
0001
0010
0100
1000
0100
0010
0000
,
0101
0000
0000
1010
0000
1000
0000
0001
,
0000
0100
0000
0010
0000
1000
1001
0000
,
1200
0001
1000
0001
,
1300
0100
0010
0001
0100
0010
1000
0001
,
0100
0001
0100
0010
0000
1010
0000
0101
,
0000
1000
0001
1000
0001
0000
0010
0100
,
0000
1000
0010
1000
0001
0000
1000
0100
,
0000
0010
0001
1000
0001
0000
0100
0010
,
0000
1000
0100
0010
0001
0100
0000
0101
,
0000
1100
0000
1010
0000
0011
0000
1001
,
0000
1000
0010
1000
0001
0100
0000
1001
,
0000
0001
0010
0001
1000
0100
0010
0000
,
0110
0000
1000
0100
0000
0110
0000
1001
,
0000
0001
0100
0001
1000
1000
0000
1001
,
0000
0001
0010
0100
1000
0000
0010
0100
,
0000
0001
1000
0100
0010
0000
0001
1000
,
0000
0010
1000
0001
1000
1000
0000
1100
,
0000
0011
0000
0101
0000
1010
0000
1001
,
0000
0001
0100
0010
1000
0001
0000
1001
,
0000
1000
0100
0010
0001
0000
1000
0010
,
1000
0001
1000
0001
0010
0100
0010
0100
,
1000
0001
0100
0010
1000
0100
0010
0001
,
0100
1000
0100
1000
0100
0001
0000
1001
,
0000
1000
0000
0010
0000
0100
0000
0001
,
0020
0000
0000
0000
0200
0030
0000
0000
,
2000
0300
0000
0000
0010
0000
0000
0000
,
0100
0000
0000
0000
0001
3001
0000
1001
,
0000
1100
0000
0101
0000
1001
0000
0110
,
0000
0001
1000
0010
1000
0001
0000
0110
,
0000
1000
0001
0010
0001
1000
1000
0000
,
0110
0000
1000
0001
0000
0101
0000
1010
,
0000
0001
1000
0100
0010
0010
0000
1001
,
0000
0001
0100
1000
0100
0000
0010
0100
,
0000
0001
0010
0100
1000
0100
0010
0001
,
2000
0000
0010
0000
3001
1000
0001
1001
,
0000
0110
0000
1100
0000
0011
0000
0001
,
1000
0010
0100
0001
1000
0010
0100
0001
,
0000
1000
0100
0010
0001
1000
0100
0010
,
0001
0100
0001
0100
1000
0100
1000
0100
,
0001
0010
0100
1000
0010
0100
0001
1000
,
0100
1000
0001
0100
0001
0001
0000
1001
,
0000
0001
0000
0100
0000
0010
0000
1000
,
0100
0010
0001
1000
0010
0100
0001
1000
,
0001
0001
0100
0100
0010
0010
1000
1000
,
0200
0000
0000
0300
,
1001
0000
0000
0000
;

//--------------- dance-single - forcednature ----------------
#NOTEDATA:;
#STEPSTYPE:dance-single;
#DESCRIPTION:forcednature;
#DIFFICULTY:Challenge;
#METER:14;
#RADARVALUES:0,0,0,0,0;
#CREDIT:forcednature;
#NOTES:
0000
0000
0000
0000
,
0000
0000
0000
0000
,
0000
0000
0000
0000
,
0000
0000
0000
0000
,
0000
0000
0000
0000
,
0000
1000
0100
0001
0100
0010
0001
1000
,
0000
0001
1000
0010
0001
0010
0100
0001
,
1000
0100
0010
0001
0100
0010
1000
0001
,
0010
0000
0100
0000
0010
0000
0100
0000
1000
0001
1000
0001
1000
0000
0010
0000
,
0100
0001
0100
0010
1000
0100
0010
0001
,
0100
0010
1000
0001
1000
0100
0001
0100
,
1000
0000
0010
0000
0100
0000
0001
0000
0100
0000
0000
0010
1000
0000
1001
0000
,
0000
0000
0001
0000
0010
0000
0011
0000
0000
0000
1000
0000
0100
1000
0100
0000
,
0010
0001
1000
0010
0100
0001
1000
0100
,
1000
0001
0100
0010
1000
0010
0001
0010
,
1000
0000
0100
0000
0010
0000
0001
0000
0100
0000
0000
0010
1000
0000
1001
0000
,
0000
0000
1000
0000
0100
0000
0110
0000
0000
0000
0001
0000
0100
0010
0100
0000
,
0001
1000
0001
1000
,
0100
0010
0001
0100
0010
1000
0100
0010
,
0100
0000
2000
0002
0000
0000
0000
3000
,
1000
1000
2000
0000
3003
1000
0001
1000
,
0010
0100
0001
0000
0110
0000
0001
0101
,
MMMM
0000
1000
1100
MMMM
0000
0010
0110
,
MMMM
0000
0110
0000
1001
0000
0001
1000
,
0010
0000
1000
0000
0001
0000
0100
0000
0001
0000
0000
1000
0100
1000
0100
0000
,
0010
0001
0010
0100
1000
0010
0100
0101
,
MMMM
0000
0010
1010
MMMM
0000
1000
1001
,
MMMM
1001
0002
0000
0010
0000
0103
0001
,
1000
0000
0010
0000
1000
0000
0001
0000
0010
0000
0000
0100
1000
0000
0001
0010
,
0001
0100
0001
0010
0100
1000
0010
1000
,
0100
0000
0001
0000
0100
0000
1000
0000
0001
0000
0000
1000
0001
1000
0001
0000
,
1001
MMMM
0000
1001
MMMM
0000
0000
0000
,
0001
0100
0001
1000
0010
1000
0001
0000
,
1001
MMMM
0000
1001
MMMM
0000
0000
0000
,
1000
0100
0010
0001
0010
0100
1000
0000
,
1001
0000
0001
0100
0010
1000
0001
0100
,
0001
0010
0100
1000
0001
0010
0100
1000
,
0001
0100
0001
0000
1000
0100
1000
0000
0001
0010
0001
0000
1000
0010
1000
0000
,
0000
0000
1001
0000
1001
0000
1001
0000
1001
0000
0000
0001
1000
0000
0010
0000
,
0100
0001
0100
0010
1000
0000
0001
0010
,
0100
1000
0100
0010
0001
0000
0100
0001
,
0100
1000
0100
0010
1000
0100
0000
0110
,
0000
0000
1001
0000
0000
0000
1010
0000
1000
0000
0000
0001
0100
0000
0001
0000
,
0010
0001
0010
1000
0010
0100
1000
0010
,
0001
0000
0010
0000
0100
0000
0001
0000
1000
0000
0000
0100
0010
0000
0001
0000
,
0101
MMMM
1000
1010
MMMM
1001
MMMM
0110
,
MMMM
0000
0001
0000
0100
0000
0010
0000
1000
0001
1000
0001
1000
0000
0100
0000
,
0010
0001
0010
0100
1000
0010
0001
0010
,
1000
0100
0010
0001
0100
1000
0100
0001
,
0100
0000
0010
0000
1000
0000
0001
0000
0100
0000
0010
1000
0010
0000
0110
0000
,
MMMM
0000
1100
0000
MMMM
0000
0101
0000
MMMM
0000
1001
0000
0001
1000
0001
1000
,
0001
0100
1000
0100
0001
0100
0000
0110
,
0000
1000
0100
0010
0001
0000
0100
0010
,
1000
0100
0001
1000
0010
0001
1000
0010
,
0100
0000
0001
0000
0100
0000
0010
1000
0010
1000
0010
0000
0100
0000
0001
0000
,
1000
0000
0100
0000
0010
0000
0001
0000
0100
0000
0010
1000
0010
0000
0110
0000
,
0000
0101
0000
1100
0000
1001
0000
1000
,
1010
0010
0100
0001
1000
0000
0100
0010
,
0002
0000
0100
0000
2003
0000
3100
1000
,
0100
0000
0010
0000
0001
0000
0100
0000
0010
0000
1000
0010
1000
0000
1001
0000
,
MMMM
0000
0101
0000
MMMM
0000
1100
0000
MMMM
0000
1001
0000
0001
0000
0100
0010
,
0100
1000
0100
0001
0010
0100
1000
0010
,
0100
0000
0001
0000
1000
0000
0100
0000
1000
0000
0000
0001
0010
0000
0100
0000
,
1100
MMMM
0001
1001
MMMM
0110
MMMM
1010
,
MMMM
0000
0001
0000
0100
0000
0001
0000
1000
0001
1000
0001
1000
0000
0100
0000
,
0010
0001
0010
0100
0001
0100
1000
0010
,
0000
0000
1000
0100
1000
0000
0001
0100
0001
0000
0100
0010
0100
0000
0001
1000
,
0002
0000
0000
0000
1000
0000
0003
0000
0001
0000
1000
0100
1000
0000
0010
0000
,
0100
0000
0001
0000
0010
0001
0010
0001
0000
0000
1000
0000
0100
0010
0100
0010
,
0100
0001
0100
1000
0001
0100
1000
0100
,
0000
0001
0100
1000
0001
0000
0010
1000
,
0001
0000
0100
0000
0010
0000
1000
0001
0000
1000
0001
0000
0010
0000
0100
1000
,
0000
0100
1000
0000
0001
0000
0100
0000
0010
0000
0000
1000
0010
0000
0100
0000
,
1000
0000
0100
0000
0001
0000
0010
0000
0100
0000
1000
0001
1000
0000
1010
0000
,
0000
0011
0000
0101
0000
1100
0000
0001
,
1001
MMMM
1100
MMMM
,
0011
MMMM
0110
MMMM
,
2002
0000
3003
MMMM
,
1001
0000
0000
0000
;

//--------------- dance-double - forcednature ----------------
#NOTEDATA:;
#STEPSTYPE:dance-double;
#DESCRIPTION:forcednature;
#DIFFICULTY:Easy;
#METER:4;
#RADARVALUES:0,0,0,0,0;
#CREDIT:forcednature;
#NOTES:
00000000
00000000
00000000
00000000
,
00000000
00000000
00000000
00000000
,
00000000
00000000
00000000
00000000
,
00000000
00000000
00000000
00000000
,
00000000
00000000
00000000
00000000
,
00001000
00000000
00000000
00000000
,
00010000
00000000
00000000
00000000
,
00000100
00000000
00000100
00000000
,
00000100
00000000
00001000
00000000
,
00000001
00000000
00000000
00000000
,
00000100
00000000
00000000
00000000
,
00000010
00000000
00000000
00000000
,
00010000
00000000
00001000
00000000
,
00010000
00000000
00000000
00000000
,
00001000
00000000
00000000
00000000
,
00100000
00000000
00000000
00000000
,
00010000
00000000
10000000
00000000
,
00010000
00000000
00000000
00000000
,
01000000
00000000
00000000
00000000
,
00100000
00000000
00000000
00000000
,
10000000
00000000
00000000
00000000
,
10010000
00000000
00000000
00000000
,
00010000
00000000
00000000
00000000
,
00100000
00000000
00000000
00000000
,
00001000
00000000
00001000
00000000
,
00010000
00000000
00000000
00000000
,
00000010
00000000
00000000
00000000
,
00001000
00000000
00000000
00000000
,
00000001
00000000
00000001
00000000
,
00000010
00000000
00000000
00000000
,
00000100
00000000
00000000
00000000
,
00001001
00000000
00000000
00000000
,
00001000
00000000
00000000
00000000
,
00000110
00000000
00000000
00000000
,
00000001
00000000
00000000
00000000
,
00000100
00000000
00000100
00000000
,
00000010
00000000
00000010
00000000
,
00001000
00000000
00000000
00000000
,
00000010
00000000
00010000
00000000
,
00001000
00000000
00010000
00000000
,
00001000
00000000
00000000
00000000
,
00100000
00000000
00100000
00000000
,
00010000
00000000
00000000
00000000
,
10000000
00000000
00100000
00000000
,
10000000
00000000
00000000
00000000
,
01000000
00000000
10000000
00000000
,
01000000
00000000
00000000
00000000
,
00100000
00000000
00010000
00000000
,
00100000
00000000
00000000
00000000
,
00001000
00000000
00001000
00000000
,
00010000
00000000
00000000
00000000
,
00000010
00000000
00001000
00000000
,
00000010
00000000
00000000
00000000
,
00000100
00000000
00000100
00000000
,
00000001
00000000
00000000
00000000
,
00001001
00000000
00000000
00000000
,
00001000
00000000
00000000
00000000
,
00000200
00000000
00000000
00000000
,
00000000
00000000
00000000
00000000
,
00000000
00000000
00000000
00000300
,
00000000
00000000
00000000
00000000
,
00011000
00000000
00000000
00000000
,
00001000
00000000
00000000
00000000
,
01000000
00000000
01000000
00000000
,
01000000
00000000
00000000
00000000
,
00010000
00000000
00000000
00000000
,
10000000
00000000
00000000
00000000
,
01000000
00000000
01000000
00000000
,
01000000
00000000
00000000
00000000
,
00100000
00000000
00000000
00000000
,
00001000
00000000
00000000
00000000
,
00010000
00000000
00001000
00000000
,
00010000
00000000
00000000
00000000
,
00000010
00000000
00000010
00000000
,
00000100
00000000
00000000
00000000
,
00000001
00000000
00000001
00000000
,
00001000
00000000
00001000
00000000
,
00000100
00000000
00000000
00000000
,
00001001
00000000
00000000
00000000
;

//--------------- dance-double - forcednature ----------------
#NOTEDATA:;
#STEPSTYPE:dance-double;
#DESCRIPTION:forcednature;
#DIFFICULTY:Medium;
#METER:10;
#RADARVALUES:0,0,0,0,0;
#CREDIT:forcednature;
#NOTES:
00000000
00000000
00000000
00000000
,
00000000
00000000
00000000
00000000
,
00000000
00000000
00000000
00000000
,
00000000
00000000
00000000
00000000
,
00000000
00000000
00000000
00000000
,
00011000
00001000
01000000
00010000
,
10000000
00100000
10000000
01000000
,
01100000
00001000
00011000
00000100
,
00001000
00000001
00001000
00000001
00000100
00000010
00000100
00000000
,
00000001
00000000
00000100
00000000
00001000
00010000
00000000
00000000
,
00000100
00000000
00010000
00000000
00001000
00100000
00000000
00000000
,
00010000
00000000
10000000
00000000
00100000
01000000
00000000
10010000
,
00000000
01000000
00000000
00011000
00000000
00000100
00000000
00000000
,
00001001
00000000
00000001
00000000
00000100
00000010
00000000
00000000
,
00001000
00000000
00000100
00000000
00010000
00001000
00000000
00000000
,
00100000
00000000
01000000
00000000
10000000
00010000
00000000
01010000
,
00000000
00001000
00000000
00001100
00000000
00010000
00000000
00000000
,
00011000
00000000
00000000
00000000
,
00001000
00000000
00010000
00000000
00000100
00001000
00000100
00000000
,
00000010
00000000
00000100
00000020
00000000
00000000
00000000
00000000
,
00000001
00000031
00000000
00000001
,
00000100
00000001
00000100
00000000
00000010
00000000
00001100
00000000
,
00000100
00011000
01000000
00110000
,
10000000
00000000
00010000
00000000
01000000
00100000
01000000
00000000
,
00010000
00000000
10000000
00000000
01000000
00100000
00010000
00000000
,
01001000
00000000
00010000
00000000
00000100
00001000
00000010
00000000
,
00000100
00000001
00000010
00000000
00000100
00000000
00001000
00000000
,
00000001
00000100
00001000
00000000
00010000
00000000
00001000
00000000
,
00100000
00010000
01000000
00000000
00100000
10000000
01000000
00000000
,
01100000
00001000
00011000
00000100
,
00010000
00001000
00100000
00001000
00010000
00000100
00010000
00001000
,
01000000
00000000
00100000
01000000
00000000
00000000
00000000
00000000
,
00010000
00100000
01000000
10000000
01000000
00100000
00010000
00000000
,
00001000
00000000
00000100
00001000
00000000
00000010
00000000
00000100
,
00000000
00000001
00000000
00000010
00000000
00000001
00001000
00000000
,
00001001
00000101
00001100
00011000
,
00100000
00010000
01000000
00000000
00100000
10000000
01000000
00000000
,
01100000
00000000
00010000
00001000
00000000
00000110
00000000
00001001
,
00000000
00000001
00000100
00001000
00010000
00000000
01100000
00000000
,
10000000
00000000
00100000
00000000
10000000
01000000
00100000
00000000
,
00010000
00000000
01000000
00000000
00001000
00010000
00000100
00000000
,
00001000
00000000
00000001
00000000
00000100
00000010
00000000
00001001
,
00000000
00000100
00000000
00001001
00000000
00000010
00000000
00001001
,
00000000
00000001
00000100
00000000
00001000
00010000
00000000
00011000
,
00000000
00100000
00010000
00000000
01000000
00100000
00000000
00000000
,
10010000
00000000
10000000
00100000
00000000
01100000
00000000
01010000
,
00000000
00001000
00010000
00000000
00000100
00000010
00000100
00000000
,
00001001
00000000
00000100
00000000
00000001
00000010
00000100
00000000
,
00011000
00000000
00001000
00000000
00100000
00010000
01000000
00000000
,
10010000
00000000
10000000
00000000
00100000
10000000
01000000
00100000
,
00000000
00110000
00000000
00001000
00000000
00010100
00000000
00000010
,
00000000
00001000
00000001
00000000
00000100
00000010
00000000
00001001
,
00000000
00000001
00000100
00000000
00001000
00000000
00010000
01000000
,
10000000
00010000
10000000
00000000
00010000
01000000
00010000
00000000
,
00001000
00000100
00001000
00000000
00000001
00000010
00000001
00000000
,
00000100
00000001
00000100
00000010
00001000
00000010
00000000
00000220
,
00000000
00000000
00000000
00000330
,
00002002
00000000
00000003
00000000
,
00000200
00003000
00020000
00000300
,
00002000
00000000
00000000
00000000
00033000
00000000
00000000
00011000
,
00000000
00001000
00000000
01100000
00000000
00010000
00000000
10010000
,
00000000
10000000
01000000
00000000
00100000
00010000
00000000
01100000
,
00000000
00001000
00010000
00000000
00000100
00000010
00000000
00000000
,
00001001
00000000
00000001
00000100
00000000
00000110
00000000
00001001
,
00000000
00001000
00000100
00000000
00010000
00001000
00010000
00000000
,
01100000
00000000
00100000
00000000
10000000
01000000
00100000
00000000
,
00001000
00010000
00001000
00000000
00000100
00000010
00000100
00000000
,
00001002
00000000
00000100
00000003
00000001
00000010
00000100
00001000
,
00000000
00000110
00000000
00000001
00000000
00000110
00000000
00010000
,
00001000
00100000
00001000
00000000
00010000
00000000
00100000
10000000
,
00000000
01000000
00100000
00010000
01000000
00000000
00001000
00000000
,
00010000
00000100
00010000
00000000
00001000
00100000
00001000
00000000
,
00010000
00000010
00010000
00000000
00000100
00000010
00000100
00000000
,
00001000
00000001
00000100
00000010
00001000
00000001
00000000
00002002
,
00000000
00000000
00000000
00003003
,
00000202
00000303
00002200
00003300
,
00022000
00033000
02020000
03030000
,
22000000
00000000
00000000
33000000
,
10010000
00000000
00000000
00000000
;

//--------------- dance-double - forcednature ----------------
#NOTEDATA:;
#STEPSTYPE:dance-double;
#DESCRIPTION:forcednature;
#DIFFICULTY:Hard;
#METER:12;
#RADARVALUES:0,0,0,0,0;
#CREDIT:forcednature;
#NOTES:
00000000
00000000
00000000
00000000
,
00000000
00000000
00000000
00000000
,
00000000
00000000
00000000
00000000
,
00000000
00000000
00000000
00000000
,
00000000
00000000
00000000
00000000
,
00000000
00010000
00001000
01000000
00010000
01000000
00001000
00010000
,
00000000
00000100
00001000
00000100
00010000
00001000
00010000
00000010
,
00001000
00000000
00001000
00000001
00000010
00000000
00000010
00000100
,
00001000
00000100
00010000
00001000
00200000
00000000
00300000
00010000
,
01000000
00100000
10000000
00100000
01000000
00010000
00000000
00100000
,
00001000
00010000
00000100
00010000
00001000
00100000
00000000
00001000
,
00010000
00000010
00001000
00000010
00010000
00001000
00000000
00011000
,
00000000
00011000
00000000
00010100
00000000
00010100
00000000
00010000
,
00000010
00001000
00000010
00010000
00001000
00010000
00000000
00000100
,
00001000
00000100
00000010
00000001
00000010
00000100
00000000
00001000
,
00000010
00010000
00001000
01000000
00010000
01000000
00000000
01010000
,
00000000
10000000
00100000
10000000
00000000
00010000
00100000
00020000
,
00000000
01000000
00000000
01030000
,
00000000
00010000
00100000
00001000
00100000
00000000
00001000
00010000
,
00000100
00000000
00001000
00000200
00000000
00000000
00000000
00000000
,
00000010
00000010
00000310
00000000
00000000
00000100
00001000
00000001
,
00000000
00000010
00000001
00001000
00000100
00000000
00010000
00002000
,
01000000
00003000
00001000
00020000
00000100
00030000
00010000
00002000
,
01000000
00003000
00011000
00000000
00001000
00100000
00010000
00100000
,
00000000
01000000
10000000
00010000
00100000
00000000
00001000
00010000
,
00011000
00000000
00001000
00010000
00000100
00000000
00001000
00000001
,
00000010
00000000
00000100
00001000
00000100
00010000
00001000
00200000
,
00000000
00010000
00320000
00000000
01030000
00000000
00010000
10000000
,
00100000
10000000
00010000
00100000
00000000
01000000
00010000
00000000
,
00011000
00000000
00001000
00100000
00010000
00100000
00001000
00010000
,
00000010
00001000
00000010
00010000
00001000
01000000
00010000
01000000
,
00100000
00000000
00000000
01100000
00000000
00000000
00000000
00000000
,
01000000
00001000
00010000
00000010
00001000
00000100
00001000
00000000
,
00000110
00000000
00000000
00000110
00000000
00000000
00000000
00000000
,
00000001
00000000
00000100
00000000
00001000
00010000
00001000
00000000
,
00021000
00000000
00000100
00000100
,
00001000
00001000
00000010
00030010
,
00010000
00001000
00010000
00001000
01000000
00010000
01000000
00010000
,
00000000
00100000
01000000
00100000
01000000
00000000
01100000
00000000
,
10000000
01000000
10000000
00010000
00100000
00000000
00110000
00000000
,
00010000
00100000
00001000
00010000
00001000
00000000
00011000
00000000
,
00010000
00000010
00001000
00000010
00001000
00000001
00000000
00000010
,
00000000
00000011
00000000
00000100
00000000
00001100
00000000
00001001
,
00000000
00000001
00000100
00000001
00001000
00000010
00000000
00001010
,
00000000
00010000
00001000
00010000
00000100
00001000
00000000
00000000
,
00001100
00000000
00010000
00001000
00000000
00011000
00000000
00101000
,
00000000
00100000
00010000
10000000
00100000
00100000
00100000
10000000
,
00000000
00010000
01000000
00001000
00010000
00000100
00001000
00000100
,
00000000
00010000
00001000
00010000
00000010
00001000
00000001
00000010
,
00000000
00000100
00001000
00000100
00010000
00001000
00000000
00011000
,
00000000
00101000
00000000
00110000
00000000
00101000
00000000
00011000
,
00000000
00010000
00001000
01000000
00010000
01000000
00000000
00011000
,
00000000
00001000
00010000
00000100
00001000
00000000
00000100
00010000
,
00001000
00100000
00001000
00100000
00010000
01000000
00010000
01000000
,
00001000
00010000
00001000
00010000
00000010
00000010
00000010
00000000
,
00001000
00000100
00000010
00000100
00001000
00000001
00000000
00000021
,
00000000
00000001
00000000
00000100
00000000
00000130
00000000
00000000
,
00002002
00000000
00000000
00000000
,
00000000
00000000
00000000
00000000
,
00000000
00000000
00000000
00000000
00000000
00003003
00000000
00000100
,
00000000
00000110
00000000
00000010
00000000
00000110
00000000
00001001
,
00000000
00001000
00000100
00010000
00001000
00100000
00010000
01000000
,
00000000
00001000
00010000
00000010
00001000
00000100
00010000
00000000
,
00011000
00000000
00001000
00100000
00000000
00110000
00000000
11000000
,
00000000
10000000
00010000
01000000
00100000
00100000
00100000
00000000
,
10000000
00010000
01000000
00001000
00010000
00000100
00001000
00000001
,
00000000
00000100
00000010
00001000
00000010
00000100
00000001
00000010
,
00000200
00000000
00000000
00000000
00001300
00000100
00010000
00001000
,
00000000
00011000
00000000
00011000
00000000
00001000
00100000
00010000
,
00000000
01000000
00010000
01000000
00001000
00010000
00001000
00100000
,
00000000
00001000
00010000
00000100
00001000
00000100
00010000
00001000
,
00000000
00010000
00000010
00001000
00000010
00010000
00001000
01000000
,
00010000
01000000
00001000
00010000
00001000
00100000
00010000
00000000
,
10010000
00000000
10000000
00100000
01000000
00010000
01000000
00002000
,
00000000
00010000
00000000
00010000
00000000
00100000
00003000
00000000
,
00011000
00000100
00011000
01000000
,
00011000
00000010
00011000
00100000
,
00022000
00000000
00000000
00033000
,
00011000
00000000
00000000
00000000
;

//--------------- dance-double - forcednature ----------------
#NOTEDATA:;
#STEPSTYPE:dance-double;
#DESCRIPTION:forcednature;
#DIFFICULTY:Challenge;
#METER:14;
#RADARVALUES:0,0,0,0,0;
#CREDIT:forcednature;
#NOTES:
00000000
00000000
00000000
00000000
,
00000000
00000000
00000000
00000000
,
00000000
00000000
00000000
00000000
,
00000000
00000000
00000000
00000000
,
00000000
00000000
00000000
00000000
,
00000000
00001000
00010000
01000000
10000000
00100000
10000000
01000000
,
00000000
00010000
00001000
00000100
00000001
00000010
00000001
00000100
,
00000110
00000000
00000010
00001000
00001001
00000000
00000001
00000010
,
00001000
00000000
00001000
00000000
00010000
00000000
00010000
00000000
00001000
00010000
00001000
00010000
00001000
00000000
01000000
00000000
,
00000000
00010000
00100000
01000000
00010000
00001000
00000010
00000100
,
00000000
00001000
00000001
00000100
00001000
00010000
00100000
10000000
,
00000000
00000000
01000000
00000000
00010000
00000000
00001000
00000000
00100000
00000000
00000000
00001000
00010000
00000000
00010100
00000000
,
00000000
00000000
00001000
00000000
00000001
00000000
00000101
00000000
00000000
00000000
00001000
00000000
00000010
00001000
00000010
00001000
,
00000010
00000100
00000001
00000100
00001000
00010000
00100000
01100000
,
00000000
01000000
00010000
10000000
00010000
00100000
00001000
00011000
,
00000000
00000000
00010000
00000000
00000010
00000000
00001000
00000000
00000001
00000000
00000100
00000001
00000100
00000000
00000010
00000000
,
00000000
00000000
00001000
00000000
00000100
00000000
00000001
00000000
00000000
00000000
00000100
00000000
00010000
00000000
00001000
00010000
,
00002000
00000000
00100000
00000000
00000000
00000000
00100000
00003000
,
00000000
00001000
00010000
00001000
01000000
00010000
01000000
00100000
,
10000000
00000000
01000000
00020000
00000000
00000000
00000100
0000MMMM
,
00001000
0000MMMM
00000010
00030000
00000000
00010000
00001000
00011000
,
00000000
00010000
00100000
10000000
00010000
01000000
00010000
00200000
,
00000000
00301000
00000010
00002000
00000000
00103000
00010000
00100000
,
00000000
00001000
00011000
00000000
00010000
00000010
00001000
00000002
,
00000000
00000000
00000103
00000000
00001000
00000000
00010000
00000000
00011000
00000000
00000000
00001000
00010000
00001000
00010000
00000000
,
00100000
00000000
01100000
00000000
01000000
00010000
10000000
00020000
,
00000000
00130000
01000000
00020000
00000000
00031000
00000010
00000200
,
00000000
00000310
00002001
00000000
00003001
00000100
00001000
00010000
,
00001000
00000000
00100000
00000000
00010000
00000000
00100000
00000000
01000000
00000000
00000000
00100000
01000000
00000000
00100000
01000000
,
10000000
00010000
00100000
00010000
00001000
00000100
00001000
00000001
,
00000100
00000000
00001000
00000000
00010000
00000000
01000000
00000000
10000000
00000000
00000000
00100000
10000000
00100000
10000000
00000000
,
01000000
MMMM0000
00000000
00001100
0000MMMM
00000000
00000000
00000000
,
00000001
00000010
00001000
00010000
00001000
00000010
00000001
00000000
,
00000100
0000MMMM
00000000
01010000
MMMM0000
00000000
10000000
00100000
,
00000000
00010000
00100000
10000000
00000000
01000000
00010000
00000000
,
00012000
00100000
00010000
01000000
,
00010000
00010000
00010000
00000000
00100000
00100000
00103000
00000000
,
00001000
00010000
00000010
00001000
00000001
00000010
00000001
00000100
,
00000000
00000000
00001000
00000000
00011000
00000000
00010000
00000000
00011000
00000000
00000000
00001000
00010000
00000000
00100000
00000000
,
10000000
01000000
00010000
00001000
0010MMMM
00000000
MMMM1000
00000010
,
00000001
00000100
00001000
00010000
MMMM0010
00000000
0001MMMM
00100000
,
10000000
01000000
00010000
00001000
00100000
00010000
00000000
01010000
,
00000000
00101000
00000000
00010010
00000000
00001100
00000000
00002001
,
00000000
00003001
00000100
00001000
00010000
00100000
00000000
10020000
,
00000000
00000000
10030000
00000000
01000000
00000000
00010000
00000000
00001000
00000000
00000000
00000010
00000100
00000000
00000010
00000000
,
00000110
00000000
00000100
00010000
00000000
00011000
00000000
01001000
,
00000000
00000000
00010000
00000000
10000000
00000000
00100000
00000000
10000000
00010000
10000000
00010000
00100000
00000000
01000000
00000000
,
10000000
00100000
00010000
00001000
0100MMMM
00000000
MMMM1000
00000100
,
00000001
00000010
00001000
00010000
MMMM0100
00000000
0001MMMM
01000000
,
10000000
00000000
00100000
00000000
00010000
00000000
00001000
00000000
01000000
00000000
00010000
01000000
00010000
00000000
00110000
00000000
,
MMMM0000
01001000
MMMMMMMM
00010100
MMMMMMMM
00001010
0000MMMM
00002001
,
00000000
00003001
00000010
00001000
00010000
01000000
00000000
10020000
,
00000000
10030000
00100000
00010000
00002000
00000000
00003010
00000001
,
00000100
00001000
00000100
00001000
01000000
00010000
01000000
00010000
,
00100000
00000000
00001000
00000000
00010000
00000000
00000100
00001000
00000100
00001000
00000001
00000010
00000001
00000000
00000100
00000000
,
00001000
00000000
00010000
00000000
00100000
00000000
00010000
00000000
00001000
00000000
01000000
00010000
01000000
00000000
01100000
00000000
,
00000000
00100000
10000000
01000000
00000000
00010000
00001000
00000000
,
00022000
00003000
00002000
00030000
,
00000020
00003000
00000002
00000030
,
00000103
00000000
00000001
00000000
00001000
00000000
00000100
00000000
00001000
00000000
00000010
00001000
00000010
00000000
00001010
00000000
,
0000MMMM
00010100
MMMMMMMM
01001000
MMMMMMMM
00110000
MMMM0000
10020000
,
00000000
10030000
01000000
00010000
00001000
00000010
00000000
00002001
,
00000000
00000000
00003001
00000000
00000100
00000000
00001000
00000000
00010000
00000000
00000000
00001000
00010000
00000000
00001000
00000000
,
00011000
00000000
00010000
00110000
00000000
10100000
00000000
11000000
,
00000000
00000000
01000000
00000000
00010000
00000000
00001000
00000000
00010000
00001000
00010000
00001000
00010000
00000000
00000000
00000000
,
00001000
00000010
00000001
00000100
00000001
00000010
00001000
00020000
,
00000000
00000000
00031000
00010000
00001000
00000000
01000000
00010000
01000000
00000000
00010000
10000000
00010000
00000000
10000000
00100000
,
20000000
00000000
00010000
30000000
10000000
01000000
00010000
00011000
,
MMMMMMMM
00001100
0000MMMM
00011000
MMMMMMMM
01010000
MMMM0000
00000000
,
00010000
10000000
01000000
00010000
00001000
00100000
00001000
00000010
,
00000000
00000000
00000001
00000000
00000100
00000000
00001000
00000000
00011000
00000000
00000000
00010000
00100000
00000000
01000000
00000000
,
00010000
10000000
00010000
10000000
01000000
00010000
00001000
00010000
,
00001000
00000000
00000010
00000000
00000001
00000000
00000010
00000000
00000100
00001000
00000100
00001000
00000001
00000000
00000100
00000000
,
00000010
00000000
00001000
00000000
00000010
00000000
00010000
00000000
00001000
00000000
00010000
00001000
00010000
00000000
00011000
00000000
,
00000000
00100000
00001000
00010000
00000000
00001000
01000000
00000000
,
01100000
00000000
00100000
10000000
01000000
00010000
00001000
00000010
,
00000110
00000000
00000100
00001000
00000001
00000100
00001000
00010000
,
00022000
00000000
00000000
00000000
00000000
00000000
00033000
MMMMMMMM
,
00011000
00000000
00000000
00000000
;
